#TITLE:ASAP;
#SUBTITLE:;
#ARTIST:STAYC;
#TITLETRANSLIT:;
#SUBTITLETRANSLIT:;
#ARTISTTRANSLIT:;
#CREDIT:;
#BANNER:ASAP.png;
#BACKGROUND:ASAP-bg.png;
#LYRICSPATH:;
#CDTITLE:;
#MUSIC:ASAP.mp3;
#OFFSET:-0.220;
#SAMPLESTART:43.340;
#SAMPLELENGTH:15.000;
#SELECTABLE:YES;
#BPMS:0.000=132.000;
#STOPS:;
#BGCHANGES:;

//---------------dance-single - ----------------
#NOTES:
     dance-single:
     :
     Easy:
     5:
     0.233,0.374,0.154,0.073,0.000:
0000
0000
0000
0000
,
0000
0000
0000
0000
,
0000
0000
0000
0000
,
1000
0000
0000
1000
0000
0000
0000
0000
,
1000
0000
0000
1000
0000
0000
0000
0000
,
0100
0000
0000
0100
0000
0000
0000
0000
,
0100
0000
0000
0100
0000
0000
0000
0000
,
2002
0000
3003
0110
,
0010
0001
0100
0000
,
0010
1000
0100
0000
,
1000
0001
1000
0000
,
0001
0100
0001
0000
,
1000
0010
1000
0000
,
0010
0100
0010
0000
,
0010
0001
1000
0000
,
0100
0001
1000
0000
,
1000
0001
1000
0010
,
1010
0100
0010
1001
,
0001
0100
0001
0010
,
0001
0010
0100
1000
,
0010
0100
0001
1000
,
0011
1000
0001
1001
,
0001
1000
0001
1000
0001
1000
0001
1000
,
1001
0000
0000
0102
,
0103
0001
0100
0010
,
1000
0010
0100
0000
,
1000
0010
1000
0001
,
0100
0001
1000
2010
,
3010
0010
0100
0001
,
1000
0010
0100
0010
,
0000
0001
0100
0010
,
1000
0010
0100
0010
,
1001
0010
0000
0100
,
0000
0010
0000
0100
,
0101
0001
0000
0100
,
0000
0001
0000
0100
,
1010
1000
0000
0010
,
0000
1000
0000
0010
,
0110
0010
0000
0100
,
0000
0000
0220
0000
,
0330
0000
0000
0000
,
0010
0000
0000
0000
,
0100
0000
0000
0000
,
0001
0000
0000
0000
,
1000
0000
0000
0000
,
0010
0000
0000
0000
,
1000
0000
0000
0000
,
0001
0000
0000
0000
,
0001
0000
0000
0000
0000
0000
0010
0100
,
0000
0010
0000
1000
,
0000
0001
0000
0100
,
0000
0001
0000
1000
,
0000
0010
0000
1000
,
0000
0001
0000
0100
,
0000
1000
0000
0010
,
0000
1000
0000
0001
,
0000
1000
0000
2010
,
3010
1000
0010
0100
,
0001
0100
0010
0000
,
0001
0100
0001
1000
,
0010
1000
0001
0102
,
0103
0100
0010
1000
,
0001
0100
0010
0100
,
0000
1000
0010
0100
,
0001
0100
0010
0100
,
1001
0100
0000
0010
,
0000
0100
0000
0010
,
1010
1000
0000
0010
,
0000
1000
0000
0010
,
0101
0001
0000
0100
,
0000
0001
0000
0100
,
0110
0100
0000
0010
,
0000
0000
0220
0000
,
0330
0000
0000
0000
;

//---------------dance-single - ----------------
#NOTES:
     dance-single:
     :
     Beginner:
     3:
     0.184,0.267,0.102,0.037,0.000:
0000
0000
0000
0000
,
0000
0000
0000
0000
,
0000
0000
0000
0000
,
0000
0000
0000
0000
,
0010
0000
0000
0000
,
0100
0000
0000
0000
,
0010
0000
0000
0000
,
0100
0000
0000
1001
,
0000
0001
0000
1000
,
0000
0010
0000
0100
,
0000
0010
0000
1000
,
0000
0001
0000
0100
,
0000
0001
0000
1000
,
0000
0001
0000
0100
,
0000
0001
0000
1000
,
0000
0010
0000
1000
,
0000
1010
0000
0010
,
0000
0100
0000
0001
,
0000
0101
0000
0010
,
0000
0100
0000
0001
,
0000
1001
0000
0001
,
0000
0100
0000
0010
,
0000
0100
0010
0100
,
0110
0000
0000
0000
,
1000
1000
1000
0000
,
0001
0001
0001
0000
,
0100
0000
0010
0000
,
0010
0000
0100
0000
,
1000
1000
1000
0000
,
0001
1000
0001
0000
,
1000
0000
0010
0000
,
0100
0000
0000
0001
,
1001
0001
0000
0010
,
0010
0010
0000
0100
,
0100
0100
0000
0010
,
0100
0010
0000
1000
,
1001
1000
0000
0010
,
0010
0010
0000
1000
,
0010
1000
0000
0001
,
0001
0001
0000
0000
,
0020
0000
0000
0030
,
0010
0000
0000
0000
,
1000
0000
0000
0000
,
0001
0000
0000
0000
,
0110
0000
0000
0000
,
0010
0000
0000
0000
,
0100
0000
0000
0000
,
0010
0000
0000
0000
,
2002
0000
3003
1000
,
1001
1000
0000
0100
,
0100
0100
0000
0010
,
0010
0010
0000
0100
,
0010
0100
0000
0001
,
1001
0001
0000
0100
,
0100
0100
0000
0001
,
0100
0001
0000
1000
,
1000
1000
0000
0000
,
0001
0001
0001
0000
,
1000
1000
1000
0000
,
0010
0000
0100
0000
,
0100
0000
0010
0000
,
0001
0001
0001
0000
,
1000
0001
1000
0000
,
0001
0000
0100
0000
,
0010
0000
0000
1000
,
1010
1000
0000
0010
,
0010
0010
0000
0100
,
0010
0100
0000
0001
,
1000
0001
0000
0010
,
0110
0100
0000
1000
,
0010
1000
0000
0001
,
0100
0001
0000
0100
,
0010
0100
0000
2002
,
3003
0000
0000
0000
;

//---------------dance-single - ----------------
#NOTES:
     dance-single:
     :
     Medium:
     8:
     0.344,0.427,0.132,0.088,0.000:
0000
0000
0000
0000
,
0000
0000
0000
0000
,
0000
0000
0000
0000
,
0000
0000
0000
0000
,
0010
0000
0000
0010
0000
0000
0000
0000
,
0100
0000
0000
0100
0000
0000
0000
0000
,
0001
0000
0000
0001
0000
0000
0000
0000
,
2002
0000
3003
0110
,
0010
0000
0100
0010
0100
0000
0001
0000
,
1000
0000
1000
0010
0100
0000
0010
0000
,
1000
0000
0001
0100
0010
0000
0100
0000
,
0010
0000
0010
0100
0001
0000
1001
0000
,
0100
0000
0010
0100
1000
0000
0001
0000
,
0001
0000
0100
0010
0010
0000
1000
0000
,
0100
0000
0010
0001
0100
0000
0001
0000
,
1000
0000
0001
1000
0001
0000
0110
0000
,
1001
0001
0100
0010
,
0100
0000
0010
0000
1000
0010
0000
0000
,
1010
0110
0101
0001
,
0001
0000
0100
0010
0100
0000
0010
0100
,
0010
0000
1000
0100
0010
0000
0100
0000
,
0001
0000
0001
0100
1000
0000
0100
0000
,
0010
1000
0010
1000
0001
0100
0001
0100
,
1001
0000
0101
1010
,
2001
0000
3001
0000
0100
0010
0100
0000
,
0010
0000
1000
0000
0010
1000
0000
0000
,
0010
0100
0010
0100
,
0001
0000
0001
0100
0001
0100
0010
0000
,
0120
0000
0130
0000
0100
0010
1000
0000
,
0100
0000
0010
0000
0001
0001
0000
0000
,
0100
0000
0010
1000
0001
0000
0100
0010
,
1000
0001
0010
0100
,
1000
0010
1000
0000
0010
0100
0010
0000
,
0100
0001
0010
0001
,
0001
0100
0010
0000
0100
0010
1000
0000
,
0001
0100
0010
0001
,
0001
0100
0010
0000
0010
1000
0100
0000
,
1000
0001
0100
0010
,
0100
0000
0100
0010
0001
0000
1000
0100
,
0010
0010
2020
0000
,
3030
0000
0000
0010
0000
0000
0000
0000
,
0001
0000
0000
0100
0000
0000
0000
0000
,
1000
0000
0000
0010
0000
0000
0000
0000
,
0001
0000
0000
0100
0000
0000
0000
0000
,
0100
0000
0000
1000
0000
0000
0000
0000
,
0010
0000
0000
0001
0000
0000
0000
0000
,
1000
0000
0000
0010
0000
0000
0000
0000
,
0001
0000
0000
0100
0000
0000
0000
0000
,
2002
0000
0000
0000
3003
0000
1000
0001
,
1000
0010
0100
0000
0010
0100
0001
0000
,
0010
0100
0010
1000
,
0001
1000
0001
0000
1000
0010
1000
0000
,
0100
0010
0001
0100
,
0010
0001
0100
0000
0100
0010
1000
0000
,
0001
1000
0010
1000
,
0001
0100
1000
0000
1000
0100
0001
0000
,
1000
0010
0001
0010
,
1002
0000
1003
0000
0010
0100
0010
0000
,
0100
0000
0001
0000
0100
0001
0000
0000
,
0100
0010
0100
0010
,
1000
0000
1000
0010
1000
0010
0100
0000
,
0210
0000
0310
0000
0010
0100
0001
0000
,
0010
0000
0100
0000
1000
1000
0000
0000
,
0010
0000
0100
0001
1000
0000
0010
0100
,
0001
1000
0100
0010
,
0001
0100
0001
0000
0100
0010
0100
0000
,
0010
1000
0100
1000
,
1000
0010
0100
0000
0010
0100
0001
0000
,
1000
0010
0100
1000
,
1000
0010
0100
0000
0100
0001
0010
0000
,
0001
1000
0010
0100
,
0010
0000
0010
0100
1000
0000
0001
0010
,
0100
0100
0202
0000
,
0303
0000
0000
0000
;

//---------------dance-single - ----------------
#NOTES:
     dance-single:
     :
     Hard:
     13:
     0.459,0.507,0.124,0.044,0.113: // measure 1
0000
0000
0000
0000
,  // measure 2
0000
0000
0000
0000
,  // measure 3
0000
0000
0000
0000
,  // measure 4
0000
0000
0000
0000
,  // measure 5
0001
0010
0100
1000
0001
1000
0000
0000
,  // measure 6
1000
0010
0100
0010
0000
0000
0000
0000
,  // measure 7
1000
0100
0010
0001
1000
0010
0000
0000
,  // measure 8
1000
0001
1000
0001
0010
0100
1000
0000
0000
1010
0000
0000
,  // measure 9
1000
0010
0001
0010
1000
0000
0001
1000
,  // measure 10
0010
1000
0001
1000
0010
0000
0100
0000
,  // measure 11
0010
0100
0010
1000
0001
0000
0100
0010
,  // measure 12
1000
0010
0100
0010
0001
0000
0100
0000
,  // measure 13
0001
0100
1000
0100
0001
0000
1000
0001
,  // measure 14
0100
0001
1000
0001
0100
0000
0010
0000
,  // measure 15
0100
0010
0100
0001
1000
0000
0010
0000
,  // measure 16
0001
0100
0010
0100
1000
0000
0010
1000
,  // measure 17
0010
0000
0000
0100
0000
0000
0010
0000
1000
0000
0010
0000
0100
0000
0010
0000
,  // measure 18
0001
0000
0000
0001
0100
0000
0000
0000
0010
0000
1000
0000
0000
0000
0000
0000
,  // measure 19
0010
1000
0000
0000
0100
0000
0000
0000
1010
0000
0000
0000
0010
0000
0001
0000
,  // measure 20
0100
1000
0001
0100
1000
0100
0001
1000
,  // measure 21
1001
0000
0000
1000
0010
0000
1000
0000
0001
0000
0010
0000
0001
0000
0010
0000
,  // measure 22
0100
0000
0000
1000
0000
0000
1000
0000
0010
0000
1000
0000
0010
0000
0000
0000
,  // measure 23
0001
0000
0000
0010
0000
0000
0100
0000
0001
0000
1000
0000
0010
0000
1000
0000
,  // measure 24
1001
0000
0000
0000
0220
0330
0100
0000
,  // measure 25
1010
0000
1000
0000
1000
0010
0001
0010
,  // measure 26
1000
0000
0010
0000
0100
0010
0000
0000
,  // measure 27
0100
0000
0000
0000
0001
0000
0000
0000
0001
0100
0000
0000
0010
0000
0000
0000
,  // measure 28
0010
0100
0000
0000
0001
0000
0010
0000
0100
0000
1000
0000
0001
0000
0000
0000
,  // measure 29
0101
0000
0001
0000
0001
0100
0010
0100
,  // measure 30
1000
0000
0010
0000
0100
0010
0000
0000
,  // measure 31
1000
0000
0010
0010
1000
0010
1000
0001
,  // measure 32
0100
0000
0001
0000
1000
0000
0001
1000
0001
1000
0001
1000
0010
0000
0000
0000
,  // measure 33
0110
0010
0100
0010
1000
0010
0000
0001
,  // measure 34
1000
0001
1000
0010
0000
0000
0010
0100
,  // measure 35
0000
0010
0100
0010
1000
0001
0000
0100
,  // measure 36
0001
0000
0000
0000
0100
0000
0001
0000
1000
0001
1000
0001
1000
0000
0000
0000
,  // measure 37
1010
1000
0100
0010
0001
0100
0000
0100
,  // measure 38
0001
0100
0010
1000
0000
0000
1000
0010
,  // measure 39
0000
0000
0100
0000
0001
0100
0001
0000
0100
0000
0010
0000
1000
0010
1000
0000
,  // measure 40
0000
0001
0010
0100
2000
0000
0000
0000
,  // measure 41
3001
0000
0000
0010
0000
0000
0000
0000
,  // measure 42
1000
0010
1000
0010
0000
0000
0100
0000
,  // measure 43
0110
0000
0000
0010
0000
0000
0000
0000
,  // measure 44
0010
0100
0001
0000
0000
0000
0100
0000
,  // measure 45
0101
0000
0000
0001
0000
0000
0000
0000
,  // measure 46
0001
0100
0010
1000
0000
0000
0010
0000
,  // measure 47
1010
0000
0000
1000
0000
0000
0000
0000
,  // measure 48
1000
0010
0001
0010
1000
0010
0002
0000
,  // measure 49
2000
0000
0000
0000
0000
3003
0010
1001
,  // measure 50
0001
0100
0010
0100
0001
0100
0000
0010
,  // measure 51
1000
0010
0100
0010
0000
0000
0100
0010
,  // measure 52
0000
1000
0100
0010
0100
1000
0000
0001
,  // measure 53
0001
0000
0100
0100
0000
0010
1000
0010
,  // measure 54
0000
0100
0010
0001
0010
0100
0000
0001
,  // measure 55
0100
0010
1000
0001
0000
0000
0100
0001
,  // measure 56
0000
0001
0010
0100
0010
0001
0000
1000
,  // measure 57
0001
0000
1000
0000
0010
0000
1000
0010
0100
0001
1000
0001
0010
0000
0000
0000
,  // measure 58
0101
0000
0001
0000
0001
0100
1000
0100
,  // measure 59
0001
0000
0100
0000
0010
0100
0000
0000
,  // measure 60
0010
0000
0000
0000
1000
0000
0000
0000
1000
0010
0000
0000
0100
0000
0000
0000
,  // measure 61
0100
0010
0000
0000
1000
0000
0100
0000
0010
0000
0001
0000
1000
0000
0000
0000
,  // measure 62
1010
0000
1000
0000
1000
0010
0100
0010
,  // measure 63
0001
0000
0100
0000
0010
0100
0000
0000
,  // measure 64
0001
0000
0100
0100
0001
0100
0001
1000
,  // measure 65
0010
0000
1000
0000
0001
0000
1000
0001
1000
0001
1000
0001
0100
0000
0000
0000
,  // measure 66
0110
0100
0010
0100
0001
0100
0000
1000
,  // measure 67
0001
1000
0001
0100
0000
0000
0100
0010
,  // measure 68
0000
0100
0010
0100
0001
1000
0000
0010
,  // measure 69
1000
0000
0000
0000
0010
0000
1000
0000
0001
1000
0001
1000
0001
0000
0000
0000
,  // measure 70
0101
0001
0010
0100
1000
0010
0000
0010
,  // measure 71
1000
0010
0100
0001
0000
0000
0001
0100
,  // measure 72
0000
0000
0010
0000
1000
0010
1000
0000
0010
0000
0100
0000
0001
0100
0001
0000
,  // measure 73
0000
1000
0100
0010
0002
0000
0000
0000
,  // measure 74
1003
0000
0000
0000
;
