#TITLE:ALL IN;
#SUBTITLE:;
#ARTIST:Stray Kids;
#TITLETRANSLIT:;
#SUBTITLETRANSLIT:;
#ARTISTTRANSLIT:;
#CREDIT:;
#BANNER:ALL IN.png;
#BACKGROUND:ALL IN-bg.png;
#LYRICSPATH:;
#CDTITLE:;
#MUSIC:ALL IN.mp3;
#OFFSET:-0.420;
#SAMPLESTART:62.080;
#SAMPLELENGTH:15.000;
#SELECTABLE:YES;
#BPMS:0.000=140.000;
#STOPS:136.000=1.700
,236.000=1.700
;
#BGCHANGES:-1.020=ALL IN.avi=1.000=0=0=0,
99999=-nosongbg-=1.000=0=0=0 // don't automatically add -songbackground-
;

//---------------dance-single - ----------------
#NOTES:
     dance-single:
     :
     Beginner:
     3:
     0.200,0.273,0.094,0.070,0.000:
0000
0000
0000
0000
,
0000
0000
0000
0000
,
0001
0000
0000
0000
,
1000
0000
0000
0000
,
0001
0000
0000
0000
,
0100
0000
0000
0000
,
0010
0000
0000
0000
,
0100
0000
0000
0000
,
0010
0000
0000
0000
,
1000
0000
0000
0000
,
0010
1000
0010
0000
,
0100
0001
0100
0000
,
0001
1000
0001
0000
,
1000
0001
0100
0000
,
0010
0100
0010
0000
,
1000
0100
0010
0000
,
0001
0010
0100
0000
,
0001
1000
0100
0000
,
0110
0000
0100
0000
,
0001
1000
0001
0000
,
0101
0000
0001
0000
,
1000
0010
1000
0000
,
0010
0000
0110
0000
,
1000
0000
1001
0000
,
0001
0000
0100
0000
,
0001
0001
1000
1000
,
0002
0000
0003
0000
,
2000
0000
3000
0000
,
0200
0000
0300
0000
,
0020
0000
0030
0000
,
0100
0000
0010
0000
,
0100
0000
0001
0000
,
1000
1000
1000
0000
,
0001
0001
0001
0000
,
1001
0000
0000
1001
,
1000
0010
1000
0000
,
0001
0100
0001
0000
,
1000
0010
0100
0000
,
0001
0100
0010
0000
,
0001
0001
0001
0000
,
1000
1000
1000
0000
,
1000
0010
1000
0000
,
0010
0001
0100
0000
,
1001
0000
0001
0000
,
1000
0000
0010
0000
,
1000
0000
0001
0000
,
0010
0010
0010
0000
,
0100
0000
0010
0000
,
1000
0000
0100
0000
,
1000
0000
0100
0000
,
0100
0100
0100
0000
,
0010
0000
0010
0000
,
1000
0000
1000
0000
,
0001
0000
0001
0000
,
0100
0000
0100
0000
,
0010
0000
0010
0000
,
1000
0000
1000
0000
,
0001
0000
0001
0000
,
0100
0000
0100
0000
,
0110
0000
0000
1001
,
0001
0100
0001
0000
,
0100
0010
0100
0000
,
1000
0010
0100
0000
,
1010
0101
1010
0000
,
1000
0001
1000
0000
,
0001
0100
0010
0000
,
0100
0010
0100
0000
,
1000
1000
0001
0001
,
2000
3002
2003
3002
,
2003
0000
0000
3000
;

//---------------dance-single - ----------------
#NOTES:
     dance-single:
     :
     Easy:
     6:
     0.279,0.353,0.180,0.188,0.000:
0000
0000
0000
0000
,
0000
0000
0000
0000
,
2002
0000
3003
0000
,
0010
1000
0010
0000
,
0220
0000
0330
0000
,
0100
0001
0100
0000
,
2020
0000
3030
0000
,
1000
0010
0001
0000
,
0202
0000
0303
0000
,
0010
0100
0001
0000
,
0001
1000
0010
0001
,
1000
0010
1000
0000
,
1000
0010
0100
0010
,
1000
0001
0100
0000
,
0010
0100
0010
0100
,
0001
0010
0001
0000
,
1000
0010
0110
0010
,
1000
0001
0100
0000
,
0101
0000
1010
0000
,
0001
0100
0001
0000
,
0110
0000
1010
0000
,
1000
0100
0010
0000
,
0100
0000
0110
0000
,
0100
0000
1100
0000
,
1000
0000
1001
0000
,
0010
0000
0101
0000
,
2010
0000
0010
0000
,
3020
0000
0100
0000
,
0230
0000
0001
0000
,
0301
0000
0010
0000
,
0100
1000
0100
1000
,
0001
0100
0001
0100
,
0010
0100
0001
1000
,
0010
0100
0010
1000
,
1001
0000
0000
0110
,
2001
0010
0001
3001
,
0100
1000
0001
0100
,
0012
1000
0010
1003
,
0001
0100
0010
1000
,
1010
1000
0010
0000
,
0101
0001
0010
0000
,
2000
3200
0320
0032
,
0013
0100
0010
0100
,
0010
1000
0010
0000
,
0100
0000
0001
0000
,
0010
0100
0001
0000
,
1000
0000
0010
0000
,
1000
0100
1000
0000
,
0100
0000
1000
0000
,
0010
0100
0010
0000
,
0200
0000
0000
0310
,
0010
0100
0010
1000
,
0010
0100
0001
1000
,
0010
0100
0010
1000
,
0010
0100
0001
0100
,
1000
0100
0001
1000
,
0010
0001
0010
1000
,
0010
0001
0010
1000
,
0001
0100
1000
0100
,
1001
0000
0000
0110
,
0110
0010
0100
0000
,
0001
1000
0001
0000
,
1000
0010
0001
0000
,
0001
0100
0010
0000
,
1000
0001
1000
0000
,
0001
0100
0001
0000
,
2000
0001
0100
3001
,
0100
0010
0100
0001
,
0002
0203
0320
2030
,
3002
0000
0003
0000
;

//---------------dance-single - ----------------
#NOTES:
     dance-single:
     :
     Medium:
     10:
     0.438,0.489,0.289,0.282,0.016:
0000
0000
0000
0000
,
0000
0000
0000
0000
,
2001
0000
0001
0000
3001
0000
0001
1000
,
0010
0100
0010
0100
,
1002
0000
1000
0000
1003
0000
0010
1000
,
0010
1000
0001
0100
,
0210
0000
1000
0000
0310
0000
1000
0001
,
0010
0100
0001
1000
,
2001
0000
0001
0000
3001
0000
0010
0100
,
0010
0100
0001
1000
,
0010
1000
1010
0100
,
0001
0100
0101
0010
,
1000
0010
1001
0100
,
0001
1000
0110
1000
,
0001
1000
1010
0100
,
0010
0001
0011
0001
,
0100
0010
1010
1000
,
0100
0010
0110
0010
,
2020
3030
0000
0000
0202
0303
0000
0202
,
0303
0010
1000
0010
,
0202
0303
0000
0000
0220
0330
0000
2020
,
3030
1000
0001
0100
,
0100
0010
1000
0010
1000
0000
1001
0000
,
0001
0100
0001
0010
0001
0000
0011
0000
,
1000
0010
0100
0010
0100
0001
0010
1000
,
0010
1000
0001
0100
,
0102
0000
0000
0000
1003
0001
1000
0001
,
0000
0000
0000
0000
0010
1000
0010
0100
,
0000
0000
0000
0000
0010
1000
0001
0100
,
0000
0100
0010
1000
0100
1000
0001
0000
,
1000
0001
1000
0001
,
0100
0001
1000
0010
,
1000
0010
1000
0010
0100
0001
0100
0001
,
0100
0010
0100
0010
1000
0100
1000
0000
,
2002
0000
3003
0110
,
2000
0000
0010
0000
3010
0000
0000
0101
,
0000
0000
0000
0100
0001
0100
1000
0100
,
0002
0000
0100
0000
0103
0000
0000
0101
,
0000
0000
0000
1000
0001
0100
0001
1000
,
0010
0000
0000
1000
0000
0000
0010
0000
0100
0000
0001
0000
0010
0000
0001
0000
,
0010
0000
0000
1000
0000
0000
0001
0000
1000
0000
0100
0000
1000
0000
0010
0000
,
0020
0000
0100
0000
0130
0000
0000
0110
,
0000
1000
0000
0100
0000
0010
0000
0001
,
1000
0010
1000
0001
,
0100
0001
1000
0001
,
0100
0010
1000
1000
,
0010
0100
0010
0100
0010
0100
0000
0000
,
0001
0001
1000
0010
,
1000
0010
0100
0001
,
1000
0010
0100
0010
,
2000
0000
0000
3001
,
0001
0100
0001
0100
0001
0000
1000
0000
,
0010
1000
0100
1000
0010
0000
0100
0000
,
0001
0010
0100
0010
0001
0000
0100
0000
,
0001
1000
1000
0010
1000
0000
0010
0000
,
1000
0010
0100
0010
1000
0000
0001
0000
,
1000
0100
0010
0001
0100
0000
0010
0000
,
1000
0001
0100
0001
1000
0000
0001
0000
,
0100
0010
0100
0010
0100
0000
0010
0000
,
0220
0000
0330
0110
,
0002
0000
2003
0000
3002
0000
0103
0001
,
2000
0000
3020
0000
0230
0000
0310
0100
,
0020
0000
2030
0000
3200
0000
1300
1100
,
0000
1010
0000
0101
0001
1000
0001
0100
,
0001
0000
0000
0010
0000
0000
1000
0000
0010
0000
1000
0000
0010
0000
1000
0000
,
1000
0000
0000
0100
0000
0000
0001
0000
0100
0000
1000
0000
0001
0000
0100
0000
,
1002
0000
1000
0000
1003
0000
0000
1010
,
0000
1001
0000
0101
0000
0110
0000
1001
,
1000
0000
0100
0000
0010
0000
0001
1000
,
0002
0000
0003
0000
;

//---------------dance-single - ----------------
#NOTES:
     dance-single:
     :
     Hard:
     14:
     0.582,0.677,0.305,0.250,0.254: // measure 1
0000
0000
0000
0000
,  // measure 2
0000
0000
0000
0000
,  // measure 3
1000
0000
0010
0000
1010
0000
1000
0001
,  // measure 4
0100
0000
0001
0000
0010
0001
0010
0100
,  // measure 5
1000
0000
1001
0000
1001
0000
0001
0100
,  // measure 6
0001
0000
0100
0000
0010
1000
0010
1000
,  // measure 7
0001
0000
0010
0000
1000
0000
0001
0100
,  // measure 8
0001
0000
1010
0000
1001
0100
0010
0001
,  // measure 9
0001
0000
0100
0000
0001
0000
1000
0010
,  // measure 10
1000
0000
0010
0000
0100
1000
0100
0001
,  // measure 11
0100
0000
0001
0100
0000
0001
0100
0001
1000
0000
0010
0000
1000
0000
0000
0000
,  // measure 12
0001
0000
0100
0010
0000
1000
0010
1000
0001
0000
0100
0000
0010
0000
0000
0000
,  // measure 13
0100
0000
1000
0001
1000
0000
0001
0000
1001
0000
0100
0000
1001
0000
0100
0010
,  // measure 14
1000
0000
0010
0000
0100
0010
0100
0000
0010
0000
1000
0000
0000
0000
0000
0000
,  // measure 15
0001
0000
0000
0000
1000
0000
0000
0000
0010
0000
0000
0000
1000
0000
0000
0010
0000
0000
1000
0000
0000
0000
0000
0000
0100
0000
0000
0000
0000
0000
0010
0000
0000
0000
0000
0000
1000
0000
0000
0000
0000
0000
0010
0000
0000
0000
0000
0000
,  // measure 16
1000
0000
0001
0000
0100
0000
0010
0000
0100
0001
0100
0000
0010
0000
0000
0000
,  // measure 17
0100
0010
0100
0000
0101
0000
0000
1010
,  // measure 18
0000
0000
0001
0000
0100
0000
0010
0000
1000
0010
1000
0000
0000
0000
0000
0000
,  // measure 19
1000
0000
0010
1000
0000
1000
0010
0000
0010
0001
0000
0001
0100
0000
0100
0010
,  // measure 20
0000
0010
1000
0000
1000
0001
0000
0001
0100
0001
0000
0000
1001
0000
0000
0000
,  // measure 21
0100
0000
0001
0100
0001
0000
1000
0010
0100
0000
0001
1000
0010
0000
0010
1000
,  // measure 22
0100
0000
0010
0100
0010
0000
0100
0010
0100
0000
0000
0000
0101
0000
0000
0000
,  // measure 23
0001
0100
0001
1000
1010
0000
1010
0000
,  // measure 24
0000
1000
0100
0010
0101
0000
0110
0000
,  // measure 25
0000
0010
1000
0010
0001
0010
1000
0010
,  // measure 26
0100
0010
0000
0000
1000
0100
0000
0000
0001
0010
0000
0000
0010
0001
0000
0000
,  // measure 27
2001
0000
0000
3001
1000
0010
1000
0001
,  // measure 28
0000
0000
0000
0000
0000
0000
1000
0001
0010
0000
0001
0000
0010
0000
1000
0000
,  // measure 29
0000
0000
0000
0000
0000
0000
0100
0001
1000
0000
0010
0000
0100
0000
0010
0000
,  // measure 30
0000
0100
0010
0001
1000
0100
0010
0000
,  // measure 31
1010
1000
0010
1000
,  // measure 32
0101
0001
0100
0001
,  // measure 33
0001
1000
0001
1000
0001
0100
0010
0100
,  // measure 34
1000
0100
0010
0001
0010
0100
1000
0100
0010
0001
0010
0100
1000
0100
0010
0001
,  // measure 35
0020
0000
0030
0101
,  // measure 36
0002
0000
0203
0000
0302
0000
1003
0010
,  // measure 37
2000
0000
0000
0000
3010
0000
1000
0000
0010
0000
0010
1000
0001
0000
0100
0000
,  // measure 38
0002
0000
2003
0000
3020
0000
0130
0001
,  // measure 39
0020
0000
0000
0000
0031
0000
1000
0000
0010
0000
1000
0010
0100
0000
0010
0000
,  // measure 40
1010
0000
0000
1000
0000
0000
0010
0000
0100
0000
0001
0000
0100
0000
0001
0000
,  // measure 41
0101
0000
0000
0001
0000
0000
1000
0000
0010
0000
1000
0000
0010
0000
0001
0000
,  // measure 42
0020
0000
0032
0000
2003
0000
3010
0010
,  // measure 43
1000
1010
0000
0101
0000
1010
0000
0110
,  // measure 44
0010
0100
0010
1000
,  // measure 45
0001
0100
0001
1000
0010
0100
0010
1000
,  // measure 46
0001
0100
0001
0100
,  // measure 47
0010
0110
0000
1010
0000
0101
0000
0000
,  // measure 48
0100
0010
0100
0001
,  // measure 49
1000
0010
1000
0001
0100
0010
0100
0001
,  // measure 50
1000
0010
1000
0010
,  // measure 51
0200
0000
0000
0310
,  // measure 52
0010
0000
1000
0010
1000
0000
0001
0100
0010
0000
1000
0001
0100
0000
0100
0001
,  // measure 53
0010
0000
0100
0010
0100
0000
0010
0100
0010
0000
1000
0010
0100
0000
0001
0100
,  // measure 54
0010
0000
0100
0010
1000
0000
0010
0100
0001
0000
0001
1000
0001
0000
0100
0001
,  // measure 55
0010
0000
1000
0001
1000
0000
0010
0100
0010
0000
0100
0000
0001
0000
1000
0000
,  // measure 56
1010
0000
0010
1000
0001
0100
0001
0000
,  // measure 57
0100
0001
1000
0001
0100
0010
0110
0000
,  // measure 58
1000
0010
0001
0010
1000
0010
0001
0010
,  // measure 59
0001
0100
1000
0100
0001
1000
2002
0000
,  // measure 60
0000
0000
3003
1001
,  // measure 61
2000
0000
3020
0000
2030
0000
3001
0100
,  // measure 62
0002
0000
0000
0000
0103
0000
0001
0000
0100
0000
0100
0001
1000
0000
0010
0000
,  // measure 63
2000
0000
3002
0000
0203
0000
0310
1000
,  // measure 64
0200
0000
0000
0000
1300
0000
0001
0000
0100
0000
0001
0100
0010
0000
0100
0000
,  // measure 65
0101
0000
0000
0001
0000
0000
0100
0000
0010
0000
1000
0000
0010
0000
1000
0000
,  // measure 66
1010
0000
0000
1000
0000
0000
0001
0000
0100
0000
0001
0000
0100
0000
1000
0000
,  // measure 67
0200
0000
2300
0000
3002
0000
0103
0100
,  // measure 68
0001
0101
0000
0110
0000
1010
0000
0101
,  // measure 69
0200
0000
0320
0000
2030
0000
3001
1000
,  // measure 70
2002
3003
0000
0000
;
