#TITLE:4 Walls;
#SUBTITLE:;
#ARTIST:f(x);
#TITLETRANSLIT:;
#SUBTITLETRANSLIT:;
#ARTISTTRANSLIT:;
#CREDIT:;
#BANNER:4 Walls.png;
#BACKGROUND:4 Walls-bg.png;
#LYRICSPATH:;
#CDTITLE:;
#MUSIC:4 Walls.mp3;
#OFFSET:-0.300;
#SAMPLESTART:44.800;
#SAMPLELENGTH:15.000;
#SELECTABLE:YES;
#BPMS:0.000=126.000;
#STOPS:;
#BGCHANGES:;

//---------------dance-single - ----------------
#NOTES:
     dance-single:
     :
     Easy:
     4:
     0.204,0.252,0.067,0.141,0.000:
0000
0000
0000
0000
,
0000
0000
0000
0000
,
0000
0000
0000
0000
,
0000
0000
0000
0000
,
0010
0000
0000
0000
,
0100
0000
0001
0000
,
0001
0000
0000
0000
,
1000
0000
1000
0000
,
0010
1000
0010
0000
,
0100
0010
0001
0000
,
0001
1000
0010
0000
,
0100
0001
0010
0000
,
0010
0100
1000
0000
,
1000
0100
0010
0000
,
0010
0100
0010
0000
,
0110
1001
0110
0000
,
1000
0000
0010
0000
,
1000
0000
0010
0100
,
0010
0000
0100
0000
,
0001
0000
0100
0010
,
0010
0000
1000
0000
,
1000
0000
0001
0100
,
1000
0000
0010
0000
,
2000
0000
0000
3000
,
1000
0000
0010
0000
,
1000
0010
1000
0000
,
0020
0030
0020
0030
,
0000
0100
0000
0010
,
0001
0000
0100
0000
,
0001
0010
0100
0000
,
2000
3000
2000
3000
,
1001
0110
1001
0000
,
0000
0100
0100
0001
,
0001
0000
0000
0000
0100
0100
0100
0000
,
0000
0010
1000
1000
,
0010
0000
0000
0000
1000
1000
1000
0000
,
0000
1000
1000
0100
,
0100
0000
0000
0000
1000
1000
1000
0000
,
0000
0010
0001
0001
,
0020
0000
0000
0030
,
0002
0000
0013
0000
,
2000
0000
3100
0000
,
2000
0000
3001
0000
,
0020
0000
0130
0000
,
0020
0000
1030
0000
,
0002
0000
0103
0000
,
0200
0000
0310
0000
,
2000
0100
3100
1000
,
0000
0010
0000
1000
,
0000
0010
0100
0010
,
0000
0100
0000
0001
,
0000
0001
1000
0100
,
0000
1000
0000
0010
,
0000
1000
0001
0100
,
0000
0010
0000
0100
,
0000
0010
0000
1000
,
2000
0000
0000
0000
,
3001
0000
0100
0010
,
0001
0000
0100
0000
,
0001
0100
0001
0000
,
0200
0300
0200
0300
,
0000
0010
0000
0100
,
1000
0000
0010
0000
,
1000
0100
0010
0000
,
0002
0003
0002
0003
,
1001
0110
1001
0000
,
0000
0010
0010
1000
,
1000
0000
0000
0000
0010
0010
0010
0000
,
0000
0100
0001
0001
,
0100
0000
0000
0000
0001
0001
0001
0000
,
0000
0001
0001
0010
,
0010
0000
0000
0000
0001
0001
0001
0000
,
0000
0100
1000
1000
,
0010
0010
0010
0000
0100
0000
1000
0000
,
2002
0000
0000
0000
,
3003
0000
0000
0000
;

//---------------dance-single - ----------------
#NOTES:
     dance-single:
     :
     Beginner:
     2:
     0.149,0.176,0.027,0.047,0.000:
0000
0000
0000
0000
,
0000
0000
0000
0000
,
0000
0000
0000
0000
,
0000
0000
0000
0000
,
1001
0000
0000
0000
,
0010
0000
0100
0000
,
0010
0000
0000
0000
,
2000
0000
3000
0000
,
0000
1000
0000
1000
,
0000
0010
0000
0100
,
0000
0001
0000
0100
,
0000
0001
0000
1000
,
0000
0010
0000
0100
,
0000
0001
0000
0001
,
0000
0100
0000
0001
,
0000
1000
0000
0010
,
0000
1000
1000
1000
,
0000
0001
0000
1000
,
0000
0001
0001
0001
,
0000
0100
0000
0010
,
0000
0100
0100
0100
,
0000
1000
0000
0010
,
0000
0010
0010
0010
,
0020
0000
0000
0030
,
0000
0010
0000
0100
,
0000
0010
0000
0100
,
0000
0001
0000
1000
,
0000
0001
0000
1000
,
0000
1000
1000
1000
,
0000
1000
1000
1000
,
0000
0010
0000
1000
,
0000
0010
0000
0100
,
0000
0001
0000
0100
,
0000
0100
0000
0001
,
0000
1000
0000
0010
,
0000
1000
0000
0010
,
0000
1000
0000
0001
,
0000
0100
0000
0001
,
0000
0010
0000
0100
,
0200
0000
0300
0000
,
0110
0000
1000
0000
,
0001
0000
1000
0000
,
0010
0000
0100
0000
,
0001
0000
0010
0000
,
1001
0000
0010
0000
,
1000
0000
0001
0000
,
0100
0000
0001
0000
,
1000
0000
0010
0000
,
0220
0330
0000
0010
,
0000
0010
0000
1000
,
0000
1000
0000
0001
,
0000
0100
0000
0001
,
0000
0100
0000
0010
,
0000
1000
0000
0010
,
0000
1000
0000
0010
,
0000
0100
0000
0001
,
0000
0001
0001
0001
,
0002
0000
0000
0003
,
0000
0100
0000
0010
,
0000
0100
0000
0010
,
0000
1000
0000
0001
,
0000
1000
0000
0001
,
0000
0001
0001
0001
,
0000
0001
0001
0001
,
0000
0100
0000
0001
,
0000
0100
0000
0010
,
0000
1000
0000
0010
,
0000
0010
0000
1000
,
0000
0001
0000
0100
,
0000
0001
0000
0100
,
0000
0001
0000
1000
,
0000
0010
0000
1000
,
0000
0100
0000
0010
,
0000
0100
0000
0010
,
0020
0000
0000
0000
,
0030
0000
0000
0000
;

//---------------dance-single - ----------------
#NOTES:
     dance-single:
     :
     Medium:
     8:
     0.273,0.327,0.027,0.027,0.000:
0000
0000
0000
0000
,
0000
0000
0000
0000
,
0000
0000
0000
0000
,
0000
0000
0000
0000
,
0010
0000
0000
0000
,
0100
0000
0001
0000
,
0100
0000
0000
0000
,
1000
0000
1000
0000
,
0010
1000
0010
0000
1000
0001
0100
0000
,
0001
0010
0001
0000
0100
0000
0000
0000
,
0010
0100
0010
0000
1000
0001
0100
0000
,
0010
1000
0001
0000
0100
0000
0000
0000
,
0001
0010
0100
0000
0100
0010
0001
0000
,
1000
0010
1000
0000
0010
0000
0000
0000
,
1010
0000
0101
0000
,
0001
0001
0001
0000
,
0100
0000
0010
0000
,
1000
0000
0000
0000
0010
1000
0001
0000
,
0100
0000
0010
0000
,
1000
0000
0000
0000
1000
0100
0010
0000
,
1000
0000
0100
0000
,
0001
0000
0000
0000
0100
0001
0010
0000
,
0001
0000
0100
0000
,
0020
0000
0100
0130
,
0010
0000
0100
0010
0100
0000
0010
0100
,
0010
1000
0001
1000
,
0010
0000
0001
0100
0010
0000
1000
0010
,
0100
0001
1000
1000
,
0001
0000
1000
0001
1000
0000
0001
1000
,
0001
0010
0100
0010
,
0001
0000
0100
1000
0001
0000
0010
0001
,
1000
0100
0010
0010
,
1000
0010
1000
0010
,
0100
0000
0000
0000
0010
0100
0001
0000
,
0001
0100
0010
1000
,
0001
0000
0000
0000
0100
0010
0100
0000
,
0001
0100
0001
0100
,
0010
0000
0000
0000
0100
0010
1000
0000
,
1000
0010
0100
0001
,
2000
0000
0000
3000
,
0001
0100
0010
0000
,
0100
0100
0010
0000
,
1000
0100
0010
0000
,
0100
0010
1000
0000
,
0001
0010
0001
0000
,
0100
0010
1000
0000
,
0001
0100
0010
0000
,
0001
0010
0100
1000
,
1001
1000
0000
0010
,
0000
0000
0100
0000
0010
0001
0100
0000
,
0000
0010
0000
0100
,
0000
0000
0001
0000
0001
1000
0010
0000
,
0000
1000
0000
0010
,
0000
0000
1000
0000
0000
1000
0010
1000
,
0000
0010
0100
0001
0000
0001
0010
0100
,
0000
1000
0010
1000
0000
0001
0100
0001
,
1000
0001
1000
0010
1000
0010
0100
1000
,
0020
0000
1000
1030
,
0010
0000
1000
0010
1000
0000
0010
1000
,
0010
0001
0100
0001
,
0010
0000
0100
1000
0010
0000
0001
0010
,
1000
0100
0001
0001
,
0100
0000
0001
0100
0001
0000
0100
0001
,
0100
0010
1000
0010
,
0100
0000
1000
0001
0100
0000
0010
0100
,
0001
1000
0010
0010
,
0101
0010
0001
0010
,
1000
0000
0100
0000
0010
1000
0100
0000
,
0100
1000
0010
0001
,
0100
0000
0001
0000
1000
0010
1000
0000
,
0100
1000
0100
1000
,
0010
0000
0100
0000
1000
0010
0001
0000
,
0001
0010
1000
0100
,
0001
0010
0100
0000
1000
0000
0010
0000
,
2000
0000
0000
0000
,
3000
0000
0000
0000
;

//---------------dance-single - ----------------
#NOTES:
     dance-single:
     :
     Hard:
     14:
     0.429,0.478,0.141,0.121,0.359: // measure 1
0000
0000
0000
0000
,  // measure 2
0000
0000
0000
0000
,  // measure 3
0000
0000
0000
0000
,  // measure 4
0000
0000
0000
0000
,  // measure 5
0000
0000
0000
0000
,  // measure 6
0000
0000
0000
0000
,  // measure 7
0000
0000
0000
0000
,  // measure 8
0000
0000
0000
0000
0000
0000
0000
0000
0000
0000
0000
0000
0010
0100
0000
0010
,  // measure 9
0000
1000
0000
0010
0000
0100
0000
0001
0000
0100
0000
1000
0000
0010
0000
1000
,  // measure 10
0000
0001
0000
0100
0000
0001
0000
0010
0000
0000
0000
0000
1000
0010
0000
0100
,  // measure 11
0000
0001
0000
0010
0000
0100
0000
0010
0000
0001
0000
1000
0000
0010
0000
0001
,  // measure 12
0000
0100
0000
1000
0000
0010
0000
1000
0000
0000
0000
0000
0001
1000
0000
0001
,  // measure 13
0000
0100
0000
0001
0000
1000
0000
0010
0000
0100
0000
0010
0000
0001
0000
0100
,  // measure 14
0000
1000
0000
0100
0000
0001
0000
1000
0000
0000
0000
0000
0010
0000
0000
0100
,  // measure 15
0000
0000
0010
0000
1000
0000
0000
0010
0000
0000
1000
0000
0000
0000
0000
0000
,  // measure 16
0220
0330
2002
3003
0220
0330
0010
0000
,  // measure 17
1000
0000
0000
0010
0000
0000
0100
0000
0000
0001
0000
0000
0100
0000
0000
0001
,  // measure 18
0000
0000
0010
0000
0000
0000
0000
0000
0100
0001
0100
0001
1000
0000
0010
0000
,  // measure 19
1000
0000
0000
0010
0000
0000
0100
0000
0000
0010
0000
0000
1000
0000
0000
0100
,  // measure 20
0000
0000
0010
0000
0001
0000
0000
0000
0001
0000
0100
0001
0100
0000
0010
0000
,  // measure 21
1000
0000
0000
1000
0000
0000
1000
0000
0000
0100
0000
0000
0100
0000
0000
0010
,  // measure 22
0000
0010
0000
0000
0010
0100
0001
0100
,  // measure 23
0000
0010
1000
0010
0000
1000
0100
0010
,  // measure 24
0002
0000
0000
1000
1003
0000
0010
0000
,  // measure 25
1000
0000
0000
0000
0010
1000
0010
1000
0010
0000
0000
0000
0100
0001
0100
0001
,  // measure 26
0100
0000
0010
0000
0000
0100
0000
0000
0010
0000
0000
0000
1000
0010
1000
0010
,  // measure 27
1000
0000
0000
0000
0001
0010
0001
0010
0001
0000
0000
0000
0100
0010
0100
0010
,  // measure 28
0100
0000
0010
0000
0000
1000
0000
0000
0001
0000
1000
0001
1000
0000
0010
0000
,  // measure 29
1000
0010
1000
0001
0100
0001
0100
0010
,  // measure 30
0100
0000
1000
0000
0000
0100
0000
0000
1000
0000
0010
0000
0100
0000
0000
0000
,  // measure 31
0002
0013
0020
0031
,  // measure 32
0101
1100
1001
0110
,  // measure 33
1000
0010
1000
0010
,  // measure 34
0100
0000
0001
0000
0001
0010
1000
0010
,  // measure 35
0001
0100
0010
0100
1010
0000
0000
0101
,  // measure 36
0000
0000
0010
0000
0000
0100
0000
0000
0010
0000
1000
0010
1000
0000
0010
0000
,  // measure 37
0001
0100
0001
0100
,  // measure 38
0010
0000
1000
0000
1000
0100
0001
0100
,  // measure 39
1000
0010
0100
0010
0101
0000
0000
1010
,  // measure 40
0000
0000
0100
0000
0000
0000
0000
0000
0100
0000
0001
0000
0100
0010
0100
0010
,  // measure 41
1000
0000
0010
0000
0001
0000
0010
0000
0100
0000
0000
0100
0000
0000
0010
0000
,  // measure 42
0000
0000
0010
0000
0001
0000
0100
0000
1000
0000
0000
0010
0000
0000
1000
0000
,  // measure 43
0000
0000
1000
0000
0010
0000
0100
0000
0010
0000
0000
0100
0000
0000
0001
0000
,  // measure 44
0000
0000
1000
0000
0100
0000
0010
0000
0001
0000
0000
0100
0000
0000
0001
0000
,  // measure 45
0000
0000
0001
0000
0100
0000
1000
0000
0100
0000
0000
0010
0000
0000
1000
0000
,  // measure 46
0000
0000
0010
0000
1000
0000
0001
0000
0100
0000
0000
0010
0000
0000
0100
0000
,  // measure 47
0000
0000
0000
0000
0000
0000
0000
1001
0000
0000
0000
0000
0000
0000
0000
0000
,  // measure 48
0002
0023
0230
2300
,  // measure 49
3010
0000
0000
0100
0000
0000
0010
0000
0000
1000
0000
0000
0010
0000
0000
1000
,  // measure 50
0000
0000
0100
0000
0000
0000
0000
0000
0010
1000
0010
1000
0001
0000
0100
0000
,  // measure 51
0001
0000
0000
0100
0000
0000
0010
0000
0000
0100
0000
0000
0001
0000
0000
0010
,  // measure 52
0000
0100
0000
0000
1000
0010
1000
0000
,  // measure 53
0001
0000
0000
0001
0000
0000
0001
0000
0000
0010
0000
0000
0010
0000
0000
0100
,  // measure 54
0000
0100
0000
0000
0100
0010
1000
0010
,  // measure 55
0000
0100
0001
0100
0000
0001
0010
0100
,  // measure 56
0000
0010
0100
1000
0000
0010
1000
0001
,  // measure 57
0000
0100
0001
1000
0010
1000
0001
0100
,  // measure 58
2000
0000
0000
0001
3001
0000
0100
0000
,  // measure 59
0001
0000
0000
0000
0100
0001
0100
0001
0100
0000
0000
0000
0010
1000
0010
1000
,  // measure 60
0010
0000
0100
0000
0000
0010
0000
0000
0100
0000
0000
0000
0001
0100
0001
0100
,  // measure 61
0001
0000
0000
0000
1000
0100
1000
0100
1000
0000
0000
0000
0010
0100
0010
0100
,  // measure 62
0010
0000
0100
0000
0000
0001
0000
0000
1000
0000
0001
1000
0001
0000
0100
0000
,  // measure 63
0001
0100
0001
1000
0010
1000
0010
0100
,  // measure 64
0010
0000
0001
0000
0000
0010
0000
0000
0001
0000
0100
0000
0010
0000
0000
0000
,  // measure 65
2000
3100
0200
1300
,  // measure 66
1010
0011
1001
0110
,  // measure 67
0001
0100
0001
0100
,  // measure 68
0010
0000
1000
0000
1000
0100
0001
0100
,  // measure 69
1000
0010
0100
0010
0101
0000
0000
1010
,  // measure 70
0000
0000
0100
0000
0000
0000
0000
0000
0100
0000
0001
0100
0001
0000
0100
0000
,  // measure 71
1000
0010
1000
0010
,  // measure 72
0100
0000
0001
0000
0001
0010
1000
0010
,  // measure 73
0001
0100
0010
0100
1010
0000
0000
0101
,  // measure 74
0010
1000
0010
0000
0100
0001
0010
0000
,  // measure 75
2002
0000
0000
0000
,  // measure 76
3003
0000
0000
0000
;
