
//----- song ID: toky1 -----//
#TITLE:tokyoEVOLVED (TYPE1);
#ARTIST:NAOKI underground;
#BANNER:tokyoEVOLVED (TYPE1).png;
#BACKGROUND:tokyoEVOLVED (TYPE1)-bg.png;
#CDTITLE:./CDTitles/DDR HOTTEST PARTY.png;
#MUSIC:tokyoEVOLVED (TYPE1).ogg;
#SAMPLESTART:29.28;
#SAMPLELENGTH:15;
#DISPLAYBPM:70:280;
#BPMS:0=69.6,4=70,20=280,145=560,163=280;
#STOPS:49=0.214,119=0.214,177.5=0.214,185=0.214,216=0.214;
#NOTES:
     dance-single:
     :
     Beginner:
     6:
     :
0000
0000
0000
0000
,
0000
0000
0000
0000
,
0010
0000
0000
0000
,
1000
0000
0000
0000
,
0001
0000
0000
0000
,
0010
0000
0000
0000
,
0100
0000
0000
0000
,
0010
0000
0000
0000
,
0100
0000
0000
0000
,
0001
0000
0001
0000
,
0001
0000
0000
0000
,
1000
0000
1000
0000
,
1000
0000
0001
0000
,
0000
0000
1000
0000
,
0000
0000
0010
0000
,
0000
0000
0100
0000
,
0000
0000
0001
0000
,
0000
0000
1000
0000
,
0000
0000
1001
0000
,
0000
0000
0000
0000
,
0000
0000
0000
0010
,
0000
0000
0000
0100
,
0000
0000
0000
0001
,
0000
0001
0000
0001
,
0000
0000
0000
1000
,
0000
0000
0000
0010
,
0000
0000
0000
0001
,
0000
0001
0000
0001
,
0000
0000
0000
0100
,
0000
0000
0000
0000
,
0010
0000
0000
0000
,
0000
0000
0110
0000
,
0000
0000
0000
0000
,
0000
0000
0000
0000
,
0001
0000
0000
0100
,
0000
0000
1000
0000
,
0000
0010
0000
0000
,
0000
0000
0000
0000
,
0000
0000
0000
0000
,
0000
0000
0000
0000
,
0000
0000
0000
0010
,
0000
1000
0000
0001
,
0000
1000
0000
1000
,
0000
0001
0000
0001
,
0000
0200
0000
0000
,
0000
0000
0000
0000
,
0000
0300
0000
0000
,
0000
0000
0000
0000
,
0000
1000
0000
0000
,
0000
0001
0000
0000
,
0000
1000
0000
0001
,
0000
0100
0000
0010
,
0000
0100
0000
0000
,
0000
0001
0000
0000
,
0000
0000
0000
0000
,
0000
0000
0000
0000
,
1000
0000
1000
0000
,
0010
0000
0000
0000
,
0001
0000
0010
0000
,
0001
0000
0000
0000
,
1000
0000
1000
0000
,
0010
0000
0000
0000
,
0001
0000
0000
0000
,
1000
0000
0000
0000
,
1001
0000
0000
0000
,
0000
0010
0000
0010
,
0000
1000
0000
1000
,
0000
0100
0000
0000
,
0100
0000
0100
0000
,
0010
0000
0010
0000
,
0001
0010
0001
0000
,
1000
0000
1000
0000
,
0001
0001
0001
0000
,
0100
0000
0100
0000
,
0110
0000
0000
0000
,
0010
0000
0010
0000
,
1000
0000
1000
0000
,
0010
1000
0010
0000
,
0100
0000
0010
0000
,
0110
0000
0000
0000
,
0100
0000
0100
0000
,
0001
0000
0001
0000
,
1000
0000
1000
0000
,
0001
0000
0001
0000
,
1000
0000
1000
0000
,
0010
0000
0010
0000
,
0100
0000
0100
0000
,
0010
0000
0010
0000
,
0100
0000
0100
0000
,
0001
0000
0001
0000
,
0010
0000
0010
0000
,
0100
0000
0100
0000
,
0110
0000
0000
0000
,
0010
0000
0000
0000
,
1001
0000
0000
0000
,
0000
0000
0000
0110
0000
0000
0000
0000
,
0000
0000
0000
0000
;
#NOTES:
     dance-single:
     :
     Easy:
     9:
     :
0000
0000
0000
0000
,
0000
0000
0000
0000
,
0001
0010
1000
0100
,
1100
0000
0101
0000
,
1000
0100
0010
0001
,
1000
0000
0001
0000
,
1000
0000
0010
0000
,
1000
0000
0100
0000
,
1000
0000
0010
0000
,
0100
0000
0001
0000
,
0100
0000
0010
0000
,
0100
0000
1000
0000
,
0001
0000
1000
0000
,
0100
0000
0001
0000
,
0100
0000
0010
0000
,
0001
0000
1000
0000
,
0010
0000
1000
0000
,
0001
0000
0010
0000
,
0001
0000
0000
0000
0100
0000
0000
0020
,
0000
0000
0000
0000
,
0000
0030
0000
0000
0000
0000
1000
0000
,
0000
0100
0000
1000
,
0100
0010
0000
0001
,
0000
1000
0000
0010
,
0000
0110
0000
0001
,
0000
0100
0000
0001
,
0100
0010
0000
0010
,
0000
1000
0000
0001
,
0000
1001
0000
1000
,
0000
0000
0010
0000
,
0100
0000
0000
0001
,
0001
0001
0000
0000
,
1000
0000
0000
0010
,
0010
0010
0000
0000
,
0100
0100
0100
0001
,
1000
0001
0000
0000
,
0000
1001
0000
0000
,
0000
0000
0000
0000
,
0000
0000
0000
0000
,
0000
0000
0000
0000
,
0000
0000
0000
0010
,
0001
0010
0000
0200
,
0000
1300
0000
0010
,
1000
0001
0000
0010
,
0100
0010
0000
1000
,
0000
1000
0001
0100
,
0000
0000
0020
0000
,
0000
0000
0000
0030
,
0000
0010
0000
0100
,
0000
0010
0000
1000
,
0000
1000
0000
0001
,
0000
0010
0000
0010
,
0000
2000
3000
1000
,
0000
0002
0003
0001
,
0000
0100
0000
0020
,
0000
0000
0030
0000
,
1000
0000
1000
0000
,
0001
1000
0001
0000
,
0010
0000
0010
0000
,
0001
1000
0001
0000
,
0100
0000
0001
0000
,
0100
0010
0001
0000
,
1000
0000
0001
0000
,
1001
0000
1001
0000
,
0001
1001
0000
0000
,
0010
0000
0100
0000
,
1000
0000
0010
0000
,
0100
0000
0001
0000
,
0100
0001
0100
0001
,
0010
1000
0010
1000
,
0010
1000
0100
0001
,
0010
1000
1001
0000
,
0001
0100
0001
0001
,
1000
0010
0100
0100
,
0001
1000
0001
0100
,
1000
0010
0110
0000
,
0010
1000
0001
1000
,
0100
0001
0010
0001
,
1000
0001
0100
0010
,
1000
0001
0110
0000
,
0100
1000
0010
1000
,
0100
0001
0100
1000
,
0010
0001
0010
1000
,
0100
0001
0100
1000
,
0010
1000
0010
1000
,
0001
1000
0010
1000
,
0001
0100
0001
0100
,
0001
1000
0001
0100
,
0001
0010
0100
0010
,
0001
1000
0100
1000
,
0010
1000
0100
0001
,
0100
0010
0001
1000
,
0100
0000
0110
0000
,
0001
1000
0010
0110
,
0100
0000
0001
0000
,
0010
0100
1001
0000
,
0000
0000
0000
0000
;
#NOTES:
     dance-single:
     :
     Medium:
     13:
     :
0000
0000
0000
0000
,
0000
0000
0000
0000
,
0200
0000
0000
0300
,
1010
0011
1010
0011
,
1100
0000
0000
0000
0000
0000
0000
0000
0101
0000
0000
0000
0000
0000
0000
0000
1100
0000
0000
0101
0000
0000
1100
0000
0000
0101
0000
0000
0110
0000
0110
0000
,
0110
0100
0010
0100
,
0001
0010
0001
0010
,
0100
1000
0100
1000
,
0010
0100
0010
0100
,
0001
0010
0001
0010
,
1000
0100
1000
0100
,
0010
1000
0010
1000
,
0100
0001
0100
0001
,
1000
0001
0100
0001
,
1000
0001
0100
0010
,
1000
0001
1000
0010
,
1000
0001
1000
0010
,
0100
1000
0001
1000
,
0100
0000
1000
0000
0001
0000
0000
1000
,
0000
0100
0000
1000
0000
0010
0000
0100
,
0001
1000
0001
1000
,
1000
0100
0100
1000
,
0100
1000
0000
0001
,
0001
0100
0100
0001
,
0100
0001
0000
0010
,
0010
0100
0100
0010
,
0100
0010
0001
0100
,
0100
0010
0010
1000
,
0001
1000
0001
0020
,
0100
0230
1000
2300
,
0001
3002
0100
0103
,
0110
0220
0000
0300
,
1000
2030
0001
3001
,
1001
2002
0000
3000
,
0010
0023
0100
0130
,
0110
0220
0000
0330
,
0000
2000
0000
0002
,
0000
0000
0000
0000
,
0000
0000
0000
0000
,
0000
0000
0000
0000
,
0000
3003
0000
1000
,
0100
0000
1000
0000
0000
0010
0000
1000
,
0000
0001
0100
0000
0010
0000
1000
0000
,
0100
0000
0010
0001
0000
0100
0000
0010
,
0000
1000
0000
0000
0001
0000
1000
0100
,
0000
0000
0001
0100
0000
1000
0000
0010
,
0100
0010
0100
0001
,
1000
0100
0000
0010
0001
0000
1000
0000
,
0001
0100
0100
0010
,
0010
1000
1000
0001
,
0001
0010
0010
0100
,
0100
1000
1000
0001
,
0001
0100
0100
0010
,
0010
1000
1000
0001
,
0001
0000
1100
0000
,
0011
0000
1010
0000
,
0101
0001
0100
0000
,
0010
0000
1000
0000
0010
0000
0000
0100
,
0001
0020
0030
0100
,
1000
0010
0000
0000
0110
0000
0000
0000
,
0100
0001
0000
0010
0000
0000
0100
1000
,
0000
0010
0000
0000
0100
0000
0001
0000
,
0010
0001
0100
0010
,
1000
0100
1000
0001
,
0100
0220
0000
0000
,
0000
0000
0000
0000
,
0000
0000
0000
0000
,
0000
0000
0330
0000
,
1000
0001
1000
0100
,
0010
0000
0001
0000
0010
0001
1000
0000
,
0001
0010
0001
0100
,
0010
0000
1000
0000
0010
1000
0001
0000
,
1000
0001
0100
0010
,
1000
0000
0001
0000
0100
0010
1000
0000
,
1000
0001
0010
0100
,
1000
0000
0001
0000
0010
0001
1000
0000
,
0010
0100
0001
0010
,
0001
0000
0100
0000
1000
0100
0010
0000
,
1000
0001
1000
0010
,
0001
0100
0010
0000
0100
0000
0110
0000
,
0010
0001
0100
1000
,
0010
1000
0010
0000
1000
0010
1000
0000
,
0001
0100
1000
0010
,
0001
0010
0001
0000
0010
0001
0010
0000
,
1000
0001
0100
0010
,
0100
0010
0100
0000
0010
0100
0010
0000
,
0100
0001
0010
1000
,
0001
1000
0001
0000
1000
0001
1000
0000
,
0010
1000
0010
1000
0001
0100
0001
0000
,
0100
0010
0100
0010
1000
0100
0010
0000
,
0001
0010
0001
1000
0001
0100
0001
0000
,
1000
0010
1000
0001
1000
0000
0110
0000
,
1001
0000
0010
0100
0000
0100
0010
0000
,
0001
1000
0000
1000
0001
0000
1001
0000
,
0000
0000
0010
0100
0010
0000
0001
1000
,
0001
0100
0010
0220
0000
0000
0000
0000
,
0000
0000
0000
0000
,
0330
0000
0000
0000
,
0000
0000
0000
0000
;
#NOTES:
     dance-single:
     :
     Hard:
     16:
     :
0000
0000
0000
0000
,
0000
0000
0000
0000
,
0001
0010
0100
1000
,
0100
0110
0001
1001
,
0010
0000
0000
0000
1000
0000
0000
0000
0010
0000
0000
0000
1000
0000
0000
0000
1100
0000
0000
1010
0000
0000
0101
0000
0000
0011
0000
0000
1001
0000
0110
0000
,
1001
1000
0010
0100
,
0010
1000
0100
0010
,
0100
1000
0010
0100
,
0001
0000
0010
0000
0001
0010
0100
1000
,
0010
0100
0001
0010
,
0100
0010
0001
1000
,
0100
0000
0010
0000
0100
0000
1000
0010
,
0100
0001
0010
0000
0100
0000
1000
0001
,
0000
1000
0100
0010
0100
0000
0010
0001
,
0000
1000
0001
0010
0100
0000
0010
0001
,
0000
0100
0010
1000
0010
0000
1000
0100
,
0000
1000
0010
1000
0100
0010
0001
0100
,
0001
0010
0100
1000
0010
1000
0001
1000
,
0100
0010
0100
1000
0010
0100
0000
0001
,
0000
1000
0000
0001
0000
1000
0000
0100
,
0010
0000
0100
0000
1000
0010
1000
0100
,
0010
0000
0001
0010
0001
0000
1000
0010
,
1000
0001
0010
0100
0010
0001
0100
0010
,
1000
0000
0100
0010
0100
0000
1000
0001
,
1000
0100
0010
0001
1000
0000
1001
0000
,
0001
0010
0100
1000
0010
0000
0110
0000
,
0100
0001
1000
0100
0010
0000
0011
0000
,
0001
1000
0001
0100
0010
0000
1010
0000
,
1000
0001
1000
0010
0100
0000
0101
0000
,
0101
1100
1100
1001
,
1010
1010
0101
0101
,
0011
1100
2002
3003
,
0110
0110
1001
1001
,
0100
1000
0010
0100
0202
0000
0303
0000
,
1001
1001
0110
0110
,
0001
0010
0001
1000
2200
0000
3300
0000
,
0000
2002
0000
0000
,
0000
0000
0000
0000
,
0000
0000
0000
0000
,
0000
0000
0000
3003
,
0000
0000
0000
1000
,
0010
0100
0010
0000
1000
0100
0000
0010
,
0001
0100
0010
0100
0001
0000
0100
0000
,
0010
1000
0010
0000
1000
0100
0000
1000
,
0001
0010
0100
1000
0001
0000
0100
0010
,
0000
0000
1000
0100
0000
0010
0001
1000
,
0010
0100
0010
0000
1000
0100
0010
0000
,
0001
1000
0000
0001
0100
0010
0100
0001
,
0010
0000
1001
0000
0100
0010
0001
0000
,
1000
0001
0000
0010
1000
0100
0010
0001
,
0100
0000
1001
0000
0100
1000
0010
0000
,
1000
0100
0000
0010
0100
1000
0010
0100
,
0001
0000
0110
0000
1000
0010
0100
0000
,
0001
1000
0000
0010
1000
0001
0010
0100
,
1000
0000
0010
1000
0001
0000
0100
0001
,
0010
0000
0100
1000
0001
1000
0001
0000
,
1000
0100
0010
0100
1000
0000
0010
0000
,
0100
0001
1000
0001
0100
0000
0000
0010
,
1000
0100
1000
0000
0000
0000
0001
0000
,
0010
0100
0010
0001
1000
0000
0000
0000
,
0001
0100
0010
0100
0001
0000
1000
0010
,
0100
0001
0010
0000
0100
1000
0001
0100
,
0010
0100
0001
1000
0010
0000
1000
0001
,
1000
0010
0100
0000
0001
0000
1001
0000
,
0010
1000
0000
1000
0100
0000
0100
0010
,
0000
0010
0001
0000
0100
0000
0010
0000
,
0010
0100
0000
0100
0010
0000
0010
1000
,
0000
1000
0100
0000
0100
0010
0100
0010
,
0001
0010
0001
1000
0100
1000
0010
0000
,
0010
1000
0001
0000
0001
0100
0010
0000
,
1000
0010
0100
0000
0101
0000
1001
0000
,
0010
0001
1000
0100
0010
0100
0001
0000
,
0100
1000
0010
0000
0100
0001
1000
0000
,
0010
0100
0001
0100
0010
1000
0100
0000
,
0010
0001
1000
0000
1000
0010
0100
0000
,
0001
0010
0100
0000
1000
0100
0010
0001
,
0010
0100
1000
0000
0001
0000
0100
0000
,
0010
1000
0100
0000
0100
1000
0010
0000
,
0100
0000
0001
0000
0010
0001
0100
0000
,
0100
0001
0010
0000
0100
0000
1001
0000
,
1000
0100
0010
0000
1000
0100
0010
0000
,
0001
0100
0010
0000
0001
0100
0010
0000
,
1000
0010
0100
0001
0010
1000
0001
0100
,
1000
0010
0100
0010
1000
0100
0010
0000
,
0001
0100
0010
0000
0001
0100
0010
0000
,
1000
0100
0010
0000
1000
0100
0010
0000
,
0001
0100
0010
1000
0001
0100
0010
1000
,
0010
0100
0001
0010
0100
1000
0001
0000
,
1000
0100
0010
0001
1000
0001
0100
0010
,
1000
0010
0100
0001
0010
0100
1000
0000
,
0001
0010
0100
1000
0100
0001
0100
1000
,
0010
0100
0001
0100
0010
1000
0100
0000
,
0001
0100
0000
0010
1000
0000
0100
0010
,
0000
0001
0010
0000
0110
0000
1100
0000
,
0001
0010
0100
1000
0000
0001
1000
0010
,
1000
0001
0200
0020
0000
0000
0000
0000
,
0000
0000
0000
0000
,
0330
0000
0000
0000
,
0000
0000
0000
0000
;
#NOTES:
     dance-double:
     :
     Easy:
     9:
     :
00000000
00000000
00000000
00000000
,
00000000
00000000
00000000
00000000
,
00000001
00000000
00000100
00000000
,
00001000
00000000
00010000
00000000
,
00100000
01000000
00100000
10000000
,
01000000
00000000
10000000
00000000
,
00010000
00000000
00000000
00000000
,
00100000
00000000
00001000
00000000
,
00010000
00000000
00000000
00000000
,
00000100
00000000
00000010
00000000
,
00000100
00000000
00001000
00000000
,
00000001
00000000
00000100
00000000
,
00001000
00000000
00000100
00000000
,
00000010
00000000
00001000
00000000
,
00000000
00000000
00010000
00000000
,
00001000
00000000
00100000
00000000
,
00000000
00000000
10000000
00000000
,
01000000
00000000
00100000
00000000
,
00010000
00000000
00000000
00000000
10000000
00000000
00000000
00200000
,
00000000
00000000
00000000
00000000
,
00000000
00300000
10000000
00000000
00000000
00000000
01000000
00000000
,
00000000
00100000
00000000
00010000
,
01000000
00100000
00000000
00010000
,
00000000
00001000
00000000
00000000
,
00000000
00000100
00000000
00001000
,
00000000
00000010
00000000
00000100
,
00000001
00001000
00000000
00000100
,
00000000
00000010
00000000
00000000
,
00000000
00011000
00000000
00100000
,
00100000
00100000
00000000
00000000
,
01000000
01000000
01000000
00000000
,
10000000
00000000
00010000
00000000
,
01000000
00000000
01000000
00010000
,
01000000
00010000
00000000
00000000
,
00100000
00000000
00100000
00001000
,
00010000
00001000
00000000
00000000
,
00000000
00022000
00000000
00000000
,
00000000
00000000
00000000
00000000
,
00000000
00000000
00000000
00000000
,
00000000
00000000
00000000
00033000
,
00000000
00000000
00000000
00000100
,
00001000
00000100
00000000
00000010
,
00000000
00000100
00000000
00001000
,
00000001
00001000
00000000
00000010
,
00000100
00001000
00000000
00010000
,
00000000
00001000
00100000
00010000
,
00000000
00000000
02000000
00000000
,
00000000
00000000
00000000
03000000
,
00000000
00010000
00010000
00010000
,
00000000
10000000
00000000
01000000
,
00000000
00100000
00100000
00100000
,
00000000
00001000
00000000
00010000
,
00000000
00000100
00000100
00000100
,
00000000
00001000
00000000
00000001
,
00000000
00000100
00000000
00000020
,
00000000
00000000
00000030
00000000
,
00000100
00000010
00000100
00000000
,
00000100
00000010
00000100
00000000
,
00001000
00000000
00010000
00000000
,
00011000
00000000
00000000
00000000
,
01000000
00100000
01000000
00000000
,
01000000
00100000
01000000
00000000
,
00010000
00000000
10000000
00000000
,
10010000
00000000
10010000
00000000
,
00000000
02000000
00000000
00000000
,
00100000
00000000
00100000
00000000
,
00010000
00000000
13000000
00000000
,
01000000
00000000
00001000
00000000
,
00010000
00001000
00010000
00000000
,
00001000
00100000
00001000
00000000
,
00010000
00001000
00010000
00000000
,
00000100
00000000
00000010
00000000
,
00000001
00000010
00000001
00000000
,
00001000
00000001
00001000
00000000
,
00000100
00001000
00000100
00000000
,
00010000
00000000
00001000
00000000
,
00010000
00001000
00100000
00000000
,
00010000
01000000
00010000
00100000
,
00010000
10000000
01000000
00000000
,
00100000
00000000
01000000
00000000
,
10000000
01000000
00000000
10000000
,
00000000
00010000
00000000
01000000
,
00000000
00010000
00000000
00100000
,
00001000
00010000
00000000
00001000
,
00010000
00000100
00000000
00010000
,
00000000
00000100
00000000
00001000
,
00000000
00000010
00000000
00000100
,
00000000
00000001
00001000
00000000
,
00001000
00000010
00001000
00000000
,
00000010
00010000
00000100
00000000
,
00010000
00001000
00100000
00000000
,
00010000
10000000
01000000
00000000
,
01000000
00000000
01100000
00000000
,
00010000
00001000
00010000
00001000
,
00010000
00000000
00000100
00000000
,
00001000
00000001
00002002
00000000
,
00000000
00000000
00000000
00000000
,
00003003
00000000
00000000
00000000
,
00000000
00000000
00000000
00000000
;
#NOTES:
     dance-double:
     :
     Medium:
     13:
     :
00000000
00000000
00000000
00000000
,
00000000
00000000
00000000
00000000
,
00020000
10000000
00100000
01030000
,
00002000
01000000
00010000
00003010
,
00000001
00000000
00000000
00000000
00000000
00000000
00000000
00000000
00000100
00000000
00000000
00000000
00000000
00000000
00000000
00000000
00001000
00000000
00000000
00010000
00000000
00000000
00001000
00000000
00000000
00000100
00000000
00000000
00000010
00000000
00000100
00000000
,
00000010
00001000
00000100
00001000
,
00000001
00000100
00001000
00000000
,
00001000
00010000
00001000
01000000
,
00100000
10000000
00010000
00000000
,
00010000
00100000
00010000
10000000
,
01000000
00100000
00010000
00000000
,
00010000
10000000
01000000
00010000
,
00001000
00001000
00010000
00000010
,
00010000
00000010
00001000
00000001
,
00001000
00000100
00000000
00000100
,
00001000
00000001
00000010
00000001
,
00000100
00000010
00000000
00000010
,
00001000
00000100
00010000
00001000
,
01000000
00000000
00010000
00000000
00100000
00000000
00000000
00010000
,
00000000
10000000
00000000
00010000
00000000
10000000
00000000
00100000
,
01000000
00100000
10000000
01000000
,
00000000
10000000
01000000
00000000
00000000
10000000
01000000
00000000
,
00100000
00000000
00001000
00000000
00000000
00010000
00001000
00000000
,
00000000
00010000
00001000
00000000
00000000
00010000
00001000
00000000
,
00010000
00000000
00000100
00000000
00000000
00001000
00000100
00000000
,
00000000
00001000
00000100
00000000
00000000
00001000
00000100
00000000
,
00000010
00000000
00000001
00000000
00000000
00001000
00000100
00000000
,
00000000
00010000
00000100
00000000
00000000
00010000
00001000
00000000
,
00100000
00010000
00100000
00010000
00100000
00000000
00010000
00000000
,
10000000
00010000
10000000
00200000
,
01300000
00001000
01000000
00001000
,
01000000
00020000
00000000
00000000
,
10030000
00100000
01000000
00010000
,
01000000
00002000
00000000
00000000
,
00013000
00000010
00001000
00000100
,
00001000
00000002
00000000
00000003
,
00000100
00000220
00000000
00000000
,
00000000
00000000
00000000
00000000
,
00000000
00000000
00000000
00000000
,
00000000
00000000
00000000
00000330
,
00000000
00000000
00000000
00010000
,
00001000
00000000
00010000
00000000
00000000
01000000
00000000
00100000
,
00000000
00010000
10000000
00000000
01000000
00000000
10000000
00000000
,
00100000
00000000
01000000
00000000
00000000
01000000
00000000
00001000
,
00000000
00010000
00000000
00000000
00001000
00000000
00010000
00000100
,
00000000
00000000
00000010
00000100
00000000
00001000
00000000
00000010
,
00000100
00000001
00000100
00001000
,
00000100
00000010
00000000
00000010
00000100
00000000
00001000
00000000
,
00010000
00001000
00001000
00100000
,
00100000
01000000
01000000
10000000
,
10000000
00010000
00010000
00100000
,
00100000
00001000
00001000
00010000
,
00010000
00000100
00000100
00000010
,
00000010
00000001
00000001
00000100
,
00000100
00000000
00000000
00001000
00010000
00000000
00000000
00010000
,
00001000
00000000
00000000
00001000
00010000
00000000
00100000
00000000
,
01000000
01000000
00100000
00000000
,
10000000
01000000
00010000
00000000
,
00000100
00001000
00000010
00001000
,
00000001
00000100
00000110
00000000
,
00000100
00001000
00010000
00000000
,
00001000
00100000
00010000
00000000
,
10000000
01000000
00100000
01000000
,
00010000
00001000
00010000
00000100
,
00000010
00000220
00000000
00000000
,
00000000
00000000
00000000
00000000
,
00000000
00000000
00000000
00000000
,
00000000
00000000
00000330
00000000
,
00000001
00000100
00001000
00000100
,
00000001
00000000
00000100
00000000
00001000
00000001
00001000
00000000
,
00000001
00000100
00001000
00010000
,
00001000
00100000
00101000
00000000
,
00100000
01000000
10000000
01000000
,
00010000
00000000
01000000
00000000
10000000
00010000
10000000
00000000
,
01000000
00010000
00001000
00010000
,
00000010
00001000
00001010
00000000
,
00000010
00001000
00000010
00000001
,
00000010
00000000
00000100
00000000
00000001
00001000
00000001
00000000
,
00000100
00000001
00000100
00001000
,
00010000
00001000
00010000
00000000
00011000
00000000
00000000
00000000
,
00100000
01010000
00000000
00100000
,
10000000
00000000
00010000
00000000
10000000
01000000
10000000
00000000
,
00100000
10000000
00010000
00100000
,
00001000
00000000
00010000
00000000
00000010
00001000
00000010
00000000
,
00000100
00000011
00000000
00000001
,
00001000
00000000
00000010
00000000
00001000
00000001
00001000
00000000
,
00000010
00010000
00001000
00100000
,
00010000
10000000
10010000
00000000
,
10000000
01000000
00100000
00000000
00001000
00000000
00010000
00000000
,
00000010
00001000
00000100
00000000
00000010
00000000
00000001
00000000
,
00000100
00000010
00001000
00000100
,
00010000
00001000
00100000
00000000
00010000
00000000
10010000
00000000
,
01100000
00000000
10000000
00010000
00000000
00010000
10000000
00000000
,
01000000
00010000
00000000
00010000
00001000
00000000
00011000
00000000
,
00010000
00000100
00001000
00000100
00000000
00000100
00000010
00000000
,
00000010
00000000
00000001
00000200
00000000
00000000
00000000
00000000
,
00000000
00000000
00000000
00000000
,
00000300
00000000
00000000
00000000
,
00000000
00000000
00000000
00000000
;
#NOTES:
     dance-double:
     :
     Hard:
     16:
     :
00000000
00000000
00000000
00000000
,
00000000
00000000
00000000
00000000
,
00000001
00000010
00000100
00001000
,
00010000
00100000
01000000
10000000
,
01000000
00000000
00000000
00000000
00100000
00000000
00000000
00000000
00010000
00000000
00000000
00000000
00001000
00000000
00000000
00000000
00011000
00000000
00000000
00010100
00000000
00000000
00001100
00000000
00000000
00001001
00000000
00000000
00000011
00000000
00001100
00000000
,
00001001
00000100
00001000
00010000
,
00100000
10000000
01000000
00100000
,
01000000
10000000
00010000
00100000
,
00001000
00000000
00010000
00000000
00000100
00001000
00000000
00001000
,
00000100
00001000
00000001
00000100
,
00000001
00001000
00000100
00010000
,
00001000
00000000
00100000
00000000
00010000
00000000
10000000
01000000
,
00100000
00010000
00100000
00000000
00001000
00000000
00011000
00000000
,
00010000
00001000
00000100
00000001
,
00000010
00000000
00000100
00000010
00000100
00000000
00001000
00000000
,
00000001
00000100
00001000
00010000
,
00001000
00000000
01000000
00100000
01000000
00000000
00010000
00000000
,
10000000
01000000
00010000
00001000
,
00010000
00000000
00000100
00001000
00000010
00000100
00000000
00000001
,
00000000
00001000
00000000
00000110
00000000
00000110
00000000
00000100
,
00001000
00000000
00010000
00000000
00011000
00000000
00001000
00010000
,
00000000
00010000
00001000
00000000
00000000
00100000
00010000
00000000
,
10000000
01000000
10000000
00000000
00010000
00100000
00001000
00000000
,
00000000
00010000
00000100
00000000
00001000
00000010
00000100
00000000
,
00000001
00001000
00000100
00000000
00000000
00000010
00000001
00000000
,
00000000
00001000
00000100
00000000
00000010
00000001
00001000
00000000
,
00000010
00000100
00001000
00000000
00000000
00010000
00001000
00000000
,
00100000
00001000
00010000
00000000
00001000
01000000
00100000
00000000
,
10000000
00010000
10000000
11000000
,
11000000
10010000
10010000
00110000
,
00011000
00011000
00010100
00010100
,
00001100
00001100
00002002
00003003
,
00000101
00000101
00000110
00000110
,
00000001
00000010
00000100
00001000
00000020
00000000
00000030
00000000
,
00001010
00001010
00010010
00010010
,
00010000
00001000
00100000
00010000
02000000
00000000
00000000
00000000
,
03100000
20020000
00000000
00000000
,
00000000
00000000
00000000
00000000
,
00000000
00000000
00000000
00000000
,
00000000
00000000
00000000
30030000
,
00000000
00000000
00000000
00100000
,
10000000
01000000
10000000
00000000
00010000
01000000
00000000
00100000
,
10000000
01000000
00100000
00001000
00010000
00000000
00001000
00000000
,
00010000
00001000
00010000
00000000
00000010
00001000
00000000
00000100
,
00001000
00000001
00000010
00000100
00001000
00000000
00000010
00000100
,
00000000
00000000
00000001
00001000
00000000
00001000
00000001
00000100
,
00000010
00001000
00000100
00000000
00010000
00001000
00010000
00000000
,
00001000
00100000
00000000
00010000
01000000
00100000
01000000
00010000
,
10000000
00000000
10010000
00000000
10000000
01000000
00010000
00000000
,
00010000
00001000
00000000
00001000
00010000
00000000
00001000
00000100
,
00000001
00000000
00001001
00000000
00000001
00000010
00001000
00000000
,
00001000
00010000
00000000
00010000
00001000
00000000
00010000
00100000
,
10000000
00000000
10010000
00000000
10000000
01000000
00010000
00000000
,
00010000
00001000
00000000
00001000
00010000
00000000
00001000
00000010
,
00000001
00000000
00000001
00000100
00001000
00000000
00000001
00000010
,
00001000
00000000
00000001
00000100
00001000
00000100
00000001
00000000
,
00001000
00000100
00000010
00000100
00001000
00000000
00000001
00000010
,
00000100
00010000
00001000
00100000
,
00010000
00100000
01000000
00100000
00010000
00000000
10000000
01000000
,
00100000
00010000
10010000
00000000
,
10000000
01000000
00100000
01000000
10000000
00000000
00010000
00100000
,
01000000
00100000
00001000
00010000
,
00000100
00000010
00000001
00000010
00000100
00000000
00001000
00000100
,
00000010
00000001
00001001
00000010
,
00000100
00002002
00000000
00000000
,
00000000
00000000
00000000
00000000
,
00000000
00000000
00000000
00000000
,
00000000
00000000
00003003
00000000
,
00000001
00001000
00000000
00001000
00000010
00000000
00000010
00000100
,
00000000
00000100
00001000
00000000
00010000
00000000
00100000
00000000
,
10000000
00100000
00000000
00100000
01000000
00000000
01000000
00010000
,
00000000
00010000
10000000
01000000
00100000
00000000
00010000
00000000
,
00100000
00001000
00000000
00001000
00010000
00000000
00010000
00000100
,
00000000
00000100
00000010
00000000
00000001
00000000
00000100
00000000
,
00000010
00010000
00000000
00010000
00000100
00000000
00000100
00001000
,
00000000
00001000
00000001
00000100
00000010
00000000
00000100
00000000
,
00001000
00010000
00000000
00001000
00100000
00000000
00010000
01000000
,
00000000
00100000
10000000
00010000
10000000
00000000
10010000
00000000
,
00100000
00010000
00000000
01000000
00001000
00000000
00010000
00000100
,
00000000
00001000
00000100
00000010
00000001
00000000
00001001
00000000
,
00000101
00000000
00000001
00000100
00001000
00000000
00000001
00000010
,
00001000
00000000
00000001
00000100
00000010
00000000
00000001
00000010
,
00000100
00000000
00000010
00001000
00000100
00000000
00000010
00000001
,
00000100
00000000
00001000
00010000
00000100
00000000
00010000
00001000
,
00100000
00000000
00010000
01000000
00100000
00000000
00010000
00100000
,
01000000
00000000
00010000
00100000
10000000
00000000
00010000
01000000
,
10000000
00000000
00100000
10000000
01000000
00000000
00100000
00010000
,
01000000
00000000
00100000
01000000
00100000
00000000
10000000
00010000
,
10000000
00000000
00100000
00010000
10000000
00000000
10000000
00010000
,
01000000
00000000
00001000
00100000
00010000
00000000
00010000
01000000
,
00001000
00000000
00010000
00000100
00001000
00000000
00001000
00000010
,
00010000
00000000
00000010
00001000
00000001
00000000
00000100
00000001
,
00001000
00000100
00000000
00001000
00000100
00000000
00000010
00000001
,
00000000
00000010
00000001
00000000
00001001
00000000
00001010
00000000
,
00010000
00001000
00010000
00001000
00000000
00100000
00010000
00100000
,
00010000
10000000
00200000
02000000
00000000
00000000
00000000
00000000
,
00000000
00000000
00000000
00000000
,
03300000
00000000
00000000
00000000
,
00000000
00000000
00000000
00000000
;
