
//----- song ID: mesg -----//
#TITLE:message;
#ARTIST:dj TAKA feat.flare;
#BANNER:message.png;
#BACKGROUND:message-bg.png;
#CDTITLE:./CDTitles/REFLEC BEAT.png;
#MUSIC:message.ogg;
#SAMPLESTART:69.88;
#SAMPLELENGTH:15;
#BPMS:0=152;
#NOTES:
     dance-single:
     :
     Beginner:
     1:
     :
0000
0000
0000
0000
,
0000
0000
0000
0000
,
0000
0000
0000
0000
,
0000
0000
0000
0000
,
0000
0000
0000
0000
,
1000
0000
0000
0000
,
0001
0000
0000
0000
,
1000
0000
0000
0000
,
0100
0000
0000
0000
,
0010
0000
0010
0000
,
0010
0000
0000
0000
,
1000
0000
1000
0000
,
1000
0000
0000
0000
,
0010
0000
0010
0000
,
0010
0000
0000
0000
,
0001
0000
0000
0000
,
1000
0000
0000
0000
,
0100
0000
0000
0000
,
0010
0000
0000
0000
,
0001
0000
0001
0000
,
0001
0000
0000
0000
,
0100
0000
0000
0000
,
0010
0000
0000
0000
,
1000
0000
1000
0000
,
1000
0000
0000
0000
,
1001
0000
0000
0000
,
0001
0000
0001
0000
,
0001
0000
0000
0000
,
0100
0000
0000
0000
,
0010
0000
0000
0000
,
1000
0000
1000
0000
,
1000
0000
0000
0000
,
0010
0000
0000
0000
,
0100
0000
0000
0000
,
0010
0000
0000
0000
,
0100
0000
0000
0000
,
1000
0000
1000
0000
,
1000
0000
0000
0000
,
0010
0000
0000
0000
,
0100
0000
0000
0000
,
0010
0000
0000
0000
,
0001
0000
0001
0000
,
1000
0000
1000
0000
,
0001
0000
0001
0000
,
1001
0000
0000
0000
,
0010
0000
0010
0000
,
0010
0000
0000
0000
,
0100
0000
0100
0000
,
0100
0000
0000
0000
,
0001
0000
0001
0000
,
1000
0000
1000
0000
,
0001
0000
0000
0000
,
0100
0000
0000
0000
,
0010
0000
0010
0000
,
0010
0000
0000
0000
,
0100
0000
0100
0000
,
0100
0000
0000
0000
,
1000
0000
1000
0000
,
0001
0000
0001
0000
,
0100
0000
0000
0000
,
0010
0000
0010
0000
,
0010
0000
0000
0000
,
1000
0000
0001
0000
,
1001
0000
0000
0000
,
0000
0000
0000
0000
;
#NOTES:
     dance-single:
     :
     Easy:
     5:
     :
0000
0000
0000
0000
,
0000
0000
0000
0000
,
0000
0000
0000
0000
,
0000
0000
0000
0000
,
0000
0000
0000
0000
,
0100
0000
1000
0000
,
0100
0000
0001
0000
,
0100
0000
0010
0000
,
0001
1000
1001
0000
,
0001
0100
0001
0000
,
1000
0100
1000
0000
,
0010
0000
0010
0000
,
1000
0100
0001
0000
,
1000
0010
1000
0000
,
0001
0010
0001
0000
,
0100
0000
0010
0000
,
1000
0001
1001
0000
,
1000
0000
1000
0000
,
0010
1000
0100
0000
,
0001
0000
0001
0000
,
0010
0001
0100
0000
,
0010
0000
0010
0000
,
1000
0001
1000
0000
,
0010
0000
0100
0000
,
0001
1000
0001
1000
,
0010
0100
0110
0000
,
1000
0100
1000
0000
,
0001
0100
0001
0000
,
0010
0000
0100
0000
,
1000
0100
0001
0000
,
0001
0010
0001
0000
,
1000
0010
1000
0000
,
0100
0000
0010
0000
,
1000
0001
1001
0000
,
0020
0000
0000
0030
,
0200
0000
0000
0300
,
0001
0001
0100
0010
,
1000
0000
0001
0000
,
2000
0000
0000
3000
,
0002
0000
0000
0003
,
0010
0010
0010
0000
,
0001
0100
0001
0100
,
1000
0100
1000
0100
,
0010
0100
0010
0100
,
0220
0000
0330
0000
,
1000
1000
0010
0100
,
0001
0000
1000
0000
,
0001
0001
0100
0010
,
1000
0000
0001
0000
,
0010
0010
0001
0000
,
0010
0010
1000
0000
,
0001
0010
0100
1000
,
0100
0000
1000
0000
,
0001
0001
0010
0100
,
0010
0000
0001
0000
,
1000
1000
0100
0010
,
0100
0000
1000
0000
,
0001
0001
0100
0000
,
1000
1000
0010
0000
,
0001
0100
1000
0010
,
0001
0000
1000
0000
,
0001
0100
0010
1000
,
0001
0010
0100
1000
,
1001
0000
0000
0000
,
0000
0000
0000
0000
;
#NOTES:
     dance-single:
     :
     Medium:
     7:
     :
0000
0000
0000
0000
,
0000
0000
0000
0000
,
0000
0000
0000
0000
,
0000
0000
0000
0000
,
0000
0000
0000
0000
,
1000
0100
1000
1000
,
0001
0100
0001
0001
,
0010
0100
1000
0001
,
0010
0000
0000
0010
0000
0000
0010
0000
0100
0000
0000
0000
0000
0000
0000
0000
,
1000
0000
1000
0100
1000
0000
1000
0000
,
0001
0000
0001
0100
0001
0000
0001
0000
,
1000
0100
0010
0001
,
1000
0001
1100
0000
,
0010
0000
0010
0001
0010
0000
0010
0000
,
0100
0000
0100
1000
0100
0000
0100
0000
,
0010
0001
0100
1000
,
0010
0000
0000
0010
0000
0000
0010
0000
0100
0000
0000
0000
0000
0000
0000
0000
,
0001
0000
0100
0000
0001
1000
0001
0000
,
0100
0100
0001
0100
,
1000
0000
0100
0000
0001
1000
0001
0000
,
0020
0001
0130
0000
,
0010
0000
0100
0000
1000
0001
1000
0000
,
0100
1000
0001
0000
,
0010
0010
0100
0100
,
0010
0000
0000
0010
0000
0000
0010
0000
0001
0000
0000
0000
0000
0000
0000
0000
,
1000
0000
0000
1000
0000
0000
1000
0000
0100
0000
0000
0000
0000
0000
0000
0000
,
0100
0000
1000
0010
1000
0000
1000
0000
,
0100
0000
0001
0010
0001
0000
0001
0000
,
1000
1001
0001
1001
,
0100
0010
1001
0000
,
0001
0000
0010
0001
0100
0000
0010
0000
,
1000
0000
0010
1000
0100
0000
0010
0000
,
0010
0011
0100
1100
,
0010
0000
0000
0010
0000
0000
0010
0000
0100
0000
0000
0000
0000
0000
0000
0000
,
0002
0100
0010
0100
,
2003
0000
0100
3000
,
0001
1000
0001
0010
,
0200
0000
0010
0310
,
1000
1000
0100
0100
,
0010
0010
0001
0001
,
1000
0100
0010
0001
,
1000
0000
0000
1000
0000
0000
1000
0000
0100
0000
0000
0000
0000
0000
0000
0000
,
0001
0000
0000
0001
0000
0000
0001
0000
0100
0000
0000
0000
0000
0000
0000
0000
,
0010
0000
0000
0010
0000
0000
0010
0000
0100
0000
0000
0000
0010
0000
0000
0000
,
0220
0000
0000
0330
,
1001
0000
0001
0000
0001
0100
1000
0000
,
0100
0001
0100
1000
,
0010
0000
1000
0000
1000
0100
0001
0000
,
0100
1000
0100
0001
,
0010
0100
0010
0000
0001
0000
1000
0000
,
0010
0100
0010
0000
0001
0000
1000
0000
,
0010
0101
1000
0101
,
0010
0001
1000
0001
,
0010
0000
0100
0000
0001
0100
1000
0000
,
0100
0001
0010
1000
,
0010
0000
0100
0000
1000
0100
0001
0000
,
0100
1000
0010
0001
,
0100
0000
0010
0001
0010
0000
0001
0000
,
0100
0000
0010
1000
0010
0000
1000
0000
,
0200
0010
2300
0010
,
3002
0010
0203
0310
,
0220
0000
0000
0300
,
1000
0100
0001
0130
,
1001
0000
0000
0000
,
0000
0000
0000
0000
;
#NOTES:
     dance-single:
     :
     Hard:
     11:
     :
0000
0000
0000
0000
,
0000
0000
0000
0000
,
0000
0000
0000
0000
,
0000
0000
0000
0000
,
0000
0000
0000
0000
,
0001
0000
0000
0010
0001
0000
1000
0000
0001
0000
0000
0000
0010
0000
0000
0000
,
1000
0000
0000
0010
1000
0000
0001
0000
0100
0000
0000
0000
0010
0000
0000
0000
,
0100
0000
0000
0010
0100
0000
0001
0000
1000
0000
0100
0000
0010
0000
0000
0000
,
0001
0000
0000
1000
0000
0000
0001
0000
1001
0000
0000
0000
0000
0000
0000
0000
,
1010
0000
1000
0010
0100
0000
1000
0001
,
1000
0000
1000
0100
0010
0000
0001
0100
,
0010
0000
0000
0010
1000
0000
0100
0000
1000
0000
0010
0000
0100
0000
0000
0000
,
0001
1010
0101
0000
,
0011
0000
0001
0100
0010
0000
0001
1000
,
0001
0000
0001
0010
0100
0000
1000
0100
,
0010
0000
0000
0010
0001
0000
0100
0000
0001
0000
0010
0000
0100
0000
0000
0000
,
1000
0000
0000
0001
0000
0000
1000
0000
1001
0000
0000
0000
0000
0000
0000
0000
,
0001
0000
0100
0000
1000
0100
0010
1000
,
0100
0000
0001
0000
0100
1000
0001
0100
,
1000
0000
0100
0000
0001
0010
0100
0001
,
0100
0000
1000
0000
0001
0100
0010
1000
,
0100
0000
0001
0000
0100
1000
0001
0100
,
1000
0000
0100
0000
0001
1000
0100
0000
,
0001
0000
0100
0000
1000
0001
0100
0000
,
0010
0000
0000
0100
0000
0000
0100
0000
0001
0000
0000
0100
0000
0000
0100
0000
,
0010
0000
0000
1000
0000
0000
1000
0000
1001
0000
0000
0000
0000
0000
0000
0000
,
1010
0000
0010
1000
0100
0000
0010
0100
,
0001
0000
0010
1000
0001
0000
0010
0001
,
1000
0000
0000
1000
0001
0000
0100
0000
0010
0000
1000
0000
0100
0000
0000
0000
,
0010
0101
1100
0000
,
0110
0000
0100
0001
0010
0000
0100
0010
,
1000
0000
0100
0001
1000
0000
0100
1000
,
0001
0000
0000
0001
0100
0000
0001
0000
1000
0000
0001
0000
0010
0000
0000
0000
,
0100
0000
0000
1000
0000
0000
0001
0000
1001
0000
0000
0000
0000
0000
0000
0000
,
0002
0100
1000
0010
,
2003
0000
3002
0000
,
2003
0000
0100
0000
0001
0000
3010
0100
,
0002
0000
0000
0000
0103
0001
1000
0200
,
0001
0010
1000
0301
,
1000
0100
0010
0001
2000
0000
0000
0000
,
3001
0100
0001
0110
,
1000
0000
0000
0010
0000
0000
0001
0000
0001
0000
0000
0100
0000
0000
1000
0000
,
1000
0000
0000
0010
0000
0000
0001
0000
0001
0000
0000
0100
0000
0000
1000
0000
,
0001
0000
0000
0010
0000
0000
1000
0000
0001
0000
0010
0000
0100
0000
1000
0000
,
2002
0000
0000
3003
,
0200
0001
0000
0301
1000
0001
0100
0010
,
2000
0100
0000
3001
0010
0100
1000
0010
,
2000
0100
0000
3010
0100
0010
1000
0001
,
0020
0100
0000
0031
0010
0100
1000
0001
,
1000
0000
1001
0000
1000
0100
0010
0000
,
0001
0000
0101
0000
0001
1000
0010
0000
,
2000
0000
0001
0000
0100
0000
3010
0100
,
0001
1100
0101
1001
,
0020
0100
0000
1030
0100
1000
0001
0100
,
0020
1000
0000
0130
0001
0010
0100
1000
,
0200
0001
0000
1300
0010
0001
0010
0100
,
0020
1000
0000
0130
0001
0010
0100
1000
,
0100
0000
0110
0000
0001
0010
0100
0000
,
1000
0000
0101
0000
1000
0010
0100
0000
,
0002
0010
1000
0103
,
2010
3100
0012
0103
,
0001
0100
0001
0010
0100
1000
0100
0000
,
0001
0100
1000
0100
0010
0001
0100
0000
,
1001
0000
0000
0000
,
0000
0000
0000
0000
;
#NOTES:
     dance-double:
     :
     Easy:
     3:
     :
00000000
00000000
00000000
00000000
,
00000000
00000000
00000000
00000000
,
00000000
00000000
00000000
00000000
,
00000000
00000000
00000000
00000000
,
00000000
00000000
00000000
00000000
,
01000000
00000000
00000000
00000000
,
00010000
00000000
00000000
00000000
,
00001000
00000000
00000000
00000000
,
00011000
00000000
00011000
00000000
,
00001000
00000000
00000100
00000000
,
00000010
00000000
00000100
00000000
,
00000001
00000000
00001000
00000000
,
00000001
00001000
00000001
00000000
,
00000010
00000000
00000001
00000000
,
00001000
00000000
00000100
00000000
,
00001000
00000000
00010000
00000000
,
00011000
00000000
00011000
00000000
,
00100000
00000000
00100000
00000000
,
10000000
00000000
10000000
00000000
,
00010000
00000000
00010000
00000000
,
00200000
00000000
00000000
00300000
,
01000000
00000000
01000000
00000000
,
00100000
00000000
00100000
00000000
,
00010000
00000000
00010000
00000000
,
00001000
00000000
00010000
00000000
,
00011000
00000000
00011000
00000000
,
00000100
00000000
00000010
00000000
,
00000100
00000000
00000010
00000000
,
00000001
00000000
00001000
00000000
,
00000001
00001000
00000001
00000000
,
00000100
00000000
00000010
00000000
,
00001000
00000000
00000100
00000000
,
00001000
00000000
00010000
00000000
,
00011000
00000000
00011000
00000000
,
00200000
00000000
00000000
00300000
,
00100000
00000000
00010000
00000000
,
10000000
00000000
01000000
00000000
,
00010000
00000000
00001000
00000000
,
00000020
00000000
00000000
00000030
,
00000010
00000000
00000000
00000000
,
00000001
00000000
00001000
00000000
,
00000001
00000000
00000100
00000000
,
00001000
00000000
00010000
00000000
,
00001000
00000000
00010000
00000000
,
00022000
00000000
00000000
00033000
,
00001000
00000000
00010000
00000000
,
00100000
00000000
10000000
00000000
,
01000000
00000000
00010000
00000000
,
00001000
00000000
00010000
00000000
,
00001000
00001000
00001000
00000000
,
00010000
00010000
00010000
00000000
,
00001000
00000000
00000010
00000000
,
00000001
00000000
00000000
00000000
,
00001000
00000000
00000100
00000000
,
00000001
00000000
00000010
00000000
,
00000100
00000000
00001000
00000000
,
00010000
00000000
00001000
00000000
,
00010000
00010000
00010000
00000000
,
00001000
00001000
00001000
00000000
,
00010000
00000000
00100000
00000000
,
10000000
00000000
01000000
00000000
,
00200000
00000000
00000000
00000000
,
00000000
00000000
00300000
00000000
,
10010000
00000000
00000000
00000000
,
00000000
00000000
00000000
00000000
;
#NOTES:
     dance-double:
     :
     Medium:
     7:
     :
00000000
00000000
00000000
00000000
,
00000000
00000000
00000000
00000000
,
00000000
00000000
00000000
00000000
,
00000000
00000000
00000000
00000000
,
00000000
00000000
00000000
00000000
,
00000001
00000001
00000010
00000000
,
00001000
00001000
00010000
00000000
,
01000000
01000000
10000000
00000000
,
00100000
00000000
00000000
00100000
00000000
00000000
00100000
00000000
01000000
00000000
00000000
00000000
00000000
00000000
00000000
00000000
,
01100000
10000000
01000000
00010000
,
00001000
00000000
00010000
00001000
00010000
00000000
00010000
00000000
,
00000100
00000010
00000001
00001000
,
00000010
00000100
00000101
00000000
,
00000110
00001000
00010000
00001000
,
00100000
00000000
00010000
10000000
00010000
00000000
00010000
00000000
,
10000000
01000000
00100000
00001000
,
00010000
00000000
00000000
00010000
00000000
00000000
00010000
00000000
00001000
00000000
00000000
00000000
00000000
00000000
00000000
00000000
,
00010000
00001000
00000100
00000010
,
00001000
00000100
00010000
00001000
,
00100000
00000000
00010000
00000000
01000000
00100000
01000000
00000000
,
00010000
00000000
00100000
00000000
00001000
00010000
00001000
00010000
,
00001000
00010000
00000100
00000010
,
00000001
00000100
00001000
00010000
,
00011000
00000000
00110000
00000000
,
10000000
00000000
00000000
10000000
00000000
00000000
10000000
00000000
01000000
00000000
00000000
00000000
00000000
00000000
00000000
00000000
,
00010000
00000000
00000000
00010000
00000000
00000000
00010000
00000000
00001000
00000000
00000000
00000000
00000000
00000000
00000000
00000000
,
00011000
00010000
00000100
00000010
,
00000001
00000000
00001000
00000010
00001000
00000000
00001000
00000000
,
00000001
00001000
00000100
00010000
,
00001000
00100000
00110000
00000000
,
10010000
01000000
00100000
00010000
,
10000000
00000000
00010000
01000000
00010000
00000000
00010000
00000000
,
10000000
00100000
00010000
00001000
,
00010000
00000000
00000000
00010000
00000000
00000000
00010000
00000000
00001000
00000000
00000000
00000000
00000000
00000000
00000000
00000000
,
00002000
00000000
00000020
00003000
,
00000002
00000000
00000030
00000003
,
00000200
00000000
00002000
00000300
,
00020000
00000000
00003000
00030000
,
00200000
00000000
20000000
00300000
,
00020000
00000000
00000000
30030000
,
00100000
00100000
01000000
01000000
,
10000000
00000000
00000000
10000000
00000000
00000000
10000000
00000000
01000000
00000000
00000000
00000000
01000000
00000000
00000000
00000000
,
00010000
00000000
00000000
00010000
00000000
00000000
00010000
00000000
00001000
00000000
00000000
00000000
00010000
00000000
00000000
00000000
,
00001000
00000000
00000000
00001000
00000000
00000000
00001000
00000000
00000100
00000000
00000000
00000000
00000010
00000000
00000000
00000000
,
00002002
00000000
00000000
00003003
,
00001001
00000100
00000010
00000100
,
00001000
00010000
01000000
00100000
,
00110000
00010000
01000000
10000000
,
00100000
01000000
00001000
00010000
,
00001000
00010000
00001000
00000000
00010100
00000000
00000000
00000000
,
00010000
00001000
00010000
00000000
01001000
00000000
00000000
00000000
,
00010000
00000100
00001000
00000010
,
00000100
00000000
00000010
00000100
00000010
00000100
00000010
00000000
,
00000110
00001000
00000001
00000100
,
00001000
00000000
00010000
00000000
00001000
00100000
00001000
00000000
,
00101000
00010000
01000000
00100000
,
10000000
01000000
00100000
00010000
,
00010000
00100000
00010000
00000000
00011000
00000000
00000000
00000000
,
00001000
00000010
00001000
00000000
00011000
00000000
00000000
00000000
,
00001000
00010000
00100000
10000000
,
00010000
00000000
00100000
00000000
00001000
00100000
00001000
00000000
,
00011000
00001000
00010000
00010000
,
00001000
00000100
00000010
00000110
,
00001001
00000000
00000000
00000000
,
00000000
00000000
00000000
00000000
;
#NOTES:
     dance-double:
     :
     Hard:
     11:
     :
00000000
00000000
00000000
00000000
,
00000000
00000000
00000000
00000000
,
00000000
00000000
00000000
00000000
,
00000000
00000000
00000000
00000000
,
00000000
00000000
00000000
00000000
,
00001000
00000000
00000000
00010000
00001000
00000000
00100000
00000000
01000000
00000000
00000000
00000000
00100000
00000000
00001000
00000000
,
00010000
00000000
00000000
00001000
00010000
00000000
00000100
00000000
00000010
00000000
00000000
00000000
00000001
00000000
00001000
00000000
,
00000010
00000000
00000000
00000100
00000010
00000000
00000100
00000000
00000001
00000000
00000100
00000000
00001000
00000000
00010000
00000000
,
00001000
00000000
00000000
00100000
00000000
00000000
01000000
00000000
01100000
00000000
00000000
00000000
00000000
00000000
00000000
00000000
,
00110000
00000000
00001000
00010000
01000000
00000000
01000000
10000000
,
00100000
00000000
00100000
00010000
00001000
00000000
00010000
00001000
,
00000100
00000000
00000000
00000100
00000010
00000000
00001000
00000000
00000001
00000000
00000010
00000000
00000100
00000000
00001000
00000000
,
00000001
00000101
00001010
00000000
,
00000110
00000000
00000100
00001000
00010000
00000000
00010000
00100000
,
01000000
00000000
01000000
00010000
10000000
00000000
00010000
10000000
,
00100000
00000000
00000000
00100000
10000000
00000000
01000000
00000000
00100000
00000000
00010000
00000000
01000000
00000000
00100000
00000000
,
00010000
00000000
00000000
00001000
00000000
00000000
00010000
00000000
00011000
00000000
00000000
00000000
00000000
00000000
00000000
00000000
,
00001000
00000000
00000100
00000000
00000001
00001000
00000100
00000001
,
00000100
00000000
00001000
00000000
00000001
00000100
00001000
00010000
,
00001000
00000000
01000000
00000000
00010000
10000000
01000000
00100000
,
00020000
01000000
10000000
00100000
,
00031000
00000000
00000100
00000000
00000001
00000100
00001000
00000001
,
00000100
00000000
00001000
00000000
00010000
00001000
00000100
00000000
,
00000001
00000100
00001000
00000000
00001000
00010000
00001000
00000000
,
00010000
00000000
00000000
00100000
00000000
00000000
10000000
00000000
10000000
00000000
00000000
01000000
00000000
00000000
00010000
00000000
,
00001000
00000000
00000000
00000010
00000000
00000000
00000001
00000000
00001001
00000000
00000000
00000000
00000000
00000000
00000000
00000000
,
00000101
00000000
00000001
00000100
00001000
00000000
00001000
00000100
,
00000010
00000000
00000010
00010000
00001000
00000000
00010000
00001000
,
00100000
00000000
00000000
00100000
00010000
00000000
00001000
00000000
00010000
00000000
00100000
00000000
01000000
00000000
10000000
00000000
,
00010000
01010000
10100000
00000000
,
11000000
00000000
10000000
01000000
00100000
00000000
00100000
00010000
,
00001000
00000000
00001000
00000100
00000010
00000000
00000100
00000010
,
00000001
00000000
00000000
00000001
00000100
00000000
00000010
00000000
00010000
00000000
00001000
00000000
00000100
00000000
00000010
00000000
,
00000001
00000000
00000000
00000010
00000000
00000000
00001000
00000000
00001001
00000000
00000000
00000000
00000000
00000000
00000000
00000000
,
00001002
00000100
00000023
00001000
,
00000230
00000001
00010300
00010100
,
00021000
00100000
00032000
00000010
,
00023000
00000000
01000000
00000000
00031000
00010000
01000000
10000000
,
00020000
01000000
20030000
00010000
,
31000000
10000000
00100000
00010000
00002000
00000000
00010000
00000000
,
00003010
00000100
00001000
00000000
00000010
00000100
00001000
00000000
,
00010000
00000000
00000000
00100000
00000000
00000000
10000000
00000000
10000000
00000000
00000000
01000000
00000000
00000000
00010000
00000000
,
00001000
00000000
00000000
00000010
00000000
00000000
00000001
00000000
00000001
00000000
00000000
00000100
00000000
00000000
00001000
00000000
,
00010000
00000000
00000000
00100000
00000000
00000000
10000000
00000000
01000000
00000000
00010000
00000000
00001000
00000000
00000100
00000000
,
00000220
00000000
00000000
00000330
,
00000001
00000100
00001000
00000100
00000001
00000100
00001000
00000000
,
00010000
00001000
00000100
00001000
00010000
00001000
00000100
00000000
,
00001000
00010000
00100000
00010000
00001000
00010000
00100000
00000000
,
00010000
00100000
10000000
00100000
00010000
00100000
10000000
00010000
,
20010000
00000000
31000000
00000000
10000000
01000000
00100000
00000000
,
00102000
00000000
00013000
00000000
00010000
00001000
00000100
00000000
,
00000102
00000010
00002003
00000010
,
00003001
00000101
00001010
00001001
,
00000001
00000010
00001000
00000010
00000001
00000010
00001000
00000000
,
00000010
00001000
00010000
00001000
00000010
00001000
00010000
00000000
,
00001000
00010000
01000000
00010000
00001000
00010000
01000000
00000000
,
10000000
01000000
00010000
01000000
10000000
01000000
00010000
01000000
,
01100000
00000000
10010000
00000000
10000000
01000000
00100000
00000000
,
00102000
00000000
00013000
00000000
00010000
00001000
00000010
00000000
,
00000012
00001003
00002010
00003100
,
00020100
00031000
00102000
01003000
,
00010000
00100000
01000000
10000000
00010000
00100000
01000000
10000000
,
00010000
00100000
00001000
00010000
00000100
00001000
00000010
00000000
,
00001001
00000000
00000000
00000000
,
00000000
00000000
00000000
00000000
;
