
//----- song ID: ublv -----//
#TITLE:UNBELIEVABLE (Sparky remix);
#ARTIST:jun feat. Sarah-Jane;
#BANNER:UNBELIEVABLE (Sparky remix).png;
#BACKGROUND:UNBELIEVABLE (Sparky remix)-bg.png;
#CDTITLE:./CDTitles/DDR X3 VS 2ndMIX.png;
#MUSIC:UNBELIEVABLE (Sparky remix).ogg;
#SAMPLESTART:45.26;
#SAMPLELENGTH:15;
#BPMS:0=175,260=87.5,276=175;
#STAGE:15;
#NOTES:
     dance-single:
     :
     Beginner:
     4:
     :
0000
0000
0000
0000
,
0000
0000
0000
0000
,
0000
0000
0000
0000
,
0000
0000
0000
0000
,
0000
0000
0000
0000
,
1000
0001
1000
0000
,
0001
1000
0001
0000
,
0010
0010
0010
0010
,
0010
0000
0000
0000
,
0001
0000
1000
0000
,
0001
0000
1000
0000
,
0100
0000
0100
0000
,
0010
0010
0010
0000
,
0100
0000
1000
0000
,
0100
0000
0001
0000
,
1000
1000
0001
0001
,
1000
0001
1000
0000
,
1000
0000
0001
0000
,
1000
0000
0001
0000
,
0100
0000
0100
0000
,
0010
0010
0010
0000
,
0100
0000
0001
0000
,
0100
0000
1000
0000
,
0001
0001
1000
1000
,
1001
0000
0000
0000
,
1001
0000
0010
0000
,
1001
0000
0010
0000
,
0100
0000
0001
0000
,
0010
0000
0000
0000
,
1001
0000
0100
0000
,
1001
0000
0100
0000
,
0010
0010
0100
0100
,
0110
0000
0000
0000
,
1000
1000
0001
0000
,
1000
0001
0001
0000
,
0020
0030
0200
0300
,
0010
0100
0010
0000
,
0001
0001
1000
0000
,
0001
1000
1000
0000
,
0002
0003
2000
3000
,
0020
0000
0030
0000
,
1000
0000
0100
0000
,
1000
0100
1000
0000
,
0001
0000
0100
0000
,
0001
0100
0001
0000
,
1000
0000
0010
0000
,
0001
0000
0010
0000
,
1000
0001
1000
0001
,
2000
0000
3000
0000
,
0001
0001
0001
0000
,
1000
1000
1000
0000
,
0001
0001
0002
0003
,
1000
1000
2000
3000
,
0001
0001
0001
0000
,
1000
1000
1000
0000
,
0010
0010
0020
0030
,
0100
0100
0200
0300
,
0001
0001
1000
0000
,
1000
1000
0001
0000
,
0001
1000
0002
0003
,
1000
0001
2000
3000
,
0001
1000
0001
0000
,
1000
0001
1000
0000
,
0100
0100
0100
0100
,
0100
0000
0000
0000
,
1000
0000
0100
0000
,
0001
0000
0010
0000
,
0001
0000
0100
0000
,
1000
0000
0010
0000
,
1000
0000
0000
0000
,
0100
0000
0000
0000
,
0001
0000
0000
0000
,
0010
0000
0000
0000
,
1000
0000
0100
0000
,
0001
0000
0010
0000
,
0200
0000
0000
0000
,
0310
0000
0000
0000
,
0000
0000
0000
0000
;
#NOTES:
     dance-single:
     :
     Easy:
     7:
     :
0000
0000
0000
0000
,
0000
0000
0000
0000
,
0000
0000
0000
0000
,
0000
0000
0000
0000
,
0000
0000
0000
0000
,
1001
0001
0010
0100
,
2000
0010
3010
0000
,
0001
1001
1000
1001
,
2002
0000
3003
0000
,
0001
1000
0002
0003
,
1000
0001
2000
3000
,
0010
0100
0010
0100
,
0001
1000
0001
0000
,
0100
0100
0002
0003
,
0010
0010
2000
3000
,
0100
0100
0010
0010
,
0001
1000
1001
0000
,
0010
0001
2000
3000
,
0010
1000
0002
0003
,
0010
0100
0010
0010
,
0001
1000
0001
0000
,
0100
1000
2000
3000
,
0010
0001
0002
0003
,
0100
0100
0010
0010
,
1000
0000
0000
0001
1000
0000
0000
0000
,
2000
3100
0002
0013
,
2000
3100
0002
0013
,
0200
0000
0010
0310
,
0002
0100
0200
0303
,
0002
0103
2000
3010
,
0002
0103
2000
3010
,
1000
1000
0001
0001
,
2002
0000
3003
0000
,
0100
0001
0202
0303
,
0010
1000
0100
0000
,
0010
0010
0001
0001
,
0100
0001
1001
0000
,
0100
1000
2200
3300
,
0010
0001
0100
0000
,
0010
0010
0010
0010
,
2000
3002
0203
0300
,
0001
1000
0001
1000
,
0100
0010
0100
0010
,
0002
0100
0010
0103
,
2000
0100
0010
3100
,
0001
0010
0100
0000
,
1000
0010
0100
0000
,
0001
0010
0100
1000
,
2002
0000
3003
0000
,
1001
1000
0010
0100
,
0002
0010
0013
0000
,
1000
0001
0010
0100
,
2000
0010
3100
0000
,
1001
0001
0010
0100
,
2000
0010
3010
0000
,
0001
1000
0010
0100
,
0001
0010
0110
0000
,
1001
1000
0010
0100
,
0002
0010
0013
0000
,
1000
0001
0010
0100
,
2000
0010
3100
0000
,
1001
0001
0010
0100
,
2000
0010
3010
0000
,
0001
0100
1000
0010
,
0220
0000
0330
0000
,
2000
0000
0100
0000
,
0001
0000
0010
3000
,
0002
0000
0100
0000
,
1000
0000
0100
0003
,
2000
0000
0000
0000
,
0100
0000
0000
0000
,
0001
0000
0000
0000
,
0010
0000
0000
3000
,
0001
0000
0010
0000
,
0100
0000
1000
0000
,
0001
0100
0010
1000
,
0002
0000
0000
0003
,
0000
0000
0000
0000
;
#NOTES:
     dance-single:
     :
     Medium:
     11:
     :
0000
0000
0000
0000
,
0000
0000
0000
0000
,
0000
0000
0000
0000
,
0000
0000
0000
0000
,
0000
0000
0000
0000
,
0010
0000
0110
0000
0001
0100
0001
0200
,
0000
1000
0000
1000
0300
0100
0001
0100
,
0001
0011
1000
1010
,
0200
0000
0000
0300
,
1000
0000
0100
0000
0001
0000
0100
1000
,
0001
0000
0100
0000
0010
0000
1000
0100
,
0001
0000
0100
0000
1000
0010
0100
0000
,
0001
0010
2100
3010
,
0001
0000
0100
0000
0010
0100
0010
1000
,
0100
0000
0010
0000
0001
0100
0010
0100
,
0002
0010
1000
0100
,
0023
1000
0031
0000
,
0001
0000
0100
0000
1000
0010
0100
0001
,
1000
0000
0100
0000
0010
1000
0001
0100
,
1000
0000
0100
0000
0001
0010
1000
0000
,
0001
0010
0102
0013
,
1000
0000
0100
0000
0010
1000
0010
0001
,
0100
0000
0010
0000
1000
0001
0010
0100
,
2000
0010
0100
0001
,
3010
0000
0000
2000
0002
0000
3003
0000
,
1000
0000
0100
0010
0200
0000
1300
0000
,
0010
0100
0020
0000
0130
0001
0020
0000
,
0130
1200
0310
0102
,
0013
1200
0301
0000
,
0001
0000
0100
1000
0200
0000
0301
0000
,
0010
0100
0020
0000
0130
1000
0001
0000
,
0100
0010
0100
0010
1000
0001
1000
0001
,
0100
0000
0000
0010
0000
0000
0100
0000
0220
0000
0000
0000
0330
0000
0000
0000
,
0002
0000
0103
0010
1000
0100
0010
0001
,
0100
0110
1010
0101
,
0010
0000
0100
0001
2000
0000
0001
0000
,
3010
1000
0100
0010
1000
0001
0100
0000
,
2000
0000
3100
0010
0001
0100
0010
1000
,
0100
0110
0011
1001
,
0010
0000
0100
0010
2000
0000
3002
0000
,
0103
1000
0100
0001
0010
0000
1001
0000
,
0100
0010
0100
0000
0010
0001
0010
0000
,
0100
1000
0100
0000
0010
0100
0010
0000
,
1000
0100
0001
1000
0001
0100
1000
0001
,
0010
0001
0100
1000
0001
0010
0100
0000
,
0001
0100
1000
0000
0100
0001
0010
0000
,
0100
1000
0010
0000
0001
0010
1000
0000
,
0100
0010
0001
1000
0010
0100
0001
2000
,
0002
0000
0000
3003
,
0100
0000
0110
0000
1000
0010
1000
0020
,
0000
0001
0000
0001
0030
0010
1000
0010
,
1000
0000
1100
0000
0010
0000
0001
1000
,
0010
1000
0001
0010
0100
0000
0010
0000
,
0100
0000
0110
0000
0001
0010
0001
0020
,
0000
1000
0000
1000
0030
0010
0001
0010
,
0001
0000
0101
0000
0010
0000
1000
0001
,
0010
0001
1000
0100
0020
0000
0031
0000
,
0100
0000
0110
0000
1000
0010
1000
0020
,
0000
0001
0000
0001
0030
0010
1000
0010
,
1000
0000
1100
0000
0010
0000
0001
1000
,
0010
1000
0001
0010
0100
0000
0010
0000
,
0100
0000
0110
0000
0001
0010
0001
0020
,
0000
1000
0000
1000
0030
0010
1000
0010
,
0100
1000
0010
0001
0010
1000
0100
0010
,
0002
0000
0000
0003
,
0200
1000
0000
0001
,
0000
0000
0010
0000
0001
0001
0001
0000
,
0000
1000
0000
0001
,
0000
0000
0010
0000
1000
1000
1300
0000
,
0020
0000
1000
1000
,
0000
0000
0001
0001
,
0000
0000
0100
0100
,
1000
1000
1000
0030
,
0100
0100
0001
0001
,
1000
1000
0010
0010
,
1000
0100
0001
1000
0010
0001
0100
1000
,
0200
0000
0000
0300
,
0000
0000
0000
0000
;
#NOTES:
     dance-single:
     :
     Hard:
     15:
     :
0000
0000
0000
0000
,
0000
0000
0000
0000
,
0000
0000
0000
0000
,
0000
0000
0000
0000
,
0000
0000
0000
0000
,
1200
0000
0302
0000
0103
1000
0010
0010
,
0001
0000
0100
0000
0010
0000
0100
0000
0001
0000
1000
0100
1000
0000
0010
0000
,
0011
0000
1100
0000
0101
0000
1010
0002
,
2000
0000
0000
3003
,
1000
0100
0001
0010
0000
0100
1000
0100
,
0001
0100
1000
0010
0000
0100
0001
0010
,
0100
2000
0100
3100
0010
0002
0010
0013
,
0001
1000
0110
1001
,
0100
1000
0100
0002
0000
1003
0010
0100
,
0001
0100
1000
0020
0000
0130
1000
0010
,
1000
0010
0100
0001
0010
0100
0001
0100
,
0010
0200
0010
0320
0100
0130
0110
0000
,
1000
0100
0001
1000
0000
0100
1000
0100
,
0001
0100
1000
0001
0000
0100
0001
0010
,
0100
2000
0100
3100
1000
0002
0010
0013
,
0001
1000
0110
1001
,
0100
0001
0100
2000
0000
3001
0010
0100
,
1000
0100
0001
0020
0000
0130
0100
0010
,
0200
0000
0010
0000
1000
0000
0301
0100
,
2000
0000
3100
1000
2002
0000
3003
0000
,
0200
0000
0301
0010
2000
0000
3001
0100
,
0020
0000
1030
0001
0100
0010
1000
0010
,
0100
0010
0001
0100
0001
0010
0100
1000
,
0010
0100
0101
0000
0001
0100
1100
0000
,
0200
0000
1300
0010
0002
0000
0103
1000
,
0020
0000
0031
1000
0200
0000
0301
0010
,
0100
1000
0010
0100
0001
0010
0100
1000
,
0010
0000
0000
0100
0000
0000
0001
0000
2002
0000
0000
0000
3003
0000
0000
0000
,
2100
0000
0000
0000
3001
0000
0100
0000
0010
1000
0200
0000
0301
0000
0100
0000
,
1000
0010
0200
0000
1300
0100
0002
0000
0013
0001
1000
0000
0100
0000
0100
0000
,
1000
0000
0100
0010
0001
0000
0100
0000
0010
0000
0001
0010
1000
0000
0100
0000
,
0020
1000
0100
0031
,
0102
0000
0000
0000
1003
0000
0100
0000
0010
0001
0200
0000
1300
0000
0100
0000
,
0001
0010
0200
0000
0301
0100
2000
0000
3010
1000
0001
0000
0100
0000
0100
0000
,
0001
0100
0010
1000
0002
0000
2003
0000
,
3001
0100
0010
1000
0100
0010
0001
1000
0200
0000
0000
0000
0310
0000
0000
0000
,
0100
1000
0100
1000
0010
0100
0010
0001
,
0010
1000
0100
0010
0100
0010
0001
0100
,
0010
0000
0100
1000
0002
0000
0013
0000
0100
0000
0001
0010
2000
0000
3010
0000
,
0001
0000
0100
1000
0200
0000
0301
0010
0002
0000
0103
0000
0010
0000
0000
0000
,
1000
0100
0001
1000
0010
0001
0100
0010
,
0001
0010
1000
0100
0001
1000
0010
0001
,
1001
0000
0000
1000
0100
0000
0010
0000
0001
0000
0100
0000
1000
0100
0001
0000
,
0020
0000
0000
0030
,
1020
0000
0032
0000
0013
1000
0100
0100
,
0001
0000
0010
0000
0100
0000
0010
0000
0001
0000
1000
0010
1000
0000
0100
0000
,
0001
0100
1100
0000
0011
0000
0110
0001
,
1000
0000
0100
0010
0100
0000
1000
0000
0001
0000
0010
0000
0110
0000
0000
0000
,
0021
0000
2030
0000
3010
0001
0100
0100
,
1000
0000
0010
0000
0100
0000
0010
0000
1000
0000
0001
0010
0001
0000
0100
0000
,
1000
0100
0101
0000
1010
0000
0110
1000
,
0001
0100
0010
1000
0100
0010
0001
1000
0200
0000
0000
0000
0310
0000
0000
0000
,
1200
0000
0302
0000
0103
1000
0010
0010
,
0001
0000
0100
0000
0010
0000
0100
0000
0001
0000
1000
0100
1000
0000
0010
0000
,
0001
0010
1010
0000
0101
0000
0110
0001
,
1000
0000
0010
0100
0010
0000
1000
0000
0001
0000
0100
0000
0110
0000
0000
0000
,
0201
0000
2300
0000
3100
0001
0010
0010
,
1000
0000
0100
0000
0010
0000
0100
0000
1000
0000
0001
0100
0001
0000
0010
0000
,
1000
0000
0010
0100
0010
0000
0001
1000
0001
0000
1000
0010
1000
0000
0020
0000
,
0200
0000
0000
0330
,
0210
0000
1000
0000
0001
0001
0010
0000
,
1000
0000
0000
0000
0001
0000
0000
0000
1000
0000
1000
0000
0310
0000
1000
0100
,
0020
0000
0001
0000
1000
1000
0100
0000
,
0001
0000
1000
0000
0001
0001
0130
0000
,
0210
0000
0001
0001
,
1000
1000
0010
0010
,
0001
0001
1000
1000
,
0001
0000
0001
0000
0010
0000
0301
0100
,
0010
0100
1000
0001
,
0100
0010
1000
0001
0010
0100
1000
0001
,
0010
0001
0010
0001
0100
0010
0100
0010
1000
0001
0010
0100
1000
0010
0100
0001
,
0200
0000
0000
0300
,
0000
0000
0000
0000
;
#NOTES:
     dance-single:
     :
     Challenge:
     18:
     :
0000
0000
0000
0000
,
0000
0000
0000
0000
,
0000
0000
0000
0000
,
0000
0000
0000
0000
,
0000
0000
0000
0000
,
0110
0000
1001
0000
0001
0100
0010
1000
,
0100
0000
0001
0000
0100
0000
0010
0000
0100
0000
1000
0001
0100
0000
0010
0000
,
1010
0000
0101
0000
0011
0000
1100
0001
,
2002
0000
0000
0000
0000
0000
0000
0000
3003
0000
0000
0000
1000
0100
0010
0001
,
1000
0000
0010
0000
0100
0000
0010
0000
1000
0000
0001
0010
0100
0000
1000
0000
,
0001
0000
0100
0000
0010
0000
0100
0000
0001
0000
1000
0100
0010
0000
0001
0000
,
0100
1000
0100
0010
0100
0001
1000
0100
,
0020
0130
0110
1001
,
1000
0000
0100
0000
0001
0000
0100
0000
1000
0000
0001
0100
0010
0000
1000
0000
,
0001
0000
0010
0000
1000
0000
0010
0000
0001
0000
1000
0010
0100
0000
0001
0000
,
0020
0000
1000
0000
0100
0000
0031
0010
,
0100
0000
0000
0010
0001
0000
1000
0000
0001
0100
0010
1000
0001
1000
0100
0010
,
0001
0000
1000
0000
1001
0000
0001
0000
1000
0000
0001
0100
0100
1000
0010
0000
,
0100
0000
0001
0000
1001
0000
1000
0000
0010
0000
1000
0100
0100
0001
0010
0000
,
0100
1000
1010
0010
0100
0001
0011
0010
,
0100
1000
0010
0000
0110
0000
1001
0000
,
0001
0000
1000
0000
1100
0000
0100
0000
0010
0000
0001
0100
0100
1000
0010
0000
,
0001
0000
0010
0000
0110
0000
0100
0000
0001
0000
1000
0100
0100
0001
0010
0000
,
1000
0010
0110
0100
1000
0001
1001
1000
,
0020
0000
0000
0000
0000
0000
0130
0000
1001
0000
0000
0000
0001
1000
0001
1000
,
0100
0000
0010
0001
1000
0000
0001
0100
0010
0000
1000
0001
0010
0000
0100
1000
,
0010
0000
0100
0001
1000
0000
0001
0010
0100
0000
1000
0001
0100
0000
0010
1000
,
0001
0000
0010
0100
1000
0000
0010
0100
0001
0000
1000
0100
0010
0000
0001
1000
,
0010
0000
0100
0001
0010
0000
0100
1000
0001
0000
1000
0010
0001
0000
0010
0000
,
0100
0000
0010
1000
0001
0000
1000
0100
0010
0000
0001
1000
0010
0000
0100
0001
,
0010
0000
0100
1000
0001
0000
1000
0010
0100
0000
0001
1000
0100
0000
0010
0000
,
0001
1000
0010
1000
0001
0100
0001
0010
0100
1000
0001
0100
1000
0100
0001
1000
,
0100
0000
0000
0010
0001
0000
1000
0000
0001
0010
0001
0100
0010
1000
0100
0010
,
0001
1000
0001
1000
0000
0000
0100
0000
0000
0010
0000
0000
0001
0000
0000
0100
0000
0000
0010
0000
0000
1000
0000
0000
,
0001
1000
0100
0010
0001
0000
1000
0000
0001
0100
0010
0100
0001
0000
1000
0000
,
0100
0010
0001
1000
0001
0100
0010
1000
0100
0100
0001
0010
1000
0010
0001
0100
,
0100
1000
0010
0100
0001
1000
0001
0010
0100
1000
0001
0100
0010
0000
0000
0000
,
1000
0001
1000
0001
0000
0000
0010
0000
0000
0100
0000
0000
1000
0000
0000
0010
0000
0000
0100
0000
0000
0001
0000
0000
,
1000
0001
0100
0010
1000
0100
0100
0001
1000
0010
0001
0010
1000
0100
0100
0001
,
1000
0010
0100
0001
1000
0000
0001
0000
0010
0100
1000
0001
0100
0000
0001
0000
,
0010
0100
1000
0010
0001
0010
1000
0100
0010
0000
0000
0000
0011
0000
0000
0000
,
1000
0001
1000
0001
0000
0000
0100
0000
0000
0010
0000
0000
1000
0000
0000
0100
0000
0000
0010
0000
0000
0001
0000
0000
,
1000
0010
0100
0010
1000
0100
0100
0001
0010
0100
0010
0001
0100
0100
1000
0001
,
1000
0010
0001
0010
1000
0100
0100
0001
0010
1000
0010
0001
0100
0100
1000
0010
,
0001
0010
1000
0100
0100
0001
0010
1000
0010
0001
1000
0010
0100
0000
0000
0000
,
0001
1000
0001
1000
0000
0000
0100
0000
0000
0010
0000
0000
0001
0000
0000
0100
0000
0000
0010
0000
0000
1000
0000
0000
,
0001
0010
0100
0010
0001
0100
0100
1000
0010
0100
0010
1000
0100
0100
0001
1000
,
0001
0010
1000
0010
0001
0100
0100
1000
0010
0001
0010
1000
0100
0100
0001
0010
,
0200
0000
0000
0000
0000
0000
0300
0000
0010
0001
1000
0001
0100
0010
1000
0001
,
0010
0000
0110
0000
1000
0001
0101
1100
,
0002
0000
0100
0000
2003
0000
0010
0000
3001
0000
1000
0010
0100
0000
0001
0000
,
0010
0100
1000
0000
0001
0100
1000
0000
1100
0000
0000
0000
0101
0000
0001
0000
,
1000
0100
0100
0100
0010
0000
1001
0000
,
0110
0000
1001
0000
0001
1000
1100
0101
,
2000
0000
0100
0000
3002
0000
0010
0000
1003
0000
0001
0010
0100
0000
1000
0000
,
0010
0100
0001
0000
1000
0100
0001
0000
0101
0000
0000
0000
1100
0000
1000
0000
,
0001
0100
0010
1000
0100
0010
0001
1000
0020
0000
0000
0000
0130
0000
0000
0000
,
0010
1000
0100
0000
0010
0001
0100
0000
0010
0000
1000
0000
1010
0000
0011
0000
,
1000
0000
0001
0100
0010
0000
1000
0001
0010
0000
0100
0010
1000
0000
0010
0000
,
0001
1000
0010
0000
0001
0010
1000
0000
1100
0000
0000
0000
0011
0000
1000
0000
,
0001
0100
0100
0100
0010
0000
0110
0000
,
0100
0001
0010
0000
0100
1000
0010
0000
0100
0000
0001
0000
0011
0000
1010
0000
,
0001
0000
1000
0100
0010
0000
0001
1000
0010
0000
0100
0010
0001
0000
0010
0000
,
1000
0100
1000
0010
0100
0001
0010
0001
,
0200
0000
0000
0000
0000
0000
0000
0000
0310
1000
0001
1000
0100
0010
0001
1000
,
0020
0000
0000
0000
0030
0100
0010
1000
0200
0000
0320
0000
0032
0000
2003
0000
,
3020
0000
0000
0001
0000
0000
2030
0000
3200
0000
0000
0010
0020
0000
0330
0000
,
0002
0000
0000
0000
0003
1000
0010
0100
0002
0000
0010
0000
1000
0000
0203
0000
,
0320
0000
0000
0000
0000
0000
0001
0000
0000
0000
0000
0000
2030
0000
0000
0000
3002
0000
0000
0000
0003
0000
1000
0000
0001
0010
0100
1000
0001
1000
0010
0100
,
0001
1000
0100
0010
0001
1000
0010
1000
,
0100
0010
0001
0100
0001
0010
0100
1000
,
0010
0100
0001
1000
0100
0010
0100
1000
,
0001
0100
0010
1000
0001
1000
0100
0010
,
0001
1000
0001
1000
0010
0100
0001
1000
0100
1000
0010
0100
0001
1000
0100
0010
,
0001
0100
0100
1000
0010
0001
0010
1000
0001
0010
0100
1000
0001
0100
0010
1000
,
0100
0100
0001
0010
1000
0010
0001
0100
0010
1000
0001
0010
0100
1000
0010
0100
,
0002
0000
0000
0003
,
0000
0000
0000
0000
;
#NOTES:
     dance-double:
     :
     Easy:
     8:
     :
00000000
00000000
00000000
00000000
,
00000000
00000000
00000000
00000000
,
00000000
00000000
00000000
00000000
,
00000000
00000000
00000000
00000000
,
00000000
00000000
00000000
00000000
,
10010000
00010000
00100000
01000000
,
20000000
00100000
30100000
00000000
,
00010000
00011000
00000100
00000110
,
00002002
00000000
00003003
00000000
,
00001000
00000001
00002000
00003000
,
00000100
00010000
00000200
00000300
,
00010000
00001000
00010000
00001000
,
01000000
00100000
01000000
00000000
,
00010000
00010000
20000000
30000000
,
00100000
00100000
00020000
00030000
,
00001000
00001000
00010000
00010000
,
00000010
00000100
00000110
00000000
,
00001000
00000001
00000020
00000030
,
00000100
00010000
00002000
00003000
,
00010000
00001000
00010000
00010000
,
01000000
00100000
00100000
00000000
,
00010000
01000000
20000000
30000000
,
01000000
00100000
00020000
00030000
,
00001000
00001000
00010000
00010000
,
00000100
00000000
00000000
00010000
00001000
00000000
00000000
00000000
,
00200000
00001000
00320000
00100000
,
02030000
00100000
03002000
00010000
,
00003100
00000010
00001000
00000000
,
00000100
00010000
00001000
00000000
,
00000020
00010000
00002030
00000010
,
00003200
00000000
00000000
00000000
00000000
00000000
00000000
00000000
00000000
00000000
00000000
00000000
00000000
00000000
00000000
00000000
00000000
00000000
00000000
00000000
00000000
00000000
00000000
00000000
00000000
00000000
00000000
00000000
00000000
00000000
00000000
00000000
00000000
00000000
00000000
00000000
00000000
00000000
00000000
00000000
00000000
00000000
00000000
00000000
00000000
00000000
00000000
00000000
00000010
00000000
00000000
00000000
00000000
00000000
00000000
00000000
00000000
00000000
00000000
00000000
00000000
00000000
00000000
00000000
00000000
00000000
00000000
00000000
00000000
00000000
00000000
00000000
00000000
00000000
00000000
00000000
00000000
00000000
00000000
00000000
00000000
00000000
00000000
00000000
00000000
00000000
00000000
00000000
00000000
00000000
00000000
00000000
00000000
00000000
00000000
00000000
00020300
00000000
00000000
00000000
00000000
00000000
00000000
00000000
00000000
00000000
00000000
00000000
00000000
00000000
00000000
00000000
00000000
00000000
00000000
00000000
00000000
00000000
00000000
00000000
00000000
00000000
00000000
00000000
00000000
00000000
00000000
00000000
00000000
00000000
00000000
00000000
00000000
00000000
00000000
00000000
00000000
00000000
00000000
00000000
00000000
00000000
00000000
00000000
00001000
00000000
00000000
00000000
00000000
00000000
00000000
00000000
00000000
00000000
00000000
00000000
00000000
00000000
00000000
00000000
00000000
00000000
00000000
00000000
00000000
00000000
00000000
00000000
00000000
00000000
00000000
00000000
00000000
00000000
00000000
00000000
00000000
00000000
00000000
00000000
00000000
00000000
00000000
00000000
00000000
00000000
00000000
00000000
00000000
00000000
00000000
00030000
,
00000010
00000010
00000100
00000100
,
00002002
00000000
00003003
00000000
,
00000001
00000100
00002000
00003000
,
00010000
01000000
10000000
10000000
,
00100000
00100000
00010000
00010000
,
00001000
00010000
01000000
00000000
,
10000000
01000000
00020000
00030000
,
00001000
00000100
00000001
00000001
,
00000010
00000010
00001000
00001000
,
00020000
00030020
00000230
00000300
,
00000001
00000100
00000001
00000100
,
00001000
00010000
00001000
00010000
,
00001000
10000000
00010000
00100000
,
00001000
00010000
00000001
00000100
,
00000001
00000010
00000100
00000000
,
00010000
00001000
00100000
00000000
,
00001000
00010000
01000000
10000000
,
20020000
00000000
30030000
00000000
,
10010000
00010000
00100000
01000000
,
20000000
00100000
30100000
00000000
,
01000000
00001000
00010000
00000100
,
00000020
00000100
00000130
00000000
,
00001001
00001000
00000010
00000100
,
00000002
00000010
00000013
00000000
,
00000100
00010000
00001000
01000000
,
00010000
00100000
01100000
00000000
,
10010000
00010000
01000000
00100000
,
20000000
01000000
31000000
00000000
,
00100000
00001000
00010000
00000010
,
00000200
00000010
00000310
00000000
,
00001001
00001000
00000100
00000010
,
00000002
00000100
00000103
00000000
,
00001000
00010000
00100000
00010000
,
00002000
00000000
00000000
00003000
,
00020000
00000000
00000010
00000000
,
00000100
00000000
00001000
00030000
,
00002000
00000000
00010000
00000000
,
00100000
00000000
01000000
00003000
,
00020000
00000000
00000000
00000000
,
00000010
00000000
00000010
00000000
,
00000100
00000000
00000000
00000000
,
00001000
00000000
00001000
00030000
,
00001000
00000000
00000100
00000000
,
00000001
00000000
00000010
00000000
,
00001000
01000000
00100000
10000000
,
00020000
00000000
00000000
00030000
,
00000000
00000000
00000000
00000000
;
#NOTES:
     dance-double:
     :
     Medium:
     12:
     :
00000000
00000000
00000000
00000000
,
00000000
00000000
00000000
00000000
,
00000000
00000000
00000000
00000000
,
00000000
00000000
00000000
00000000
,
00000000
00000000
00000000
00000000
,
00000001
00000000
00001100
00000000
00010000
00000100
00001000
00000020
,
00000000
00000001
00000000
00000001
00000000
00000130
00001000
00010000
,
00100000
10100000
00010000
00010100
,
00000020
00000000
00000000
00000030
,
00000001
00000000
00000100
00000000
00001000
00000000
00010000
00001000
,
00000100
00000000
00000001
00000000
00000010
00000000
00000100
00010000
,
01000000
00000000
10000000
00000000
00100000
01000000
00010000
00000000
,
00100000
00001000
00010100
00001010
,
00000100
00000000
00010000
00000000
00001000
00010000
01000000
00000000
,
10000000
00000000
00010000
00000000
00100000
00001000
00010000
00000010
,
00002000
00000100
00000001
00000010
,
00023000
10000000
01030000
00000000
,
10000000
00000000
01000000
00000000
00010000
00000000
00001000
00010000
,
01000000
00000000
10000000
00000000
00100000
00000000
01000000
00001000
,
00000100
00000000
00000001
00000000
00000010
00000100
00001000
00000000
,
00000010
00010000
01001000
00110000
,
01000000
00000000
00001000
00000000
00010000
00001000
00000100
00000000
,
00000001
00000000
00001000
00000000
00000010
00010000
00001000
00100000
,
02000000
00100000
10000000
00010000
,
03100000
00000000
00000000
00002000
00020000
00000000
00033000
00000000
,
00000010
00000000
00010000
00000010
00000200
00000000
00000301
00000000
,
00000010
00000100
00020000
00000000
00030100
00010000
00000020
00000000
,
00000130
00010200
00001300
00020100
,
00031000
01200000
00301000
00000000
,
00100000
00000000
00001000
00100000
02000000
00000000
13000000
00000000
,
00100000
00000000
00000000
00000000
00000000
00000000
00000000
00000000
00000000
00000000
00000000
00000000
00000000
00000000
00000000
00000000
00000000
00000000
00000000
00000000
00000000
00000000
00000000
00000000
01000000
00000000
00000000
00000000
00000000
00000000
00000000
00000000
00000000
00000000
00000000
00000000
00000000
00000000
00000000
00000000
00000000
00000000
00000000
00000000
00000000
00000000
00000000
00000000
00002000
00000000
00000000
00000000
00000000
00000000
00000000
00000000
00000000
00000000
00000000
00000000
00000000
00000000
00000000
00000000
00000000
00000000
00000000
00000000
00000000
00000000
00000000
00000000
00000000
00000000
00000000
00000000
00000000
00000000
00000000
00000000
00000000
00000000
00000000
00000000
00000000
00000000
00000000
00000000
00000000
00000000
00000000
00000000
00000000
00000000
00000000
00000000
01003000
00000000
00000000
00000000
00000000
00000000
00000000
00000000
00000000
00000000
00000000
00000000
00000000
00000000
00000000
00000000
00000000
00000000
00000000
00000000
00000000
00000000
00000000
00000000
00001000
00000000
00000000
00000000
00000000
00000000
00000000
00000000
00000000
00000000
00000000
00000000
00000000
00000000
00000000
00000000
00000000
00000000
00000000
00000000
00000000
00000000
00000000
00000000
00200000
00000000
00000000
00000000
00000000
00000000
00000000
00000000
00000000
00000000
00000000
00000000
00000000
00000000
00000000
00000000
00000000
00000000
00000000
00000000
00000000
00000000
00000000
00000000
00000000
00000000
00000000
00000000
00000000
00000000
00000000
00000000
00000000
00000000
00000000
00000000
00000000
00000000
00000000
00000000
00000000
00000000
00000000
00000000
00000000
00000000
00000000
00300000
,
00010000
00001000
00010000
00001000
00000010
00000100
00000010
00000100
,
00000001
00000000
00000000
00000010
00000000
00000000
00000100
00000000
00000220
00000000
00000000
00000000
00000330
00000000
00000000
00000000
,
00002000
00000000
00003100
00000010
00000001
00000100
00000010
00001000
,
00000100
00010100
00011000
01001000
,
00100000
00000000
10000000
01000000
00020000
00000000
00001000
00000000
,
01030000
10000000
00100000
00000000
00010000
00001000
00100000
00000000
,
00020000
00000000
01030000
00100000
10000000
01000000
00100000
00010000
,
01000000
01001000
00011000
00010100
,
00000010
00000000
00000100
00000010
00002000
00000000
00023000
00000000
,
01030000
00100000
00010000
00001000
00000100
00000000
00001001
00000000
,
00000100
00000010
00000100
00000000
00000010
00001000
00000010
00000000
,
00001000
00010000
00001000
00000000
01000000
00100000
01000000
00000000
,
00100000
10000000
01000000
00010000
00001000
00000001
00001000
00010000
,
01000000
10000000
00100000
00010000
00001000
00000100
00000001
00000000
,
00001000
00000100
00000001
00000000
00000100
00010000
01000000
00000000
,
00010000
00001000
00000010
00000000
00001000
00010000
01000000
00000000
,
10000000
00100000
01000000
00010000
00001000
00000010
00000100
00000002
,
00002000
00000000
00000000
00003003
,
00000001
00000000
00001100
00000000
00010000
00000100
00001000
00000020
,
00000000
00000001
00000000
00000001
00000000
00000130
00001000
00010000
,
00001000
00000000
00101000
00000000
01000000
00000000
01000000
00100000
,
00000000
00001000
00100000
00001000
01000000
00000000
00100000
00000000
,
10000000
00000000
01010000
00000000
00001000
01000000
00010000
00200000
,
00000000
10000000
00000000
10000000
00000000
01300000
00010000
00001000
,
00010000
00000000
00010010
00000000
00000100
00000000
00000100
00000010
,
00000000
00000001
00000100
00001000
00000200
00000000
00000310
00000000
,
00000001
00000000
00001010
00000000
00010000
00000010
00001000
00000200
,
00000000
00000001
00000000
00000001
00000000
00000310
00001000
00010000
,
00001000
00000000
01001000
00000000
00100000
00000000
00100000
01000000
,
00000000
00001000
01000000
00001000
00100000
00000000
01000000
00000000
,
10000000
00000000
00110000
00000000
00001000
00100000
00010000
02000000
,
00000000
10000000
00000000
10000000
00000000
03100000
00010000
00001000
,
00000100
00000001
00000010
00001000
00000010
00000001
00000100
00000010
,
00002000
00000000
00000000
00003000
,
00000200
00000001
00000000
00010000
,
00000000
00000000
00000010
00000000
00010000
00010000
00010300
00000000
,
00002000
00000010
00000000
00100000
,
00000000
00000000
00000100
00000000
00010000
00010000
00013000
00000000
,
02000000
00000000
10000000
00000000
,
00100000
00000000
00001000
00000000
,
00100000
00000000
10000000
00000000
,
00001000
00001000
00001000
03000000
,
01000000
00100000
00010000
00000100
,
00000001
00000100
00010000
01000000
,
10000000
00100000
00010000
00001000
00100000
00001000
00000010
00000001
,
00000200
00000000
00000000
00000300
,
00000000
00000000
00000000
00000000
;
#NOTES:
     dance-double:
     :
     Hard:
     16:
     :
00000000
00000000
00000000
00000000
,
00000000
00000000
00000000
00000000
,
00000000
00000000
00000000
00000000
,
00000000
00000000
00000000
00000000
,
00000000
00000000
00000000
00000000
,
12000000
00000000
03020000
00000000
00031000
00000100
00001000
00001000
,
00000010
00010000
00100000
01000000
00010000
00100000
00001000
00010000
,
00010100
00001010
00011000
00101000
,
20020000
00000000
00000000
30030000
,
10000000
01000000
00100000
00020000
00000000
01030000
10000000
01000000
,
00001000
00010000
00100000
20000000
00000000
31000000
10000000
00100000
,
00010000
00001000
00000100
00000001
00000010
00000100
00000001
00001000
,
00010000
00001000
00101000
00010010
,
00000100
00000001
00000100
00002000
00000000
00013000
01000000
00100000
,
10000000
00010000
01000000
20000000
00000000
30100000
10000000
00100000
,
01000000
00010000
00110000
00000000
00001000
01000000
01010000
00000000
,
00100000
00001000
00000010
00001000
00010000
00000010
00000110
00000000
,
00000001
00000100
00000010
00002000
00000000
00003100
00000001
00000100
,
00010000
00001000
00000010
00000002
00000000
00000103
00000001
00000010
,
00001000
00010000
01000000
10000000
00100000
01000000
10000000
00010000
,
00001000
00010000
00010010
00101000
,
01000000
10000000
01000000
00020000
00000000
00031000
00000100
00000010
,
00000001
00001000
00000100
00000002
00000000
00000013
00000001
00000010
,
00002000
00000000
00000010
00000000
00010000
00000000
01003000
00100000
,
20000000
00000000
31000000
00010000
00022000
00000000
00033000
00000000
,
02000000
00000000
03100000
00001000
00021000
00000000
00031000
01000000
,
01200000
00000000
00310000
00001000
00001200
00000000
00000310
00001000
,
00010000
00001000
00000001
00000000
00000010
00001000
00010000
01000000
,
10000000
01000000
00010000
00000000
01000000
00000000
10010000
00000000
,
00200000
00000000
01300000
00001000
00021000
00000000
00031000
00100000
,
02100000
00000000
03010000
00001000
00001020
00000000
00000130
00001000
,
00000010
00010000
00001000
00000100
00010000
00001000
00100000
10000000
,
01000000
00000000
00000000
00100000
00000000
00000000
00010000
00000000
20020000
00000000
00000000
00000000
30030000
00000000
00000000
00000000
,
11000000
00000000
00000000
00000000
00010000
00000000
01000000
00000000
00100000
10000000
01000000
00000000
00010000
00000000
00001000
00000000
,
00010000
00001000
01000000
00000000
00100000
01000000
00010000
00000000
00100000
00001000
00010000
00000000
00000100
00000000
00000100
00000000
,
00000010
00000001
00000100
00001000
01000000
00001000
00010000
00000010
,
00002000
00010000
00000001
00003100
,
00000101
00000000
00000000
00000000
00001000
00000000
00000100
00000000
00000010
00000001
00000100
00000000
00001000
00000000
00010000
00000000
,
00001000
00010000
00000100
00000000
00000010
00000100
00001000
00000000
00000010
00010000
00001000
00000000
01000000
00000000
01000000
00000000
,
00010000
01000000
00100000
10000000
00020000
00000000
00032000
00000000
,
00003010
00000100
00000010
00001000
00000100
00000010
00000001
00001000
00000200
00000000
00000000
00000000
00000310
00000000
00000000
00000000
,
00000001
00001000
00000100
00000001
00001000
00010000
10000000
00100000
,
10000000
00010000
01000000
10000000
00010000
00001000
00000001
00000010
,
00000001
00000000
00001000
00000100
00001000
00000000
00000001
00000000
00000100
00000000
00001000
00010000
00001000
00000000
00100000
00000000
,
01000000
00010000
00001000
00000010
00001000
01000000
00100000
00000000
,
10000000
00010000
00001000
01000000
00010000
00001000
00000010
00000001
,
00000100
00000010
00001000
00010000
00001000
00100000
01000000
00010000
,
10010000
00000000
00000000
10000000
01000000
00000000
00100000
00000000
00001000
00000000
00010000
00000000
00001000
00000100
00000001
00000000
,
00000020
00000000
00000000
00000030
,
00000201
00000000
00002300
00000000
00013000
01000000
00010000
00010000
,
00100000
00001000
00000010
00000100
00001000
00000010
00010000
00001000
,
00010000
01000000
11000000
00000000
00110000
00000000
10000000
00010000
,
00001000
00000010
00000010
00000010
00001000
00010000
01000000
00000000
,
10200000
00000000
00320000
00000000
00031000
00000010
00001000
00001000
,
00000100
00010000
01000000
00100000
00010000
01000000
00001000
00010000
,
00001000
00000010
00000011
00000000
00001100
00000000
00000010
00001000
,
00010000
01000000
00100000
10000000
01000000
00100000
00010000
10000000
02000000
00000000
00000000
00000000
03100000
00000000
00000000
00000000
,
12000000
00000000
03020000
00000000
00031000
00000100
00001000
00001000
,
00000010
00010000
00100000
01000000
00010000
00100000
00001000
00010000
,
00001000
00000100
00000101
00000000
00001010
00000000
00000001
00001000
,
00010000
01000000
01000000
01000000
00010000
00001000
00000001
00000000
,
00000021
00000000
00002030
00000000
00013000
00100000
00010000
00010000
,
01000000
00001000
00000100
00000010
00001000
00000100
00010000
00001000
,
01000000
00000000
00100000
01000000
00100000
00000000
00010000
00001000
00010000
00000000
00000100
00000010
00000100
00000000
00002000
00000000
,
00000002
00000000
00000000
00003003
,
00000120
00000000
00000001
00000000
00001000
00001000
00000100
00000000
,
00000001
00000000
00001000
00000000
00000100
00000001
00000130
00000010
,
00020000
00000000
00100000
00000000
00000010
00000010
00001000
00000000
,
01000000
00000000
00001000
00000000
00000010
00001000
01030000
00000000
,
01200000
00000000
00010000
00010000
,
10000000
10000000
01000000
01000000
,
00010000
00010000
10000000
10000000
,
00010000
00000000
00010000
00000000
01000000
00000000
00310000
00100000
,
00001000
00000100
00000001
00000010
,
00000100
00010000
00001000
00100000
01000000
10000000
00100000
00010000
,
00100000
01000000
00100000
01000000
00010000
00100000
00010000
00100000
00001000
00010000
00001000
00010000
00000100
00001000
00000100
00001000
,
00000002
00000000
00000000
00000003
,
00000000
00000000
00000000
00000000
;
#NOTES:
     dance-double:
     :
     Challenge:
     18:
     :
00000000
00000000
00000000
00000000
,
00000000
00000000
00000000
00000000
,
00000000
00000000
00000000
00000000
,
00000000
00000000
00000000
00000000
,
00000000
00000000
00000000
00000000
,
00011000
00000000
00010100
00000000
00000100
00001000
00010000
00000010
,
00000001
00000000
00000001
00000000
00000100
00000000
00001000
00000000
00010000
00000000
01000000
00100000
00010000
00000000
10000000
00000000
,
00100000
00000000
10000000
01000000
00010000
00000000
01000000
00010000
00001000
00000000
00010000
00001000
00000010
00000000
00000001
00000000
,
00002002
00000000
00000000
00000000
00000000
00000000
00000000
00000000
00003003
00000000
00000000
00000000
00000001
00000010
00000100
00001000
,
00000001
00000000
00000100
00000000
00001000
00000000
01000000
00000000
00100000
00000000
00010000
00001000
00010000
00000000
01000000
00000000
,
00100000
00000000
00001000
00000000
00000010
00000000
00000100
00000000
00010000
00000000
00001000
00010000
00001000
00000000
00000100
00000000
,
00000001
00000010
00000100
00001000
00010000
00000010
00001000
00010000
,
00100000
01000000
10000000
00000000
01100000
00000000
10010000
00000000
,
00010000
00000000
10000000
00000000
01000000
00000000
00010000
00000000
00001000
00000000
00010000
00000010
00001000
00000000
00010000
00000000
,
00000100
00010000
00001000
00000010
00010000
00001000
00010000
01000000
,
20000000
00000000
00100000
00000000
00010000
00000000
31000000
00100000
,
00001000
00000000
00000000
00010000
00000000
00000000
00001000
00000000
00010000
00000100
00001000
00000001
00000100
00000001
00000010
00000100
,
00001000
00000000
00000001
00000000
00001000
00000000
00000100
00000000
00000010
00000000
00000001
00000100
00000100
00001000
00000010
00000000
,
00010000
00000000
00001000
00000000
01000000
00000000
00010000
00000000
00100000
00000000
00010000
01000000
01000000
10000000
00100000
00000000
,
01000000
00010000
00100000
00001000
00000010
00000001
00000100
00001000
,
01000000
00010000
00100000
01000000
11000000
00000000
10010000
00000000
,
01100000
00000000
10000000
00000000
00010000
00000000
01000000
00000000
00100000
00000000
10000000
01000000
01000000
00010000
00100000
00000000
,
10000000
00000000
00100000
00000000
00001000
00000000
00000010
00000000
00000001
00000000
00001000
00000100
00000100
00000001
00000010
00000000
,
00001000
00010000
01000000
00001000
00010000
10000000
00100000
01000000
,
00020000
00000000
00000000
00130000
00102000
00000000
00003010
00000000
,
00000100
00000000
00001000
00000010
00000100
00000000
00001000
00010000
00100000
00000000
01000000
00010000
00100000
00000000
00001000
00010000
,
00000100
00000000
00010000
00001000
00000010
00000000
00000100
00001000
00000010
00000000
00010000
00001000
00100000
00000000
00010000
01000000
,
00100000
00000000
00010000
00001000
00100000
00000000
01000000
00010000
00001000
00000000
00010000
00001000
00000100
00000000
00000010
00001000
,
00000100
00000000
00010000
00001000
01000000
00000000
00100000
00010000
00001000
00000000
00010000
00001000
00000010
00000000
00000100
00001000
,
00000010
00000000
00010000
00001000
01000000
00000000
00001000
00010000
00100000
00000000
00010000
00100000
10000000
00000000
10000000
01000000
,
00010000
00000000
01000000
00010000
00001000
00000000
00010000
00001000
00000010
00000000
00001000
00000010
00000001
00000000
00000001
00000100
,
00001000
00010000
00001000
01000000
00010000
10000000
00010000
00100000
00010000
10000000
00100000
10000000
00010000
10000000
01000000
00010000
,
00001000
00000000
00000000
00011000
00000000
00000000
00010000
00000000
00001000
00000100
00000001
00001000
00000100
00000010
00000001
00001000
,
00000010
00000100
00000001
00001000
00000001
00000010
00001000
00010000
,
00001000
01000000
00001000
00010000
00100000
00000000
10000000
00000000
00100000
10000000
00010000
10000000
01000000
00000000
00100000
00000000
,
00001000
00010000
00001000
00010000
00000100
00001000
00000100
00000010
00000001
00000100
00000100
00001000
00000010
00000001
00000010
00001000
,
00000100
00000100
00000001
00000010
00000100
00001000
00000100
00010000
00001000
00000000
01000000
00100000
10000000
00000000
00010000
00000000
,
10010000
10000000
00100000
00010000
00001000
00000100
00000001
00000010
,
00000001
00000100
00001000
00000000
00010000
00001000
01000000
00000000
00010000
00100000
01000000
00000000
10000000
00010000
01000000
00000000
,
00100000
10000000
01000000
01000000
00010000
00100000
10000000
00100000
00010000
01000000
01000000
10000000
00100000
00000000
00000000
00000000
,
01000000
00100000
10000000
00010000
10000000
01000000
00100000
00010000
00001000
00000000
00000000
00000000
00001001
00000000
00000000
00000000
,
00000011
00000001
00000100
00001000
00010000
00001000
01000000
00010000
,
10000000
01000000
10000000
00100000
01000000
00010000
00100000
00001000
00010000
00001000
00010000
00000010
00001000
00000100
00000100
00000001
,
00000010
00001000
00000010
00000001
00000100
00000100
00001000
00000010
00010000
00001000
00100000
00010000
01000000
01000000
10000000
00100000
,
00010000
00100000
10000000
01000000
01000000
00010000
00100000
00001000
00010000
00000000
00000100
00000010
00000001
00000000
00001000
00000000
,
00001001
00000001
00000010
00000100
00001000
00000001
00000100
00000010
,
00001000
00000100
00000100
00000001
00000010
00001000
00000010
00000001
00000100
00000100
00001000
00000010
00010000
00001000
00010000
00001000
,
00100000
00010000
01000000
01000000
10000000
00100000
00010000
00100000
10000000
01000000
01000000
00010000
00100000
00001000
00010000
00000000
,
00021000
00000000
00000000
00000000
00000000
00000000
00030000
00000000
00001000
00010000
00001000
01000000
00010000
00100000
01000000
10000000
,
00100000
00000000
01100000
00000000
01000000
00010000
10000000
01000000
,
00100000
00001000
00010000
00000010
00000001
00000010
00001000
00100000
,
10100000
00000000
01010000
00000000
00001000
00100000
00010000
00001000
,
01000000
00001000
00010000
00100000
00101000
00000000
00011000
00000000
,
00000110
00000000
00001001
00000000
00000001
00000010
00001000
00010000
,
00001000
01000000
00010000
00100000
10000000
00100000
00001000
00000010
,
00000011
00000000
00001100
00000000
00000100
00010000
00001000
00000100
,
00000001
00000010
00000100
00001000
00000001
00000100
00000010
00001000
00010000
00000000
00000000
00000000
10010000
00000000
00000000
00000000
,
01100000
00000000
10010000
00000000
10000000
00100000
00010000
00000100
,
00001000
00000010
00010000
00001000
00000001
00000010
00001000
00100000
,
10100000
00000000
01010000
00000000
00010000
00100000
00001000
00010000
,
10000000
00100000
00001000
00000010
00000011
00000000
00001100
00000000
,
00001010
00000000
00000101
00000000
00000001
00000010
00000100
00001000
,
00010000
10000000
00100000
01000000
00010000
00001000
00000001
00000010
,
00000100
00001000
00000001
00000100
00001000
00010000
00001000
00100000
,
00220000
00000000
00000000
00030000
00000000
00000000
00300000
00000000
00010000
00100000
01000000
10000000
00010000
01000000
00100000
01000000
,
00020000
00000000
00000000
00000000
00030000
00100000
01000000
10000000
00020000
00000000
01000000
00000000
10000000
00000000
00100000
00000000
,
00032000
00000000
00000000
00000100
00000000
00000000
00003002
00000000
00000203
00000000
00000000
00000010
00000020
00000000
00000330
00000000
,
00001002
00000000
00000000
00000000
00000003
00000100
00001000
00010000
02000000
00000000
10000000
00000000
00100000
00000000
03020000
00000000
,
00032000
00000000
00000000
00000000
00000000
00000000
00000010
00000000
00000000
00000000
00000000
00000000
00023000
00000000
00000000
00000000
00032000
00000000
00000000
00000000
00003000
00000000
00010000
00000000
00001000
00010000
00000100
00001000
00000010
00000100
00000001
00000010
,
00000001
00001000
00000001
00000010
00001000
00010000
01000000
10000000
,
00100000
00010000
00001000
00000100
00000001
00000010
00001000
00010000
,
01000000
10000000
00100000
00001000
00010000
00000100
00000001
00000010
,
00010000
00001000
01000000
10000000
00100000
01000000
00010000
00100000
,
00001000
00010000
00001000
00010000
00000100
00001000
00000010
00010000
00001000
01000000
00010000
00100000
00001000
00010000
00001000
00100000
,
00010000
01000000
00001000
00010000
00000010
00001000
00000100
00010000
00001000
00010000
00000100
00001000
00000010
00010000
00001000
01000000
,
00001000
00001000
00000100
00010000
00010000
01000000
00001000
00001000
00000100
00010000
00010000
01000000
00001000
00001000
00000100
00010000
,
00002000
00000000
00000000
00003000
,
00000000
00000000
00000000
00000000
;
