
//----- song ID: trbe -----//
#TITLE:Tribe;
#ARTIST:猫叉Master;
#ARTISTTRANSLIT:Nekomata Master;
#BANNER:Tribe.png;
#BACKGROUND:Tribe-bg.png;
#CDTITLE:./CDTitles/DDR X3 VS 2ndMIX.png;
#MUSIC:Tribe.ogg;
#SAMPLESTART:22.46;
#SAMPLELENGTH:15;
#BPMS:0=139;
#NOTES:
     dance-single:
     :
     Beginner:
     2:
     :
0000
0000
0000
0000
,
0000
0000
0000
0000
,
0000
0000
0000
0000
,
0000
0000
0000
0000
,
0000
0000
0000
0000
,
0100
0000
0000
0000
,
0100
0000
0000
0000
,
0100
0000
0000
0000
,
0100
0000
0000
0000
,
0001
0000
0001
0000
,
0100
0000
0100
0000
,
1000
0000
1000
0000
,
0100
0100
0100
0000
,
0001
0000
0001
0000
,
1000
0000
0000
0000
,
0100
0000
0100
0000
,
0001
0000
0000
0000
,
1000
0000
1000
0000
,
0001
0000
0000
0000
,
0100
0000
0100
0000
,
1000
0000
0000
0000
,
0001
0000
1000
0000
,
0001
0000
0000
0000
,
0100
0000
0001
0000
,
0100
0000
0000
0000
,
0010
0000
0000
0000
,
1000
0000
0001
0000
,
0100
0000
0000
0000
,
0010
0000
0000
0000
,
0100
0100
0100
0000
,
0100
0000
0000
0000
,
0100
0100
0100
0000
,
0100
0000
0000
0000
,
0100
0100
0100
0000
,
0001
0000
0000
0000
,
0100
0100
0100
0000
,
1000
0000
0000
0000
,
0001
0001
0001
0000
,
0100
0000
0100
0000
,
1000
1000
1000
0000
,
0100
0000
0100
0000
,
0001
0001
0001
0000
,
0100
0000
0001
0000
,
1000
1000
1000
0000
,
0100
0000
1000
0000
,
0010
0010
0010
0000
,
0010
0000
0000
0000
,
0001
0000
0100
0000
,
0001
0000
0000
0000
,
1000
0000
0100
0000
,
1000
0000
0000
0000
,
0100
0000
1000
0000
,
0100
0000
0000
0000
,
1000
0000
0001
0000
,
1000
0000
0000
0000
,
1000
0000
1000
0000
,
0001
0000
0100
0000
,
0001
0000
0001
0000
,
1000
0000
0100
0000
,
0020
0000
0000
0000
,
0030
0000
0001
0000
,
0100
0000
1000
0000
,
0100
0100
0100
0000
,
1001
0000
0000
0000
,
0000
0000
0000
0000
;
#NOTES:
     dance-single:
     :
     Easy:
     5:
     :
0000
0000
0000
0000
,
0000
0000
0000
0000
,
0000
0000
0000
0000
,
0000
0000
0000
0000
,
0000
0000
0000
0000
,
0100
0010
0000
0010
,
0000
0010
0000
0010
,
1000
0010
0000
0010
,
0000
0010
0000
0010
,
0001
0010
0000
0010
,
0000
0010
0000
0010
,
0100
0010
0000
0010
,
0001
1000
1001
0000
,
0010
0100
1000
0000
,
1000
0001
0100
0000
,
0010
0001
0100
0000
,
0200
0000
0000
0300
,
0001
0100
0010
0000
,
1000
0100
0001
0000
,
0100
0010
1000
0000
,
0002
0000
0000
0003
,
1000
0001
0100
0000
,
0010
0001
1000
0000
,
0100
0010
0001
0000
,
0200
0000
0000
0300
,
1001
1001
0000
0000
,
0001
0000
1000
0001
,
0100
0000
0010
0100
,
0200
0000
0000
0300
,
0001
0001
0001
0000
,
0010
0010
0100
0000
,
1000
1000
1000
0000
,
0100
0100
0010
0000
,
0001
0001
0001
0000
,
1000
1000
0001
0000
,
0100
0100
0100
0000
,
0010
0100
0010
0000
,
0001
0001
0100
0000
,
0001
0100
0001
0100
,
1000
1000
0100
0000
,
1000
0100
1000
0100
,
0010
0010
0100
0000
,
0010
0100
0010
0100
,
0001
0001
1000
0000
,
0001
0010
0100
1000
,
0001
0010
0100
1000
,
0001
1000
1001
0000
,
0100
0010
0001
0100
,
0001
1000
0010
0000
,
0001
1000
0010
0100
,
0020
0000
0000
0030
,
1000
0010
0100
0001
,
0100
0010
1000
0000
,
0010
0100
0001
0100
,
2000
0000
0000
3000
,
0001
1000
0010
0001
,
0100
1000
0001
0000
,
0010
0100
1000
0001
,
0020
0000
0000
0030
,
0110
2002
0000
0000
,
3003
0010
0001
1000
,
0010
1000
0100
0001
,
0020
0000
0000
0030
,
1001
0000
0000
0000
,
0000
0000
0000
0000
;
#NOTES:
     dance-single:
     :
     Medium:
     7:
     :
0000
0000
0000
0000
,
0000
0000
0000
0000
,
0000
0000
0000
0000
,
0000
0000
0000
0000
,
0000
0000
0000
0000
,
2000
0010
0000
0010
,
0000
0010
0000
3010
,
0002
0010
0000
0010
,
0000
0010
0000
0013
,
0200
0010
0000
0010
,
0000
0010
0000
0310
,
0002
0010
2003
0010
,
3001
1100
1001
0000
,
1000
0100
0010
0000
0001
0000
0100
0000
,
0010
0100
0001
0010
,
0100
1000
0010
0000
0100
0000
0001
0000
,
0020
0001
1000
0031
,
1000
0100
0010
0000
0001
0000
1000
0000
,
0010
0001
0100
1000
,
0001
0100
0010
0000
1000
0000
0001
0000
,
0200
1000
0001
1300
,
0001
0010
0100
0000
0001
0000
0010
0000
,
0100
0001
0010
0100
,
1000
0100
0010
0000
1000
0000
0100
0000
,
0020
1000
0100
0031
,
1000
0001
1001
0000
0000
0000
0000
0000
,
1000
0001
0010
1000
,
0001
1000
0010
0000
0001
0000
1000
0000
,
0200
0001
0010
1300
,
0001
0001
0101
0100
,
0001
0101
1000
1100
,
1000
1000
1100
0100
,
1000
1100
0001
0101
,
0010
0010
0110
0100
,
0001
1001
0100
0110
,
1000
0001
1001
0100
,
0010
0100
0010
0100
0010
0000
0000
0000
,
1100
1100
1100
0100
,
1000
1010
0001
0011
,
0101
0101
0101
0100
,
0001
0011
1000
1010
,
0110
0110
0110
0100
,
0010
0011
0010
1010
,
1001
1001
1001
0100
,
0010
1000
0010
0000
0100
0001
0100
0000
,
0001
0010
0001
0000
0100
1000
0100
0000
,
1001
0000
0000
0010
0100
0000
0000
0000
,
0001
0000
0010
0100
1000
0000
0010
0000
,
0100
0010
1000
0100
,
0010
0001
0100
0000
0010
0000
1000
0000
,
0200
1000
0001
1300
,
0001
0010
0100
0000
1000
0000
0001
0000
,
0100
1000
0010
0001
,
1000
0010
0100
0000
0001
0000
1000
0000
,
0020
0001
1000
0031
,
1000
0100
0010
0000
1000
0100
0010
0000
,
0100
1000
0100
0010
,
0001
0010
0100
0000
0001
0010
0100
0000
,
0200
0001
0010
1300
,
1001
0000
0010
0100
0020
0000
0030
1001
,
0000
1000
0100
0001
,
1000
0001
0100
0000
0001
1000
0100
0000
,
0020
1000
0100
0031
,
1001
0000
0000
0000
,
0000
0000
0000
0000
;
#NOTES:
     dance-single:
     :
     Hard:
     10:
     :
0000
0000
0000
0000
,
0000
0000
0000
0000
,
0000
0000
0000
0000
,
0000
0000
0000
0000
,
0000
0000
0000
0000
,
1200
0010
1000
0010
,
0001
0010
0001
0310
,
2100
0001
0100
0001
,
0010
0001
0010
3001
,
0102
0010
0100
0010
,
0100
1000
0010
1003
,
0120
0001
1000
0001
,
0130
0000
0010
0000
1001
0010
0100
1000
,
1100
0000
1001
0000
1000
0100
0010
0000
,
0100
0000
0010
0000
0001
1000
0010
0000
,
0101
0000
1001
0000
0010
1000
0100
0000
,
0001
0010
1000
0100
,
0110
0000
0011
0000
1000
0100
0010
0000
,
0001
0000
0100
0000
0010
1000
0001
0000
,
0011
0000
0110
0000
1000
0001
0100
0000
,
0100
0010
0001
0010
0100
0010
1000
0000
,
1001
0000
0011
0000
1000
0100
0010
0000
,
0001
0010
1000
0010
,
0011
0000
0001
0100
1000
0000
1000
0100
,
0001
0000
0010
0000
0100
0100
0010
0000
,
0001
1000
0001
1000
0000
0000
0000
0000
0000
0000
0000
0000
,
0010
1000
0100
0001
,
0110
0000
1000
0010
0001
0000
0001
0010
,
1000
0000
0100
0000
0010
0010
0100
0000
,
0001
0000
0101
0000
1001
0000
1000
0100
,
0010
0000
1000
0100
0010
0001
0010
0000
,
0100
0000
1100
0000
1001
0000
0001
0010
,
0100
0000
0001
0010
0100
1000
0100
0000
,
0010
0000
0110
0000
0011
0000
0010
0001
,
0100
0000
0010
0001
0100
0010
1000
0000
,
0001
0000
1001
0000
1100
0000
1000
0010
,
0100
0010
0001
0010
0100
0000
0000
0000
,
1010
0000
0101
0000
1010
0000
0001
0010
,
0100
0000
1000
0100
0001
0100
1000
0000
,
1100
0000
0011
0000
1100
0000
1000
0010
,
0100
0000
0001
0100
1000
0100
0001
0000
,
0101
0000
1001
0000
0011
0000
0010
0001
,
0100
0000
0100
0001
0010
0001
0100
0000
,
0101
0000
0110
0000
1010
0000
1000
0010
,
0100
0001
0100
0010
0100
1000
0100
0010
,
1000
0100
0010
0100
0001
0100
0010
0100
,
1000
0000
0000
0001
0010
0100
1000
0000
0000
0001
0010
0100
,
1000
0000
1001
0000
0001
0010
0100
0000
,
0010
0000
0100
1000
0001
0100
0010
0000
,
1010
0000
1001
0000
0100
0001
0010
0000
,
1000
0100
0001
0010
,
0110
0000
1100
0000
0001
0010
0100
0000
,
1000
0000
0010
0100
0001
1000
0100
0000
,
1100
0000
0110
0000
0001
1000
0010
0000
,
0010
0100
1000
0100
0010
0100
0001
0000
,
1001
0000
1100
0000
0001
0010
0100
0000
,
1000
0000
0100
0000
0010
0001
1000
0000
,
1100
0000
1000
0010
0001
0000
0001
0010
,
1000
0000
0100
0000
0010
0100
1000
0001
,
1001
0000
0000
0000
0000
0000
0010
0000
0001
0000
0100
0000
0010
0000
1000
0000
0100
0000
0010
0000
0000
0120
0000
0000
,
0000
0000
0031
0000
1000
0001
1000
0000
,
0110
0000
0001
0100
1000
0000
1000
0100
,
0001
0100
0010
0100
1000
0100
0010
0100
,
0110
0000
0000
0000
,
0000
0000
0000
0000
;
#NOTES:
     dance-single:
     :
     Challenge:
     13:
     :
0000
0000
0000
0000
,
0000
0000
0000
0000
,
0000
0000
0000
0000
,
0000
0000
0000
0000
,
0000
0000
0000
0000
,
0020
0032
0203
2300
,
3020
0032
0203
2300
,
3200
0302
0023
2030
,
3200
0302
0023
2030
,
3020
0032
0203
2300
,
3020
0032
0203
2300
,
3200
0302
0023
2030
,
3200
0000
0000
0000
0000
0000
0302
0000
0000
0000
0000
0000
0013
0000
0000
0001
0000
0010
0100
0000
1000
0100
0000
1000
,
0001
0000
1001
0000
0001
0100
0010
0100
,
0001
0000
1010
0000
0100
0010
1000
0010
,
0100
0000
0000
0000
0000
0000
0001
0000
0000
0010
0000
0000
0100
0000
0000
0000
0000
1000
0100
0000
0000
1000
0000
0000
,
0020
0001
0000
1000
0000
0001
0000
1030
,
0100
0000
0110
0000
0010
0001
1000
0001
,
0010
0000
0101
0000
0010
0100
1000
0100
,
0010
0000
0000
0000
0000
0000
1000
0000
0000
0100
0000
0000
0010
0000
0000
0000
0000
0001
0010
0000
0000
0001
0000
0000
,
0200
1300
0200
0301
0200
1300
0200
0301
,
0010
0000
0000
0000
0000
0000
0100
0000
1000
0000
0001
0000
0010
0000
0000
0000
0000
0001
1000
0000
0000
0010
0000
0000
,
1000
0100
0010
0100
1000
0010
0100
0010
,
1000
0000
0000
0100
0000
0000
0010
0000
0000
0100
0000
0000
1000
0000
0000
0000
0000
0001
0100
0000
0000
0010
0000
0000
,
2000
0100
0000
0010
3002
0100
0000
0013
,
0001
0000
0100
0000
0010
0000
1000
0000
0000
0000
0000
0000
0000
0000
0000
0000
0000
0000
0000
0000
0000
1001
0000
0000
,
0100
0000
0010
1000
0100
1000
0001
0100
,
0010
0000
0000
0100
0000
0000
0001
0000
0000
0010
0000
0000
0100
0000
0000
0000
0000
1000
0001
0000
0000
1000
0000
0000
,
0002
0103
2000
3100
0002
0013
2000
3010
,
0110
0000
0000
0000
0000
0000
0110
0000
0000
0000
0000
0000
0110
0000
0000
0000
0000
0000
0001
0000
0000
1000
0000
0100
,
1000
0000
0000
0000
0000
1000
0010
0000
0000
0100
0000
0000
0001
0000
0000
0000
0000
0100
0001
0000
0000
0010
0000
0000
,
0011
0000
0000
0000
0000
0000
0011
0000
0000
0000
0000
0000
0011
0000
0000
0000
0000
0000
1000
0000
0000
0001
0000
0010
,
0100
1000
0001
0100
0010
0100
0001
1000
,
1010
0000
0000
0000
0000
0000
1010
0000
0000
0000
0000
0000
1010
0000
0000
0000
0000
0000
0001
0000
0000
0010
0000
0100
,
0010
0000
0000
0000
0000
0001
0100
0000
0000
0010
0000
0000
1000
0000
0000
0000
0000
0100
1000
0000
0000
0001
0000
0000
,
0101
0000
0000
0000
0000
0000
0101
0000
0000
0000
0000
0000
0101
0000
0000
0000
0000
0000
1000
0000
0000
0001
0000
0100
,
0010
0001
0010
1000
0010
0000
0000
0000
,
1010
0000
0000
0001
0000
0000
1010
0000
0000
0001
0000
0000
1010
0000
0000
0001
0000
0000
0100
0000
0000
0010
0000
1000
,
0010
0000
0000
0100
0000
0001
0100
0000
0000
0010
0000
1000
0100
0000
0000
0010
0000
0001
0010
0000
0000
0100
0000
0000
,
1100
0000
0000
0010
0000
0000
1100
0000
0000
0010
0000
0000
1100
0000
0000
0010
0000
0000
0001
0000
0000
0100
0000
0010
,
0100
0000
0000
0001
0000
0010
0100
0000
0000
0010
0000
0001
0100
0000
0000
0010
0000
0100
0001
0000
0000
0010
0000
0000
,
0011
0000
0000
1000
0000
0000
0011
0000
0000
1000
0000
0000
0011
0000
0000
1000
0000
0000
0100
0000
0000
0010
0000
0001
,
0010
0000
0000
0100
0000
1000
0100
0000
0000
0010
0000
0001
0100
0000
0000
0010
0000
1000
0010
0000
0000
0100
0000
0000
,
0101
0000
0000
0010
0000
0000
0101
0000
0000
0010
0000
0000
0101
0000
0000
0010
0000
0000
1000
0000
0000
0100
0000
0010
,
0001
0000
0000
0001
0000
0100
0010
0000
0000
0010
0000
1000
0100
0000
0000
0100
0000
0010
0001
0000
0000
0001
0000
0100
,
0010
1000
0001
1000
0100
1000
0001
0100
,
0110
0000
0000
0010
1000
1000
0100
0000
0000
0010
0001
0001
,
0100
0000
0000
0000
0000
0000
0001
0000
0000
0100
0000
0000
0010
0000
0000
0100
0000
0100
0001
0000
0000
1000
0000
0000
,
0100
0000
0000
0010
0000
0000
0100
0000
0000
1000
0000
0000
0001
0000
0000
0100
0000
0100
0001
0000
0000
0010
0000
0000
,
0100
0000
0000
1000
0000
0000
0001
0000
0000
0100
0000
0000
0001
0000
0000
1000
0000
1000
0100
0000
0000
0010
0000
0000
,
0001
0000
0000
1000
0000
0000
0010
0000
0000
0100
0000
0000
0010
0000
0000
1000
0000
1000
0100
0000
0000
0010
0000
0010
,
0001
0000
0000
0000
0000
0000
1000
0000
0001
0000
0100
0000
0010
0000
0000
1000
0000
1000
0001
0000
0000
0010
0000
0000
,
0100
0000
0000
0010
0000
0000
0001
0000
0000
1000
0000
0000
0010
0000
0000
0100
0000
0100
0010
0000
0000
1000
0000
0000
,
0100
0000
0000
0001
0000
0000
0100
0000
0000
1000
0000
0000
0001
0000
0000
1000
0000
1000
0001
0000
0000
0100
0000
0000
,
2000
3100
0002
0013
2000
3010
0002
0103
,
0010
0000
0000
0000
0000
0000
1010
0000
0000
0000
0000
0000
1000
0000
0000
0100
0000
0010
0100
0000
0000
1000
0000
0000
,
0001
0000
0000
0100
0000
0000
0010
0000
0000
0100
0000
0000
0001
0000
0000
1000
0000
0010
0100
0000
0000
0001
0000
0000
,
1000
0000
0000
0100
0000
0000
0001
0000
0000
0100
0000
0000
0010
0000
0000
0001
0000
1000
0010
0000
0000
0100
0000
0000
,
0001
0000
0000
0010
0000
0001
0100
0000
0000
0010
0000
0000
1000
0000
0000
0010
0000
1000
0100
0000
0000
0000
0000
0000
,
0110
0000
0000
0000
0000
0000
0001
0000
0001
0000
0001
0000
1000
0000
1000
0000
1000
0000
0010
0000
0000
2002
0000
0000
,
3003
0000
0000
0010
0000
0000
0100
0000
0000
0001
0000
0000
0100
0000
0000
0010
0000
1000
0001
0000
0000
0010
0000
0000
,
0001
0000
0000
1000
0000
0001
0100
0000
0000
0010
0000
0000
1000
0000
0000
0100
0000
0010
0001
0000
1000
0001
0000
0000
,
0100
0000
0000
0010
0000
1000
0100
0000
0000
0010
0000
0001
0100
0000
0000
0010
0000
1000
0001
0000
0000
1000
0000
0000
,
1001
0000
0000
0000
,
0000
0000
0000
0000
;
#NOTES:
     dance-double:
     :
     Easy:
     4:
     :
00000000
00000000
00000000
00000000
,
00000000
00000000
00000000
00000000
,
00000000
00000000
00000000
00000000
,
00000000
00000000
00000000
00000000
,
00000000
00000000
00000000
00000000
,
00000100
00000010
00000000
00000010
,
00000000
00000010
00000000
00000010
,
00000000
00001000
00000000
00001000
,
00000000
00001000
00000000
00001000
,
00010000
00010000
00000000
00010000
,
00000000
00010000
00000000
00010000
,
00000000
00100000
00000000
00100000
,
01000000
00100000
01100000
00000000
,
10000000
00000000
10000000
01000000
,
00100000
00000000
00010000
00000000
,
01000000
00010000
00100000
00000000
,
00020000
00000000
00000000
00030000
,
00001000
00000000
00001000
00010000
,
00001000
00000000
00001000
00000000
,
00000100
00000010
00001000
00000000
,
00000200
00000000
00000000
00000300
,
00000010
00000000
00000001
00001000
,
00000100
00000000
00001000
00000000
,
00000001
00000100
00001000
00000000
,
00020000
00000000
00000000
00030000
,
00011000
00011000
00000000
00000000
,
00100000
00000000
00010000
10000000
,
00100000
00000000
01000000
00000000
,
00200000
00000000
00000000
00300000
,
10000000
10000000
10000000
00000000
,
01000000
01000000
00100000
00000000
,
00010000
00010000
00010000
00000000
,
00100000
00100000
00010000
00000000
,
00001000
00001000
00001000
00000000
,
00010000
00010000
00001000
00000000
,
00000100
00000100
00000100
00000000
,
00000010
00000010
00000100
00000000
,
00000001
00000001
00000001
00000000
,
00000100
00000100
00000010
00000000
,
00001000
00001000
00001000
00000000
,
00000100
00000100
00001000
00000000
,
00010000
00010000
00010000
00000000
,
00001000
00001000
00010000
00000000
,
00100000
00100000
00100000
00000000
,
10000000
01000000
00010000
00000000
,
00010000
00001000
00010000
00000000
,
00001000
00000000
00000100
00000000
,
00000010
00000100
00001000
00000000
,
00000100
00001000
00010000
00000000
,
00001000
00010000
00001000
00010000
,
00002000
00000000
00000000
00003000
,
00100000
00010000
01000000
00000000
,
00010000
10000000
00100000
00000000
,
10000000
01000000
00100000
00000000
,
00020000
00000000
00000000
00030000
,
00001000
00010000
00001000
00010000
,
00001000
00000000
00000100
00000000
,
00000001
00000010
00000100
00001000
,
00000200
00000000
00000000
00000300
,
00001000
00022000
00000000
00000000
,
00033000
00000000
00011000
00000000
,
00001000
00010000
00100000
00000000
,
02000000
00000000
03100000
00100000
,
10010000
00000000
00000000
00000000
,
00000000
00000000
00000000
00000000
;
#NOTES:
     dance-double:
     :
     Medium:
     7:
     :
00000000
00000000
00000000
00000000
,
00000000
00000000
00000000
00000000
,
00000000
00000000
00000000
00000000
,
00000000
00000000
00000000
00000000
,
00000000
00000000
00000000
00000000
,
00000002
00000100
00000000
00000100
,
00000000
00000100
00000000
00000103
,
00002000
00000100
00000000
00000100
,
00000000
00000100
00000000
00003100
,
00020000
01000000
00000000
01000000
,
00000000
01000000
00000000
01030000
,
20000000
01000000
00000000
31000000
,
00100000
01100000
10010000
00000000
,
10000000
01000000
00100000
00000000
00010000
00000000
10000000
00000000
,
01000000
00100000
00001000
00010000
,
00001000
00010000
00000100
00000000
00000010
00000000
00000001
00000000
,
00000200
00001000
00000001
00001300
,
00000010
00001000
00000001
00000000
00000100
00000000
00000010
00000000
,
00001000
00000100
00010000
00001000
,
00010000
00001000
00100000
00000000
00010000
00000000
10000000
00000000
,
02000000
10000000
00010000
13000000
,
00010000
10000000
00100000
00000000
01000000
00000000
00010000
00000000
,
00100000
00001000
00010000
00000010
,
00001000
00000010
00000100
00000000
00000001
00000000
00000100
00000000
,
00000200
00000001
00000010
00001300
,
00001000
00010000
00011000
00000000
00000000
00000000
00000000
00000000
,
00100000
00010000
10000000
00100000
,
01000000
00010000
00100000
00000000
00010000
00000000
10000000
00000000
,
02000000
10000000
00100000
03010000
,
01000000
01000000
01010000
10000000
,
01000000
00010000
00001000
00011000
,
00000100
00000100
00001100
00000001
,
00000100
00001000
00010000
00011000
,
00100000
00100000
00110000
10000000
,
00100000
00010000
00001000
00011000
,
00000010
00000010
00001010
00000001
,
00000010
00001000
00011000
00000000
,
00101000
00110000
00101000
00010000
,
10000000
01000000
00100000
00001000
,
00010010
00001010
00010010
00001000
,
00000001
00000100
00000010
00010000
,
01001000
00011000
01001000
00100000
,
10000000
00100000
01000000
00001000
,
00010100
00011000
00010100
00000010
,
00000001
00000010
00000001
00000000
00000100
00001000
00000100
00000000
,
00010000
00001000
00010000
00000000
00100000
00010000
00100000
00000000
,
01100000
00000000
00000000
10000000
00010000
00000000
00000000
00000000
,
10000000
00100000
01000000
00000000
00010000
00000000
10000000
00000000
,
00100000
01000000
00001000
00010000
,
00001000
00010000
00000010
00000000
00000100
00000000
00000001
00000000
,
00000020
00000001
00000100
00001030
,
00000100
00001000
00000001
00000000
00000010
00000000
00000100
00000000
,
00001000
00000010
00001000
00000000
00000100
00000000
00010000
00000000
,
00001000
00100000
00010000
00000000
10000000
00000000
00010000
00000000
,
00200000
00010000
01000000
10300000
,
00010000
10000000
01000000
00000000
00100000
00000000
00010000
00000000
,
01000000
00001000
00010000
00000100
,
00001000
00000100
00000010
00000000
00000001
00000000
00000010
00000000
,
00000200
00001000
00010300
00000000
,
00011000
00000000
00010000
00001000
00200000
00000000
00300000
10010000
,
00000000
00010000
10000000
01000000
,
00100000
00010000
01000000
00000000
00010000
10000000
01000000
00000000
,
00200000
01000000
00010000
00301000
,
00011000
00000000
00000000
00000000
,
00000000
00000000
00000000
00000000
;
#NOTES:
     dance-double:
     :
     Hard:
     10:
     :
00000000
00000000
00000000
00000000
,
00000000
00000000
00000000
00000000
,
00000000
00000000
00000000
00000000
,
00000000
00000000
00000000
00000000
,
00000000
00000000
00000000
00000000
,
20100000
00010000
00100000
00010000
,
01000000
00010000
01000000
30010000
,
01020000
00100000
01000000
00100000
,
00001000
00100000
00001000
00130000
,
00012000
00000010
00010000
00000010
,
00010000
00000100
00010000
00003100
,
00001002
00000100
00001000
00000010
,
00001003
00000000
00001000
00000000
00000001
00000010
00001000
00010000
,
00011000
00000000
01001000
00000000
01000000
00010000
00100000
00000000
,
01000000
00000000
10000000
00000000
00100000
01000000
00010000
00000000
,
10000000
00000000
01100000
00000000
00100000
00010000
00001000
00000000
,
00000010
00000100
00000001
00001000
,
00001001
00000000
00001100
00000000
00001000
00000100
00000010
00000000
,
00000001
00000000
00000100
00000000
00000010
00000100
00001000
00000000
,
00010000
00000000
00010100
00000000
00001000
00010000
01000000
00000000
,
10000000
01000000
00010000
01000000
10000000
01000000
00100000
00000000
,
01000000
00000000
10010000
00000000
10000000
00100000
01000000
00000000
,
00010000
00100000
01000000
00010000
,
00011000
00000000
00001000
00010000
00000100
00000000
00000100
00001000
,
00000001
00000000
00000100
00000000
00000010
00000010
00000100
00000000
,
00000001
00000100
00000010
00001000
00000000
00000000
00000000
00000000
00000000
00000000
00000000
00000000
,
00010000
00100000
10000000
01000000
,
01100000
00000000
10000000
01000000
00010000
00000000
00010000
01000000
,
10000000
00000000
00010000
00000000
00100000
00001000
00010000
00000000
,
00001000
00000000
00010000
00000000
00011000
00000000
00001000
00000100
,
00000001
00000000
00000001
00000010
00000100
00001000
00000100
00000000
,
00000010
00000000
00000001
00000000
00001001
00000000
00000001
00000100
,
00001000
00000000
00000100
00000010
00001000
00000100
00010000
00000000
,
00001000
00000000
00010000
00000000
00011000
00000000
00010000
01000000
,
10000000
00000000
00010000
00100000
01000000
10000000
00010000
00000000
,
00100000
00000000
00010000
00000000
10010000
00000000
10000000
01000000
,
00010000
01000000
00100000
00001000
00010000
00000000
00000000
00000000
,
00011000
00000000
00001010
00000000
00010100
00000000
00001000
00000100
,
00000010
00000000
00000001
00000010
00001000
00000010
00000001
00000000
,
00000011
00000000
00010100
00000000
00001001
00000000
00000001
00000100
,
00000010
00000000
00000100
00000001
00000010
00001000
00010000
00000000
,
00011000
00000000
00110000
00000000
01001000
00000000
00010000
01000000
,
00100000
00000000
10000000
00100000
00010000
00100000
10000000
00000000
,
10100000
00000000
01001000
00000000
10010000
00000000
10000000
01000000
,
00100000
00010000
00100000
10000000
00100000
01000000
00100000
00001000
,
00010000
00000010
00000100
00000010
00001000
00000010
00000001
00000010
,
00000100
00000000
00000000
00000010
00001000
00010000
00100000
00000000
00000000
01000000
00010000
00001000
,
00000100
00000000
00000110
00000000
00000010
00001000
00000100
00000000
,
00000010
00000000
00000001
00000000
00000100
00000010
00001000
00000100
,
00010000
00000000
00011000
00000000
00001000
00010000
00100000
00000000
,
01000000
00100000
10000000
00010000
,
10010000
00000000
00110000
00000000
00010000
00100000
01000000
00000000
,
10000000
00000000
00100000
00000000
00010000
00001000
00000100
00000000
,
00000010
00000000
00000101
00000000
00000010
00000100
00001000
00000000
,
00000001
00000100
00000010
00001000
00000100
00010000
00001000
00000000
,
00100000
00000000
00110000
00000000
10000000
01000000
00100000
00000000
,
00010000
10000000
01000000
00000000
00100000
00001000
00010000
00000000
,
00011000
00000000
00001000
00010000
00000010
00000000
00000100
00000001
,
00001000
00000000
00000001
00000000
00000010
00000001
00001000
00000000
,
00001001
00000000
00000000
00000000
00000000
00000000
00000010
00000000
00000001
00000000
00000100
00000000
00001000
00000000
00010000
00000000
01000000
00000000
10000000
00000000
00000000
00200000
00000000
00000000
,
00000000
01300000
10000000
00100000
,
01100000
00000000
10000000
00100000
00010000
00000000
00010000
00100000
,
10000000
00010000
00100000
00001000
00010000
00000010
00001000
00000001
,
00000101
00000000
00000000
00000000
,
00000000
00000000
00000000
00000000
;
#NOTES:
     dance-double:
     :
     Challenge:
     14:
     :
00000000
00000000
00000000
00000000
,
00000000
00000000
00000000
00000000
,
00000000
00000000
00000000
00000000
,
00000000
00000000
00000000
00000000
,
00000000
00000000
00000000
00000000
,
00200000
20300000
32000000
03020000
,
00230000
20300000
32000000
03020000
,
00030200
00000302
00000023
00002030
,
00003200
00000302
00000023
00002030
,
02003000
23000000
30200000
00320000
,
02030000
23000000
30200000
00320000
,
00030020
00000032
00000203
00002300
,
00003010
00000000
00000000
00000000
00000000
00000000
00000110
00000000
00000000
00000000
00000000
00000000
00000001
00000000
00000000
00000100
00000000
00000100
00001000
00000000
00001000
00010000
00000000
00010000
,
01000000
00000000
01100000
00000000
01000000
10000000
00100000
10000000
,
01000000
00000000
00010000
00001000
00000100
00000000
00001000
00010000
,
01000000
00000000
00000000
00000000
00000000
00000000
10000000
00000000
00000000
00100000
00000000
00000000
00010000
00000000
00000000
00000000
00000000
00001000
00000100
00000000
00000000
00000001
00000000
00000000
,
00002000
00010000
00000001
00010000
,
00003001
00000000
00000000
00000000
00000000
00000000
00000010
00000000
00000100
00000000
00010000
00000000
00001000
00000000
00000000
00000000
00000000
00001000
00000100
00000000
00000000
00000001
00000000
00000000
,
00001000
00000000
00000010
00001000
00010000
00000000
01000000
00010000
,
00001000
00000000
00000000
00000000
00000000
00000000
00000010
00000000
00000000
00010000
00000000
00000000
00001000
00000000
00000000
00000000
00000000
00001000
01000000
00000000
00000000
00100000
00000000
00000000
,
00020000
00031000
00020000
01030000
00020000
00031000
00020000
00130000
,
00010000
00000000
00000000
00000000
00000000
00000000
00010000
00000000
00000100
00000000
00000010
00000000
00000001
00000000
00000000
00000000
00000000
00001000
00000010
00000000
00000000
00000100
00000000
00000000
,
00001000
00000000
00010000
00001000
00000010
00000000
00001000
00010000
,
01000000
00000000
00000000
00000000
00000000
00000000
00010000
00000000
00000000
00001000
00000000
00000000
01000000
00000000
00000000
00000000
00000000
00100000
10000000
00000000
00000000
01000000
00000000
00000000
,
00020000
00001000
00000000
00100000
00032000
00000010
00000000
00013000
,
00001000
00000100
00000001
00000010
00000000
00000000
00000000
00000000
00000000
00000000
00000000
00000000
,
00010100
00000000
00001000
01000000
10000000
00000000
00010000
00001000
,
00000100
00000000
00000000
00000000
00000000
00000000
00000001
00000000
00000000
00000010
00000000
00000000
00000100
00000000
00000000
00000000
00000000
00010000
00001000
00000000
00000000
00000100
00000000
00000000
,
00000002
00001003
00000020
00000130
00002000
00013000
02000000
03100000
,
10010000
00000000
00000000
00000000
00000000
00000000
01100000
00000000
00000000
00000000
00000000
00000000
20020000
00000000
00000000
00000000
00000000
00000000
30030000
00000000
00000000
10000000
00000000
01000000
,
00100000
00000000
00000000
00000000
00000000
00100000
00010000
00000000
00000000
00001000
00000000
00000000
00000010
00000000
00000000
00000000
00000000
00000010
00001000
00000000
00000000
00010000
00000000
00000000
,
01100000
00000000
00000000
00000000
00000000
00000000
10010000
00000000
00000000
00000000
00000000
00000000
02200000
00000000
00000000
00000000
00000000
00000000
03300000
00000000
00000000
00010000
00000000
00001000
,
00000100
00000001
00000100
00001000
00000100
00000001
00000100
00000010
,
00001001
00000000
00000000
00000000
00000000
00000000
00000110
00000000
00000000
00000000
00000000
00000000
00002002
00000000
00000000
00000000
00000000
00000000
00003003
00000000
00000000
00000001
00000000
00000010
,
00000100
00000000
00000000
00000000
00000000
00000100
00001000
00000000
00000000
00010000
00000000
00000000
01000000
00000000
00000000
00000000
00000000
01000000
00010000
00000000
00000000
00001000
00000000
00000000
,
00000110
00000000
00000000
00000000
00000000
00000000
00001001
00000000
00000000
00000000
00000000
00000000
00000220
00000000
00000000
00000000
00000000
00000000
00000330
00000000
00000000
00001000
00000000
00010000
,
01000000
10000000
00100000
00010000
01000000
00000000
00000000
00000000
,
11000000
00000000
00000000
00000000
00000000
00000000
00011000
00000000
00000000
00000000
00000000
00000000
00000202
00000000
00000000
00000000
00000000
00000000
00000303
00000000
00000000
00001000
00000000
00010000
,
01000000
00000000
00000000
10000000
00000000
01000000
00010000
00000000
00000000
00001000
00000000
00000100
00000001
00000000
00000000
00001000
00000000
00000100
00000010
00000000
00000000
00000001
00000000
00000000
,
00000011
00000000
00000000
00000000
00000000
00000000
00011000
00000000
00000000
00000000
00000000
00000000
20200000
00000000
00000000
00000000
00000000
00000000
30300000
00000000
00000000
00010000
00000000
00001000
,
00000010
00000000
00000000
00001000
00000000
00010000
01000000
00000000
00000000
00010000
00000000
00001000
00000100
00000000
00000000
00001000
00000000
00010000
00100000
00000000
00000000
10000000
00000000
00000000
,
10100000
00000000
00000000
00000000
00000000
00000000
01001000
00000000
00000000
00000000
00000000
00000000
00010100
00000000
00000000
00000000
00000000
00000000
00000011
00000000
00000000
00000001
00000000
00001000
,
00000010
00000000
00000000
00010000
00000000
00001000
01000000
00000000
00000000
00010000
00000000
10000000
00100000
00000000
00000000
00010000
00000000
00000010
00001000
00000000
00000000
00000001
00000000
00000000
,
00000011
00000000
00010100
00000000
00101000
00000000
11000000
00010000
,
01000000
00000000
00000000
00010000
00000000
00010000
10000000
00000000
00000000
00010000
00000000
00010000
00100000
00000000
00000000
00010000
00000000
00010000
00001000
00000000
00000000
00000100
00000000
00000100
,
00001000
00000000
00000000
00000001
00000000
00000001
00001000
00000000
00000000
00000010
00000000
00000010
00001000
00000000
00000000
00010000
00000000
00010000
00001000
00000000
00000000
00010000
00000000
00000000
,
01000000
00000000
00000000
00100000
00010000
00001000
00000100
00000000
00000000
00000010
00001000
00010000
,
01000000
00000000
00000000
00000000
00000000
00000000
01100000
00000000
00000000
00000000
00000000
00000000
10000000
00000000
00000000
00000000
00000000
01000000
00100000
00000000
00000000
00001000
00000000
00000000
,
00010000
00000100
00001000
00000010
00000001
00000010
00001000
00000001
,
00000010
00000000
00000000
00000000
00000000
00000000
00001100
00000000
00000000
00000000
00000000
00000000
00010000
00000000
00000000
00000000
00000000
00001000
00010000
00000000
00000000
00100000
00000000
00000000
,
10000000
00000000
00000000
00010000
00000000
00000000
01000000
00000000
00000000
00001000
00000000
00000000
00010000
00000000
00000000
01000000
00000000
10000000
01000000
00000000
00000000
00100000
00000000
00000000
,
00110000
00000000
00000000
00000000
00000000
00000000
00001000
00000000
00010000
00000000
00000010
00000000
00000100
00000000
00000000
00000000
00000000
00000001
00000010
00000000
00000000
00000001
00000000
00000000
,
00000100
00001000
00010000
00000010
00000100
00000010
00010000
00001000
,
01000000
00000000
00000000
00010000
00000000
00000000
00100000
00000000
00000000
01000000
00000000
00000000
10000000
00000000
00000000
00000000
00000000
10000000
01000000
00000000
00000000
00010000
00000000
00000000
,
00002000
00003010
00002000
00013000
00002000
00003100
00002000
00013000
,
00011000
00000000
00000000
00000000
00000000
00000000
00010000
00000000
00001000
00000000
00000010
00000000
00000001
00000000
00000000
00001000
00000000
00000001
00000100
00000000
00000000
00000010
00000000
00000000
,
00001000
00000000
00000000
00000100
00000000
00000000
00000010
00000000
00000000
00000100
00000000
00010000
00001000
00000000
00000000
01000000
00000000
00000000
00100000
00000000
00000000
01000000
00000000
00000000
,
10000000
00000000
00000000
01000000
00000000
00000000
00010000
00000000
00000000
10000000
00000000
00000000
00100000
00000000
00000000
01000000
00000000
00010000
00100000
00000000
00000000
00001000
00000000
00000000
,
00010000
00000100
00000010
00000100
00001000
00000001
00001000
00000000
,
00001001
00000000
00000000
00000000
00000000
00000000
00000001
00000000
00001000
00000000
00010000
00000000
10000000
00000000
00010000
00000000
00001000
00000000
00000001
00000000
00000000
00002002
00000000
00000000
,
00000000
00000000
00000000
00003003
00000000
00000000
00001000
00000000
00000000
00000001
00000000
00000000
00000100
00000000
00000000
00000010
00000000
00000000
00001000
00000000
00000000
00000100
00000000
00010000
,
00001000
00000000
00000000
00010000
00000000
00000000
00001000
00000000
00000000
00000010
00000000
00000000
00000001
00000000
00000000
00001000
00000000
00000010
00000100
00000000
00000000
00000001
00000000
00000000
,
00000100
00000000
00000000
00000001
00000000
00000001
00001000
00000000
00000000
00000010
00000000
00000010
00010000
00000000
00000000
00001000
00000000
00001000
01000000
00000000
00000000
00010000
00000000
00010000
,
10000000
00000000
00000000
00000000
,
00000000
00000000
00000000
00000000
;
