
//----- song ID: toho1 -----//
#TITLE:Tohoku EVOLVED;
#ARTIST:2.1MB underground;
#BANNER:Tohoku EVOLVED (TYPE1).png;
#BACKGROUND:Tohoku EVOLVED (TYPE1)-bg.png;
#CDTITLE:./CDTitles/DDR X3 VS 2ndMIX.png;
#MUSIC:Tohoku EVOLVED (TYPE1).ogg;
#SAMPLESTART:1.42;
#SAMPLELENGTH:15;
#DISPLAYBPM:340;
#BPMS:0=340,7=680,9=340,369=42.5,370=680,380=340,512=1020;
#STOPS:370=1.941,512=3.529;
#NOTES:
     dance-single:
     :
     Beginner:
     6:
     :
0000
0000
0000
0000
,
0000
0000
0000
0000
,
0000
0001
0000
0000
,
0000
1000
0000
0000
,
0000
0001
0000
0000
,
0000
1000
0000
0000
,
0000
0001
0000
0000
,
0000
1000
0000
0000
,
0000
0001
0000
0000
,
0000
1000
0000
0000
,
0000
0010
0000
0010
,
0000
0100
0000
0001
,
0000
0010
0000
0001
,
0000
0100
0000
0001
,
0000
0010
0000
0010
,
0000
0100
0000
1000
,
0000
0010
0000
1000
,
0000
0100
0000
1000
,
0000
0001
0000
1000
,
0000
0100
0000
0010
,
0000
0001
0000
0100
,
0000
0010
0000
1000
,
0000
0001
0000
0100
,
0000
1000
0000
0100
,
0000
0001
0000
0100
,
0000
0010
0000
0010
,
0000
1000
0000
1000
,
0000
0001
0000
0010
,
0000
1000
0000
0010
,
0000
0001
0000
0010
,
0000
1000
0000
0010
,
0000
0001
0000
0010
,
0000
0100
0000
0100
,
0000
0010
0000
0010
,
0000
1000
0000
0001
,
0000
1000
0000
0001
,
0000
0010
0000
0001
,
0000
0100
0000
0001
,
0000
1000
0000
1000
,
0000
0001
0000
0001
,
0000
0010
0000
1000
,
0000
0100
0000
1000
,
0000
0001
0000
0001
,
0000
1000
0000
1000
,
0000
0001
0000
0100
,
0000
1000
0000
0100
,
0000
0010
0000
0010
,
0000
0100
0000
0100
,
0000
1000
0000
0100
,
0000
0001
0000
0100
,
0000
0010
0000
0100
,
0000
0010
0000
0000
,
0000
0001
0000
0010
,
0000
0100
0000
1000
,
0000
0010
0000
1000
,
0000
0100
0000
1000
,
0000
0001
0000
0100
,
0000
0010
0000
1000
,
0000
0001
0000
0100
,
0000
1000
0000
0100
,
0000
0010
0000
0001
,
0000
0100
0000
0010
,
0000
0100
0000
0001
,
0000
0010
0000
0100
,
0000
1000
0000
0100
,
0000
0001
0000
0100
,
0000
0010
0000
1000
,
0000
0001
0000
0000
,
0000
1000
0000
0000
,
0000
0100
0000
0000
,
0000
0001
0000
0000
,
0000
0010
0000
0000
,
0000
1000
0000
0000
,
0000
0100
0000
0000
,
0000
0001
0000
0000
,
0000
0010
0000
0000
,
0000
1000
0000
1000
,
0000
0100
0000
0100
,
0000
0001
0000
0001
,
0000
0010
0000
0010
,
0000
1000
0000
1000
,
0000
0100
0000
0100
,
0000
0001
0000
0001
,
0000
0010
0000
0010
,
0000
1000
0000
0100
,
0000
0010
0000
0100
,
0000
1000
0000
0100
,
0000
0010
0000
0100
,
0000
1000
0000
0001
,
0000
0100
0000
0010
,
0000
1000
0000
0100
,
0000
0010
0000
0001
,
0000
0000
0000
0000
0000
0000
0000
0000
0000
0000
0000
0000
0000
0000
0000
0000
0000
0000
0000
0000
0000
0000
0000
0000
0000
0000
0000
0000
0000
0000
0000
0000
2002
3003
0000
0000
0000
0000
0000
0000
0000
0000
0000
0000
0000
0000
0000
0000
0000
0000
0000
0000
0000
0000
0000
0000
0000
0000
0000
0000
0000
0000
0000
0000
,
0000
0000
0000
0000
,
0000
0000
0000
0000
,
0001
0000
0100
0000
,
0010
0000
1000
0000
,
0100
0000
1000
0000
,
0001
0000
0100
0000
,
0001
0000
0010
0000
,
0100
0000
1000
0000
,
0001
0000
0100
0000
,
1000
0000
0100
0000
,
0010
0000
0001
0000
,
1000
0000
0001
0000
,
0100
0000
0010
0000
,
1000
0000
0100
0000
,
1000
0000
0001
0000
,
0010
0000
0100
0000
,
1000
0000
0010
0000
,
0100
0000
0010
0000
,
1000
0000
0100
0000
,
0010
0000
0001
0000
,
0100
0000
0001
0000
,
0010
0000
0001
0000
,
0100
0000
0010
0000
,
1000
0000
0001
0000
,
1000
0000
0010
0000
,
1000
0000
0100
0000
,
0001
0000
0010
0000
,
1000
0000
0100
0000
,
1000
0000
0010
0000
,
0001
0000
0100
0000
,
0010
0000
1000
0000
,
0001
0000
0010
0000
,
0100
0000
0000
0000
,
0010
0000
0000
0000
,
1000
0000
0001
0000
,
1001
0000
0000
0000
,
0000
0000
0000
0000
;
#NOTES:
     dance-single:
     :
     Easy:
     10:
     :
0000
0000
0000
0000
,
0000
0000
0000
0000
,
0000
1100
0000
0000
,
0000
0001
0000
0000
,
0000
1000
0001
0010
,
0100
1000
0000
0001
,
0000
0001
0000
1000
,
0010
0100
0000
0001
,
0010
0100
0010
0001
,
1000
0100
0000
1000
,
0000
0100
0000
0001
,
0000
0100
0010
1000
,
0000
0010
1000
0100
,
0000
0010
0001
1000
,
0100
0010
0000
0010
,
0000
0001
0000
0010
,
0000
1000
0100
0010
,
0100
1000
0001
0010
,
0000
0100
0000
0010
,
0000
0001
1000
0100
,
0000
1000
0001
0010
,
0000
0100
0000
1000
,
0010
1000
0000
0001
,
0000
0010
0001
0100
,
0000
0010
1000
0100
,
0000
1000
0010
0100
,
0001
0010
0100
0010
,
0100
1000
0000
0001
,
0000
0100
0000
0001
,
0000
1000
0000
0010
,
0100
1000
0000
0100
,
0000
0010
0000
0001
,
0000
0100
0001
0100
,
0001
1000
0010
1000
,
0010
1000
0100
1000
,
0100
0010
0001
1000
,
0000
0010
0100
0001
,
0000
0100
0000
1000
,
0010
1000
0000
0100
,
0000
0010
0000
0001
,
0000
0100
0010
1000
,
0000
0010
0000
1000
,
0100
0010
0000
0001
,
0000
1000
0000
0010
,
0000
0100
0001
0010
,
0000
0001
0000
1000
,
0100
1000
0000
0001
,
0000
0010
0000
0100
,
0000
0010
0001
1000
,
0000
0100
0000
0010
,
0001
1000
0000
0010
,
0000
0100
0000
0110
,
0000
0100
0001
0010
,
0000
1000
0000
0100
,
1000
0010
0000
0001
,
0000
1000
0000
0010
,
0000
1000
0100
0010
,
0000
0100
0000
0001
,
0100
1000
0000
0100
,
0000
0010
0000
0001
,
0010
0100
1000
0010
,
0000
0001
0000
1000
,
0100
0010
0000
0100
,
0000
0001
0000
0100
,
0000
0001
1000
0100
,
0000
0010
0000
0100
,
0000
0001
1000
0010
,
0100
0010
0000
1001
,
0000
1000
0000
1000
,
0000
0010
0000
0010
,
0000
0001
0000
0001
,
0000
0100
0000
0100
,
0000
1000
0000
1000
,
0000
0010
0000
0010
,
0000
0001
0000
0001
,
0000
0100
0000
0100
,
0000
1000
0000
0001
,
0000
1000
0000
0100
,
0000
0010
0000
0001
,
0000
0010
0000
0010
,
0000
0001
0000
0100
,
0000
0010
0000
1000
,
0000
0100
0000
1000
,
0000
0001
0001
0001
,
0001
1000
0010
0100
,
0000
0010
1000
0100
,
0000
1000
0001
0100
,
0000
0010
0100
0001
,
0000
0010
0100
1000
,
0000
0001
1000
0010
,
0000
1000
0100
0010
,
0000
0001
0100
0010
,
0100
0000
0000
0000
0000
0000
0000
0000
0000
0000
0000
0000
0000
0000
0000
0000
0000
0000
0000
0000
0000
0000
0000
0000
0000
0000
0000
0000
0000
0000
0000
0000
2002
3003
0000
0000
0000
0000
0000
0000
0000
0000
0000
0000
0000
0000
0000
0000
0000
0000
0000
0000
0000
0000
0000
0000
0000
0000
0000
0000
0000
0000
0000
0000
,
1000
0000
1000
0000
,
1000
0000
1000
0000
,
1000
0000
0001
0100
,
0010
0000
1000
0100
,
0010
0000
0001
1000
,
0100
0000
1000
0001
,
0010
0000
0100
1000
,
0010
0000
0100
0001
,
0010
0000
1000
0000
,
0001
0000
0100
0001
,
0010
0000
0100
1000
,
0001
0000
0010
0001
,
0100
0000
0010
0100
,
0010
0000
1000
0001
,
0010
0000
0001
0100
,
1000
0000
0010
0100
,
0001
1000
0100
0010
,
0001
0000
0100
1000
,
0100
0000
1000
0000
,
0010
0000
0100
0000
,
0001
0000
1000
0000
,
0100
0000
1000
0001
,
0100
0000
0010
0000
,
0100
0000
0010
1000
,
0100
0000
0010
0000
,
0100
0001
1000
0001
,
0100
0001
1000
0000
,
0010
1000
0100
0000
,
1000
0100
0010
0000
,
0001
0010
0100
0000
,
1000
0010
0100
0001
,
0010
0100
1000
0001
,
1000
0000
0001
0000
0100
0000
,
0010
0000
0100
0000
0001
0000
,
0010
0000
0100
0000
,
2002
3003
0000
0000
0000
0000
0000
0000
0000
0000
0000
0000
0000
0000
0000
0000
0000
0000
0000
0000
0000
0000
0000
0000
0000
0000
0000
0000
0000
0000
0000
0000
0000
0000
0000
0000
0000
0000
0000
0000
0000
0000
0000
0000
0000
0000
0000
0000
0000
0000
0000
0000
0000
0000
0000
0000
0000
0000
0000
0000
0000
0000
0000
0000
,
0000
0000
0000
0000
,
0000
0000
0000
0000
,
0000
0000
0000
0000
,
0000
0000
0000
0000
,
0000
0011
0000
0000
,
0000
0000
0000
0000
;
#NOTES:
     dance-single:
     :
     Medium:
     14:
     :
0000
0000
0000
0000
,
0000
0000
0000
0000
,
0000
1010
0000
0000
,
0000
0001
0000
1000
,
0100
1000
0001
0100
,
0010
1000
0000
0001
,
0010
0001
0000
1000
,
0100
0010
0001
0100
,
0001
0100
0010
0100
,
0010
1000
0000
1000
,
0001
0000
0010
0000
0000
0010
0100
0000
,
0000
0100
1000
0000
0000
1000
0001
0000
,
0000
0001
0100
0000
0000
0100
0010
0000
,
0000
0010
1000
0000
0000
1000
0100
0000
,
0010
0000
0001
0000
0000
0001
0100
0000
,
0000
0100
0001
0000
0100
0000
0001
0000
,
1000
0100
0010
0001
,
0010
1000
0010
0001
,
1000
0000
0010
0000
0000
0010
0100
0000
,
0000
0100
0001
0000
0000
0001
0010
0000
,
0000
0010
0001
0000
0000
0001
0100
0000
,
0000
0100
0010
0000
0000
0010
1000
0000
,
0100
0000
1000
0000
0000
1000
0001
0000
,
0000
0001
0100
0000
0000
0100
0010
0000
,
0000
0010
0100
0000
0000
0100
0001
0000
,
0000
0001
1000
0000
0100
0000
0010
0000
,
0001
0000
0100
0010
0100
0010
0100
0010
,
0100
0010
1000
0000
0000
1000
0001
0000
,
0000
0001
0010
0000
0000
0010
0001
0000
,
0000
0001
1000
0000
0000
1000
0100
0000
,
0000
0100
1000
0000
0000
1000
0010
0000
,
0000
0010
0100
0000
0000
0100
0001
0000
,
0000
0001
0010
0000
0001
0000
0010
0000
,
0001
1000
0100
1000
,
0100
0000
1000
0010
1000
0000
0001
0100
,
0001
0000
1000
0001
1000
0001
1000
0000
,
0010
0100
0010
1000
,
0100
0010
0001
1000
,
0100
1000
0100
0000
0000
0100
0010
0000
,
0000
0010
0001
0000
0000
0001
1000
0000
,
0000
1000
0010
0000
0100
0000
0001
0000
,
0010
0100
0010
0001
,
0100
0010
0100
0000
0000
0100
0001
0000
,
0000
0001
1000
0000
0000
1000
0100
0000
,
0000
0100
0010
0000
0001
0000
0100
0000
,
0010
0100
0001
1000
,
0010
1000
0010
0000
0000
0010
0100
0000
,
0000
0100
0001
0000
0000
0001
0010
0000
,
0000
0010
0100
0000
1000
0000
0001
0000
,
0100
0010
1000
0001
,
1000
0010
1000
0000
0000
1000
0100
0000
,
0000
0100
0010
0000
0001
0000
0010
0000
,
0000
0000
0010
0000
0000
0010
0100
0000
,
0000
0100
1000
0000
0000
1000
0010
0000
,
0000
0010
0100
0000
0000
0100
0001
0000
,
0000
0001
1000
0000
0000
1000
0100
0000
,
0000
0000
1000
0000
0000
1000
0100
0000
,
0000
0100
0010
0000
0000
0010
0001
0000
,
0000
0001
1000
0000
0000
1000
0010
0000
,
0000
0010
0100
0000
0000
0100
0001
0000
,
0100
0000
0010
0000
0000
0010
0100
0000
,
0000
0100
0001
0000
0000
0001
1000
0000
,
0000
1000
0100
0000
0000
0100
0010
0000
,
0000
0010
0001
0000
0000
0001
0010
0000
,
0000
0000
0001
0000
0000
0001
0010
0000
,
0000
0010
0100
0000
0000
0100
0010
0000
,
0000
0010
0001
0000
1000
0000
0100
0000
,
0010
0000
0100
0000
0000
0000
1000
0001
,
1000
0001
1000
0000
0000
0000
1000
0000
,
0000
0100
0000
0100
,
0000
0001
0000
0001
,
0000
0010
0000
0010
,
0000
1000
0000
1000
,
0000
0100
0000
0100
,
0000
0001
0000
0001
,
0000
0010
0000
0010
,
0000
1000
0010
1000
,
0100
1000
0001
0010
,
0100
0010
0001
1000
,
0010
0100
0001
0100
,
0001
0100
0010
1000
,
0100
0010
0100
1000
,
0001
0100
0010
1000
,
0100
1000
1000
1000
,
1000
0010
0100
0001
,
0100
0010
0100
0001
,
0100
0010
1000
0001
,
1000
0010
1000
0001
,
1000
0100
0010
0001
,
0010
0100
0010
0001
,
0010
0100
1000
0001
,
1000
0000
0100
0000
1000
0000
0001
0100
,
0001
0000
0000
0000
0000
0000
0000
0000
0100
0000
0000
0000
0000
0000
0000
0000
0000
0000
0000
0000
0000
0000
0000
0000
0000
0000
0000
0000
0000
0000
0000
0000
2002
3003
0000
0000
0000
0000
0000
0000
0000
0000
0000
0000
0000
0000
0000
0000
0000
0000
0000
0000
0000
0000
0000
0000
0000
0000
0000
0000
0000
0000
0000
0000
,
1000
0001
1000
0001
,
1000
0001
1000
0001
,
1000
0000
0000
1000
0001
0000
0000
0001
,
0100
0000
0000
0100
0010
0000
0000
0010
,
1000
0000
0000
1000
0010
0000
0000
0010
,
0100
0000
0000
0100
0001
0000
0000
0000
,
1000
0000
0000
1000
0100
0000
0000
0100
,
0010
0000
0000
0010
0001
0000
0010
0000
,
0100
0000
0000
0100
1000
0000
0000
1000
,
0001
0000
0000
0001
0010
0000
0001
0000
,
0100
0000
0000
0100
0010
0000
0000
0010
,
1000
0000
0000
1000
0001
0000
0000
0001
,
1000
0000
0000
1000
0100
0000
0010
0000
,
0100
0000
0000
0100
0010
0000
0001
0000
,
0100
0000
0000
0100
0001
0000
0000
0001
,
1000
0000
0000
1000
0100
0000
0010
0000
,
0001
0000
1000
0100
1000
0000
0001
0100
,
0001
0000
0100
0000
0010
1000
0010
1000
,
0010
0000
0000
0010
1000
0000
0000
1000
,
0100
0000
0000
0100
0010
0000
0000
0010
,
0001
0000
0000
0001
1000
0000
0000
1000
,
0010
0000
0000
0010
1000
0000
0000
0000
,
0010
0000
0000
0010
0100
0000
0000
0100
,
0010
0000
0000
0010
1000
0000
0001
0000
,
0010
0000
0000
0010
0100
0000
0000
0100
,
1000
0000
0000
1000
0100
0000
0010
0001
,
0010
0000
0000
0010
0001
0000
0000
0001
,
0100
0000
0000
0100
0010
0000
0000
0010
,
1000
0000
0000
1000
0001
0000
0000
0001
,
0100
0000
0000
0100
0010
0000
0000
0010
,
1000
0100
1000
0000
0001
0010
0001
0000
,
1000
0010
1000
0000
0001
0100
0001
0000
,
1000
0000
0001
0000
0010
0000
,
0100
0000
0010
0000
0001
0000
,
0100
0000
0010
0000
,
2002
3003
0000
0000
0000
0000
0000
0000
0000
0000
0000
0000
0000
0000
0000
0000
0000
0000
0000
0000
0000
0000
0000
0000
0000
0000
0000
0000
0000
0000
0000
0000
0000
0000
0000
0000
0000
0000
0000
0000
0000
0000
0000
0000
0000
0000
0000
0000
0000
0000
0000
0000
0000
0000
0000
0000
0000
0000
0000
0000
0000
0000
0000
0000
,
0000
0000
0000
0000
,
0000
0000
0000
0000
,
0000
0000
0000
0000
,
0000
0000
0000
0000
,
0000
0101
0000
0000
,
0000
0000
0000
0000
;
#NOTES:
     dance-single:
     :
     Hard:
     17:
     :
0000
0000
0000
0000
,
0000
0000
0000
0000
,
0000
1010
0000
0000
,
0000
0000
0001
0000
0000
0000
1000
0100
,
0010
0100
1000
0000
0001
0000
0101
0000
,
0010
0000
1010
0000
0000
0000
0001
0010
,
0100
0010
0001
0000
0000
0000
1000
0000
,
1100
0000
0010
0000
0011
0000
0100
0001
,
1000
0001
0100
0000
0010
0000
0110
0000
,
0010
0000
1010
0000
0000
0000
1000
0001
,
1000
0001
0010
0000
0000
0010
0100
0000
,
0000
0100
1000
0000
0000
1000
0001
0000
,
0000
0001
0100
0000
0000
0100
0010
0000
,
0000
0010
1000
0000
0000
1000
0100
0010
,
0001
0100
0010
0000
0000
0010
0100
0000
,
0000
0100
0101
0000
1100
0000
0101
0000
,
1100
1010
0011
1010
,
0011
0000
0100
0000
0010
0000
0001
1000
,
0010
0100
0001
0000
0000
0001
1000
0000
,
0000
1000
0100
0000
0000
0100
0010
0000
,
0000
0010
0001
0000
0000
0001
0100
0000
,
0000
0100
0010
0000
0000
0010
1000
0100
,
0010
0100
1000
0000
0000
1000
0001
0000
,
0000
0001
0100
0000
0000
0100
1000
0000
,
0000
1000
0100
0000
0000
0100
0001
0000
,
0000
0001
1000
0100
0010
0001
1000
0100
,
0010
0001
0100
0010
1000
0100
0010
0001
,
0100
0010
1000
0000
0001
0100
1000
0000
,
1000
0100
0001
0000
0001
0010
1000
0000
,
1000
0010
0001
0000
0001
1000
0100
1000
,
0001
1000
0010
0000
1000
0010
0001
0000
,
0001
0010
1000
0000
1000
0100
0001
0000
,
0001
0100
1000
0000
1000
0010
0100
0000
,
0001
1000
0100
0010
0100
0010
0100
1000
,
0100
1000
0010
1000
0100
0010
0001
0100
,
0010
1000
0001
0100
1000
0100
0001
0010
,
1000
0010
0001
0000
0010
0001
0010
0000
,
0110
0000
0010
0000
0011
0000
1000
0001
,
0100
0001
1000
0000
0000
1000
0010
0000
,
0000
0010
0100
0000
0000
0100
0001
0000
,
0000
0001
0010
0000
0100
0010
0100
0000
,
0110
0000
0001
0000
0110
0000
0001
1000
,
0010
1000
0001
0000
0000
0001
0100
0000
,
0000
0100
0010
0000
0000
0010
1000
0000
,
0000
1000
0100
0000
0010
0001
0100
0000
,
0110
0000
0100
0000
0101
0000
1000
0010
,
0100
0010
1000
0000
0000
1000
0001
0000
,
0000
0001
0100
0000
0000
0100
0010
0000
,
0000
0010
0100
0000
0001
1000
0100
0000
,
0110
0000
0001
0000
1001
0000
0100
0010
,
0001
0010
0100
0000
0000
0100
1000
0000
,
0000
1000
0010
0100
0001
0100
0001
0000
,
1000
0100
0010
0100
0000
0100
0010
0001
,
0000
0001
0100
0010
0000
0010
1000
0010
,
0000
0010
0100
0001
0000
0001
1000
0100
,
0000
0100
1000
0010
0000
0010
0100
0000
,
0001
0000
1000
0100
0000
0100
0010
0100
,
0000
0100
0010
0001
0000
0001
1000
0010
,
0000
0010
0100
0010
0000
0010
0100
0001
,
0000
0001
1000
0100
0000
0100
1000
0010
,
0100
0001
0010
0001
0000
0001
0100
0010
,
0000
0010
1000
0100
0000
0100
1000
0001
,
0000
0001
1000
0010
0000
0010
0100
0001
,
0000
0001
1000
0001
0000
0001
1000
0000
,
0100
0000
0010
0001
0000
0001
0010
0100
,
0000
0100
1000
0001
0000
0001
0100
0010
,
0000
0010
1000
0000
0100
0010
0001
0100
,
1000
0100
0001
0000
0000
0000
1000
0010
,
0100
0001
1000
0000
0000
0000
2000
0000
,
0000
3100
0000
0200
,
0000
0301
0000
0002
,
0000
0013
0000
0020
,
0000
1030
0000
2000
,
0000
3100
0000
0200
,
0000
0301
0000
0002
,
0000
0013
0000
0010
,
0000
1000
0010
1000
,
0100
1000
0001
0010
,
0100
0010
0001
1000
,
0010
0000
0100
0001
0100
1000
0100
0001
,
0100
1000
0100
0000
0010
0000
1000
0000
,
0100
0101
1100
0101
,
1100
0110
1001
0110
,
1001
0000
0010
0100
0001
0100
0010
0100
,
0001
0100
1000
0010
0200
0000
0301
0000
,
0101
0000
0010
1000
0200
0000
1300
0000
,
1001
0000
0010
0001
2000
0000
3010
0000
,
0110
0000
0001
1000
0200
0000
0310
0000
,
0011
0000
1000
0010
0200
0000
0310
1000
,
0002
0000
0013
0100
2000
0000
3001
0100
,
0020
0000
1030
0001
0100
0010
1000
0100
,
0010
0001
1000
0001
0100
1000
0100
0001
,
0010
0000
0000
0000
0000
0000
0000
0000
0100
0000
0000
0000
0000
0000
0000
0000
0000
0000
0000
0000
0000
0000
0000
0000
0000
0000
0000
0000
0000
0000
0000
0000
2002
3003
0000
0000
0000
0000
0000
0000
0000
0000
0000
0000
0000
0000
0000
0000
0000
0000
0000
0000
0000
0000
0000
0000
0000
0000
0000
0000
0000
0000
0000
0000
,
0100
0010
0100
0001
,
0010
0100
1000
0001
,
1000
0000
0001
0010
0100
0000
1000
0001
,
0100
0000
0010
1000
0001
0000
0100
0010
,
1000
0000
0001
1000
0100
0000
0010
0001
,
0100
0000
0010
1000
0001
0000
0110
0000
,
0001
1000
0000
0100
0010
0000
0001
1000
,
0001
0100
0000
0010
1000
0000
0001
0010
,
0100
0010
0000
0001
1000
0100
0000
1000
,
0001
0100
0000
0010
1000
0100
1000
0001
,
0100
0000
0010
1000
0100
0000
1000
0001
,
0010
0000
0001
1000
0100
0000
1000
0001
,
0100
0010
1000
0010
0100
0000
0001
0010
,
0100
0000
0000
0100
0010
0000
0001
0010
,
0100
0000
0000
0100
1000
0010
0000
0100
,
0001
0010
0000
0100
0010
0000
0110
0000
,
1000
0000
0001
1000
0100
0000
1000
0001
,
0010
0001
0100
0010
1000
0001
0010
0100
,
1000
0000
0001
1000
0100
0000
0001
0100
,
1000
0000
0010
0100
0010
0000
0001
0010
,
1000
0000
0001
1000
0100
0000
0010
0001
,
0100
0000
1000
0100
0001
0000
1001
0000
,
0010
0100
0000
0100
0010
0001
0000
0100
,
0001
0010
0000
0100
1000
0000
0001
1000
,
0001
0000
0000
0100
0010
1000
0000
0001
,
1000
0001
0000
1000
0100
0010
0001
0100
,
0010
1000
0000
0001
1000
0010
0000
0100
,
0001
1000
0000
0100
1000
0001
0000
0010
,
0001
1000
0000
0010
0100
0001
0000
1000
,
0100
0010
0000
0001
1000
0010
0000
0100
,
0001
0010
0001
0100
0010
1000
0100
0001
,
0100
1000
0010
0100
0010
1000
0100
0010
,
0011
0000
1100
0000
0101
0000
,
0110
0000
0101
0000
1100
0000
,
0010
0000
0100
0000
,
2002
3003
0000
0000
0000
0000
0000
0000
0000
0000
0000
0000
0000
0000
0000
0000
0000
0000
0000
0000
0000
0000
0000
0000
0000
0000
0000
0000
0000
0000
0000
0000
0000
0000
0000
0000
0000
0000
0000
0000
0000
0000
0000
0000
0000
0000
0000
0000
0000
0000
0000
0000
0000
0000
0000
0000
0000
0000
0000
0000
0000
0000
0000
0000
,
0000
0000
0000
0000
,
0000
0000
0000
0000
,
0000
0000
0000
0000
,
0000
0000
0000
0000
,
0000
1010
0000
0000
,
0000
0000
0000
0000
;
#NOTES:
     dance-single:
     :
     Challenge:
     18:
     :
0000
0000
0000
0000
,
0000
0000
0000
0000
,
0000
0011
0000
0000
,
0000
0000
1000
0000
0000
0000
0001
0100
,
1000
0100
0001
0000
1100
0000
0110
0000
,
0011
0000
1001
0000
0000
0000
1000
0010
,
0001
0010
1000
0000
0000
0000
0101
0000
,
0110
0000
1010
0000
1100
0000
0100
1000
,
0100
0001
0010
0000
0110
0000
1100
0000
,
1001
0000
0101
0000
0000
0000
0001
0010
,
1000
0010
0001
0000
0100
0010
0100
0000
,
0010
0100
0001
0000
1000
0001
1000
0000
,
0001
1000
0100
0000
0010
0100
0010
0000
,
0100
0010
0001
0000
1000
0001
0100
1000
,
0100
0001
0010
0000
0100
0010
0100
0000
,
0010
0100
1100
0000
0101
0000
1100
0000
,
0101
0011
1010
0011
,
1010
0000
0100
0001
0010
1000
0010
0001
,
0100
1000
0100
0000
0001
1000
0001
0000
,
1000
0001
0100
0000
0010
0100
0010
0000
,
0100
0010
1000
0000
0001
1000
0100
0000
,
0010
0100
0010
0000
0100
0010
0001
0100
,
1000
0100
0001
0000
1000
0001
1000
0000
,
0010
1000
0100
0000
0010
0100
0001
0000
,
0100
1000
0001
0000
0100
0010
0100
0000
,
0010
1000
0001
0100
0010
1000
0001
0100
,
0010
1000
0100
0010
0001
0010
1000
0010
,
0001
0010
0100
0000
1000
0010
0100
0000
,
0001
0010
0100
0000
1000
0100
0010
0000
,
0001
0010
0100
0000
1000
0001
0010
1000
,
0010
0001
0100
0000
0001
1000
0010
0000
,
1000
0001
0100
0000
0010
0100
0001
1000
,
0100
0010
0100
0000
0001
0100
1000
0000
,
0001
0100
0010
0100
0010
0100
0001
1000
,
0001
1000
0001
0010
0100
1000
0001
0100
,
0010
1000
0001
0100
1000
0100
0001
0010
,
1000
0010
0001
0000
1000
0100
1000
0000
,
1100
0000
1010
0000
1100
0000
0001
1000
,
0100
1000
0001
0000
0000
0001
0010
0000
,
0000
0010
0100
0000
0000
0100
1000
0000
,
0000
1000
0010
0000
0100
0010
0100
0000
,
0110
0000
1001
0000
0110
0000
1000
0001
,
0010
0001
1000
0000
0000
1000
0100
0000
,
0000
0100
0010
0000
0000
0010
0001
0100
,
1000
0100
0010
0000
1000
0001
1000
0000
,
1001
0000
0110
0000
1001
0000
0001
0010
,
1000
0010
0001
0000
0000
0001
1000
0000
,
0000
1000
0100
0000
0000
0100
0010
0000
,
0000
0010
0100
0000
1000
0001
0100
0000
,
0101
0000
1100
0000
0101
0000
1000
0010
,
0001
0010
1000
0000
0010
0100
0001
0000
,
1000
0001
0010
0100
1000
0100
1000
0000
,
0001
0100
0020
0100
0030
0100
0020
1000
,
0030
1000
0200
0010
0300
0010
0002
1000
,
0003
1000
0002
0100
0003
0100
2000
0100
,
3000
0100
0002
0010
0003
0010
0100
0000
,
1100
0000
0002
0100
0003
0100
0020
1000
,
0030
1000
0002
0010
0003
0010
2000
0010
,
3000
0010
0002
0100
0003
0100
0020
1000
,
0030
1000
0002
0100
0003
0100
0001
0010
,
1000
0001
0200
1000
0300
1000
0200
0010
,
0300
0010
0002
0100
0003
0100
0002
1000
,
0003
1000
0002
0010
0003
0010
0200
1000
,
0300
1000
0020
1000
0030
1000
0001
0000
,
0101
0000
0020
1000
0030
1000
0020
0100
,
0030
0100
0002
1000
0003
1000
0200
0010
,
0300
0010
0001
0000
0100
0010
1000
0100
,
0001
1000
0010
0000
0000
0000
0001
0010
,
0100
1000
0001
0000
0000
0000
0002
0000
,
0000
0103
0000
0200
,
0000
1300
0000
2000
,
0000
3010
0000
0020
,
0000
0031
0000
0002
,
0000
0103
0000
0200
,
0000
1300
0000
2000
,
0000
3010
0000
0010
,
0000
0001
0011
0001
,
0101
1000
1010
1000
,
1100
0010
0110
0100
,
0110
0000
0100
1000
0100
0001
0100
1000
,
0100
0001
0100
0000
1001
0000
0100
0000
,
1001
0110
1001
0110
,
1001
1010
0011
1010
,
0011
0000
0001
0100
1000
0100
0001
0100
,
1000
0100
0001
0010
0100
0000
0110
0000
,
1100
0000
0010
0001
0100
0000
0110
0000
,
1001
0000
0010
1000
0001
0000
0011
0000
,
0110
0000
1000
0001
0100
0000
0110
0000
,
1010
0000
0001
0010
0200
0000
0310
0001
,
2000
0000
3010
0100
0002
0000
1003
0100
,
0020
0000
0031
1000
0100
0010
0001
0100
,
1000
0001
0010
1000
0001
0100
0010
1000
,
0100
0000
0000
0000
0000
0000
0000
0000
0001
0000
0000
0000
0000
0000
0000
0000
0000
0000
0000
0000
0000
0000
0000
0000
0000
0000
0000
0000
0000
0000
0000
0000
2002
3003
0000
0000
0000
0000
0000
0000
0000
0000
0000
0000
0000
0000
0000
0000
0000
0000
0000
0000
0000
0000
0000
0000
0000
0000
0000
0000
0000
0000
0000
0000
,
0100
0010
0001
1000
,
0010
0001
1000
0100
,
0001
0000
1000
0001
0100
0000
0001
1000
,
0100
0000
0010
0001
0100
0000
1000
0100
,
0001
0000
0010
0001
0010
0000
0100
1000
,
0100
0000
1000
0001
0100
0000
0001
0000
,
1000
0001
0000
0100
0010
0000
0001
0010
,
1000
0100
0000
0010
0001
0000
1000
0010
,
0100
0010
0000
1000
0001
0100
0000
0001
,
1000
0100
0000
0010
0001
1000
0100
0001
,
0100
0000
0010
0100
0010
0000
0100
0010
,
0001
0000
1000
0001
1000
0000
0010
1000
,
0100
0001
0100
1000
0010
0000
1000
0001
,
0100
0000
0010
0100
0010
0000
1000
0010
,
0100
0000
1000
0100
0001
0010
0000
0100
,
1000
0010
0000
0100
0010
0000
0100
0000
,
0001
0000
1000
0001
0100
0000
0001
1000
,
0010
0001
0010
1000
0100
0001
0100
1000
,
0001
0000
0010
0001
1000
0000
0010
1000
,
0100
0000
0001
0100
1000
0000
0001
1000
,
0100
0000
1000
0010
0001
0000
0010
1000
,
0010
0000
0100
0010
0001
0010
0100
0001
,
1000
0100
0000
0100
0010
0001
0000
0001
,
0100
0010
0000
0100
0001
0000
1000
0100
,
0010
0100
0000
0100
0010
0001
0000
0001
,
1000
0001
0000
0001
0100
0010
1000
0100
,
0020
0001
0030
0001
2000
0010
3000
0010
,
0200
0001
0300
0001
2000
0100
3000
0100
,
0020
0001
0030
0001
0200
1000
0300
1000
,
0200
0001
0300
0001
0020
0100
0030
0100
,
1000
0010
1000
0100
0010
0001
0100
1000
,
0100
0001
0010
1000
0010
0001
0100
0010
,
1010
0000
0101
0000
1100
0000
,
0110
0000
1100
0000
0101
0000
,
0010
0000
0100
0000
,
2002
3003
0000
0000
0000
0000
0000
0000
0000
0000
0000
0000
0000
0000
0000
0000
0000
0000
0000
0000
0000
0000
0000
0000
0000
0000
0000
0000
0000
0000
0000
0000
0000
0000
0000
0000
0000
0000
0000
0000
0000
0000
0000
0000
0000
0000
0000
0000
0000
0000
0000
0000
0000
0000
0000
0000
0000
0000
0000
0000
0000
0000
0000
0000
,
0000
0000
0000
0000
,
0000
0000
0000
0000
,
0000
0000
0000
0000
,
0000
0000
0000
0000
,
0000
1100
0000
0000
,
0000
0000
0000
0000
;
#NOTES:
     dance-double:
     :
     Easy:
     10:
     :
00000000
00000000
00000000
00000000
,
00000000
00000000
00000000
00000000
,
00000000
10100000
00000000
00000000
,
00000000
00010000
00000000
00000000
,
00000000
10000000
00010000
01000000
,
00001000
00010000
00000000
00001000
,
00000000
00000100
00000000
00000001
,
00001000
00000100
00000000
00000010
,
00000000
00000001
00000100
00000010
,
00010000
00001000
00000000
01000000
,
00000000
00100000
00000000
01000000
,
00000000
10000000
00000000
00010000
,
00000000
01000000
00000000
00100000
,
00000000
10000000
00000000
01000000
,
00010000
00001000
00000000
00000010
,
00000000
00000001
00000000
00000100
,
00000000
00000010
00010000
00000010
,
00010000
00001000
00010000
00001000
,
00010000
00100000
00000000
01000000
,
00000000
10000000
00000000
00100000
,
00000000
00010000
00000000
00001000
,
00000000
00000100
00000000
00000001
,
00001000
00000100
00000000
00000010
,
00000000
00001000
00000000
00010000
,
00000000
01000000
00000000
10000000
,
00000000
00010000
01000000
00100000
,
10000000
01000000
00100000
01000000
,
00100000
00010000
00000000
00001000
,
00000000
00000100
00000000
00000010
,
00000000
00000001
00000000
00001000
,
00000010
00000100
00000000
00000010
,
00000000
00001000
00000000
00010000
,
00000000
01000000
00100000
01000000
,
00100000
10000000
01000000
10000000
,
01000000
10000000
00010000
00100000
,
00001000
00010000
00000010
00001000
,
00000000
00000001
00000010
00000100
,
00000000
00000010
00000000
00001000
,
00010000
00001000
00000000
00100000
,
00000000
01000000
00000000
10000000
,
00000000
00100000
01000000
00010000
,
00000000
01000000
00000000
00100000
,
10000000
01000000
00000000
00010000
,
00000000
00001000
00000000
00000010
,
00000000
00000001
00001000
00000001
,
00000000
00000100
00000000
00000010
,
00001000
00000100
00000000
00010000
,
00000000
00001000
00000000
00100000
,
00000000
01000000
10000000
00010000
,
00000000
01000000
00000000
00100000
,
01000000
00100000
00000000
10000000
,
00000000
00010000
00000000
10010000
,
00000000
00100000
00001000
00010000
,
00000000
00000010
00001000
00000100
,
00000000
00001000
00000001
00000100
,
00000000
00000010
00001000
00000001
,
00000000
00001000
00000100
00010000
,
00000000
00001000
00100000
01000000
,
00000000
10000000
00010000
00100000
,
00000000
01000000
10000000
00010000
,
00000000
10000000
01000000
00010000
,
00000000
00001000
00000100
00000001
,
00000000
00001000
00000010
00000100
,
00000000
00000010
00001000
00000001
,
00000000
00000100
00000010
00000100
,
00000000
00001000
00010000
00100000
,
00000000
10000000
00010000
00100000
,
01000000
00100000
00000000
10010000
,
00000000
10000000
00000000
10000000
,
00000000
01000000
00000000
01000000
,
00000000
00010000
00000000
00010000
,
00000000
00001000
00000000
00001000
,
00000000
00000010
00000000
00000010
,
00000000
00000001
00000000
00000001
,
00000000
00000100
00000000
00000100
,
00000000
00001000
00000000
00001000
,
00000000
00010000
00000000
00001000
,
00000000
00100000
00000000
00010000
,
00000000
01000000
00000000
00010000
,
00000000
10000000
00000000
01000000
,
00000000
00010000
00000000
00001000
,
00000000
00000100
00000000
00000001
,
00000000
00001000
00000000
00000010
,
00000000
00000100
00000100
00000100
,
00000100
00000010
00010000
00001000
,
00000000
01000000
00010000
00100000
,
00000000
01000000
10000000
00010000
,
00000000
01000000
00001000
00010000
,
00000000
00000100
00001000
00000001
,
00000000
00000100
00000010
00001000
,
00000000
00000001
00000010
00000100
,
00000000
00010000
00001000
00100000
,
00010000
00000000
00000000
00000000
00000000
00000000
00000000
00000000
00000000
00000000
00000000
00000000
00000000
00000000
00000000
00000000
00000000
00000000
00000000
00000000
00000000
00000000
00000000
00000000
00000000
00000000
00000000
00000000
00000000
00000000
00000000
00000000
20020000
30030000
00000000
00000000
00000000
00000000
00000000
00000000
00000000
00000000
00000000
00000000
00000000
00000000
00000000
00000000
00000000
00000000
00000000
00000000
00000000
00000000
00000000
00000000
00000000
00000000
00000000
00000000
00000000
00000000
00000000
00000000
,
10000000
00000000
10000000
00000000
,
10000000
00000000
10000000
00000000
,
10000000
00000000
00010000
00000000
,
01000000
00000000
00100000
00000000
,
10000000
00000000
01000000
00000000
,
00010000
00001000
00010000
00000100
,
00000010
00000000
00000001
00000000
,
00001000
00000000
00000010
00000100
,
00000001
00000000
00001000
00000000
,
00000100
00000000
00000010
00001000
,
00010000
00000000
01000000
00000000
,
00100000
00000000
00010000
00000000
,
10000000
00000000
00100000
10000000
,
01000000
00000000
00100000
00010000
,
01000000
00000000
00001000
00000000
,
00010000
00000000
00000100
00001000
,
00000001
00000100
00000010
00001000
,
00000100
00000000
00010000
00001000
,
00010000
00000000
01000000
00000000
,
00100000
00000000
00010000
00000000
,
10000000
00000000
00100000
00000000
,
00010000
00000000
00001000
00000100
,
00000010
00000000
00001000
00000000
,
00000100
00000000
00000010
00000001
,
00000100
00000000
00001000
00000000
,
00010000
00000000
00100000
01000000
,
00100000
10000000
01000000
00000000
,
00100000
00010000
01000000
00000000
,
00001000
00010000
00000010
00000000
,
00001000
00000100
00000010
00000000
,
00000001
00000100
00000010
00000100
,
00001000
00010000
00100000
01000000
,
00100000
00000000
10000000
00000000
01000000
00000000
,
00100000
00000000
00010000
00000000
01000000
00000000
,
00001000
00000000
00010000
00000000
,
00022000
00033000
00000000
00000000
00000000
00000000
00000000
00000000
00000000
00000000
00000000
00000000
00000000
00000000
00000000
00000000
00000000
00000000
00000000
00000000
00000000
00000000
00000000
00000000
00000000
00000000
00000000
00000000
00000000
00000000
00000000
00000000
00000000
00000000
00000000
00000000
00000000
00000000
00000000
00000000
00000000
00000000
00000000
00000000
00000000
00000000
00000000
00000000
00000000
00000000
00000000
00000000
00000000
00000000
00000000
00000000
00000000
00000000
00000000
00000000
00000000
00000000
00000000
00000000
,
00000000
00000000
00000000
00000000
,
00000000
00000000
00000000
00000000
,
00000000
00000000
00000000
00000000
,
00000000
00000000
00000000
00000000
,
00000000
00000011
00000000
00000000
,
00000000
00000000
00000000
00000000
;
#NOTES:
     dance-double:
     :
     Medium:
     14:
     :
00000000
00000000
00000000
00000000
,
00000000
00000000
00000000
00000000
,
00000000
00001100
00000000
00000000
,
00000000
00000001
00000000
00001000
,
00000010
00010000
00001000
00100000
,
01000000
10000000
00000000
00010000
,
01000000
00010000
00000000
10000000
,
01000000
00010000
00001000
00000010
,
00000001
00000010
00000100
00010000
,
00001000
00010000
00000000
01000000
,
10000000
00000000
00010000
00000000
00000000
00010000
01000000
00000000
,
00000000
01000000
00100000
00000000
00000000
00100000
00010000
00000000
,
00000000
00010000
00001000
00000000
00000000
00001000
00000100
00000000
,
00000000
00000100
00001000
00000000
00000000
00001000
00010000
00000000
,
00000100
00000000
00000010
00000000
00000000
00000010
00000001
00000000
,
00000000
00000001
00001000
00000000
00000010
00000000
00000100
00000000
,
00001000
00010000
00100000
10000000
,
01000000
00100000
00001000
00010000
,
00000100
00000000
00001000
00000000
00000000
00000001
00001000
00000000
,
00000000
00001000
00000100
00000000
00000000
00000100
00000010
00000000
,
00000000
00000010
00001000
00000000
00000000
00001000
00010000
00000000
,
00000000
00010000
01000000
00000000
00000000
01000000
10000000
00000000
,
00010000
00000000
01000000
00000000
00000000
01000000
00001000
00000000
,
00000000
00001000
00010000
00000000
00000000
00010000
00000100
00000000
,
00000000
00000100
00000010
00000000
00000000
00000010
00000001
00000000
,
00000000
00000001
00001000
00000000
00000010
00000000
00000100
00000000
,
00000001
00000000
00000010
00000100
00000010
00000100
00000010
00000100
,
00000010
00000100
00010000
00000000
00000000
00010000
00001000
00000000
,
00000000
00001000
01000000
00000000
00000000
01000000
00010000
00000000
,
00000000
00010000
10000000
00000000
00000000
10000000
00100000
00000000
,
00000000
00100000
01000000
00000000
00000000
01000000
00001000
00000000
,
00000000
00001000
00010000
00000000
00000000
00010000
00000010
00000000
,
00000000
00000010
00000100
00000000
00000001
00000000
00000100
00000000
,
00000001
00001000
00000100
00001000
,
00000100
00000000
00010000
00001000
00010000
00000000
01000000
00100000
,
01000000
00000000
10000000
00010000
10000000
00010000
10000000
00000000
,
00100000
01000000
00100000
10000000
,
01000000
00010000
00001000
00000010
,
00000100
00000000
00001000
00000000
00000000
00001000
00000100
00000000
,
00000000
00000100
00000010
00000000
00000000
00000010
00000001
00000000
,
00000000
00000001
00000100
00000000
00000010
00000000
00010000
00000000
,
00001000
00100000
01000000
10000000
,
00010000
00000000
01000000
00000000
00000000
01000000
00001000
00000000
,
00000000
00001000
00100000
00000000
00000000
00100000
01000000
00000000
,
00000000
01000000
00010000
00000000
00001000
00000000
00000100
00000000
,
00000001
00000010
00000001
00001000
,
00000100
00000000
00010000
00000000
00000000
00010000
00001000
00000000
,
00000000
00001000
00100000
00000000
00000000
00100000
01000000
00000000
,
00000000
01000000
00100000
00000000
00010000
00000000
10000000
00000000
,
00100000
01000000
00010000
10000000
,
01000000
00000000
00010000
00000000
00000000
00010000
00001000
00000000
,
00000000
00001000
00000010
00000000
00000001
00000000
00001000
00000000
,
00000000
00000000
00000001
00000000
00000000
00000001
00000010
00000000
,
00000000
00000010
00001000
00000000
00000000
00001000
00010000
00000000
,
00000000
00010000
01000000
00000000
00000000
01000000
10000000
00000000
,
00000000
10000000
00100000
00000000
00000000
00100000
00010000
00000000
,
00000000
00000000
00001000
00000000
00000000
00001000
00000100
00000000
,
00000000
00000100
00000001
00000000
00000000
00000001
00001000
00000000
,
00000000
00001000
00010000
00000000
00000000
00010000
10000000
00000000
,
00000000
10000000
01000000
00000000
00000000
01000000
00100000
00000000
,
00010000
00000000
01000000
00000000
00000000
01000000
00100000
00000000
,
00000000
00100000
00010000
00000000
00000000
00010000
00001000
00000000
,
00000000
00001000
00000100
00000000
00000000
00000100
00000001
00000000
,
00000000
00000001
00001000
00000000
00000000
00001000
00000100
00000000
,
00000000
00000000
00000001
00000000
00000000
00000001
00000100
00000000
,
00000000
00000100
00000010
00000000
00000000
00000010
00000100
00000000
,
00000000
00000100
00010000
00000000
00001000
00000000
00100000
00000000
,
00010000
00000000
01000000
00000000
00000000
00000000
00100000
01000000
,
00100000
01000000
00100000
00000000
00000000
00000000
00100000
00000000
,
00000000
10000000
00000000
10000000
,
00000000
01000000
00000000
01000000
,
00000000
00010000
00000000
00010000
,
00000000
00001000
00000000
00001000
,
00000000
00000010
00000000
00000010
,
00000000
00000001
00000000
00000001
,
00000000
00000100
00000000
00000100
,
00000000
00000010
00001000
00000100
,
00001000
00000010
00001000
00010000
,
01000000
00100000
10000000
00010000
,
00100000
01000000
10000000
00100000
,
01000000
00100000
10000000
01000000
,
00010000
00001000
00000100
00000001
,
00000010
00000100
00000010
00000001
,
00000100
00000010
00000010
00000010
,
00000010
00010000
00001000
00100000
,
00010000
10000000
01000000
10000000
,
00010000
01000000
00100000
00010000
,
00001000
00000100
00000010
00001000
,
00000001
00000010
00000100
00010000
,
00001000
00100000
00010000
01000000
,
00100000
10000000
00010000
01000000
,
00001000
00000000
00010000
00000000
00000010
00000000
00000100
00000010
,
00000100
00000000
00000000
00000000
00000000
00000000
00000000
00000000
00000010
00000000
00000000
00000000
00000000
00000000
00000000
00000000
00000000
00000000
00000000
00000000
00000000
00000000
00000000
00000000
00000000
00000000
00000000
00000000
00000000
00000000
00000000
00000000
00002002
00003003
00000000
00000000
00000000
00000000
00000000
00000000
00000000
00000000
00000000
00000000
00000000
00000000
00000000
00000000
00000000
00000000
00000000
00000000
00000000
00000000
00000000
00000000
00000000
00000000
00000000
00000000
00000000
00000000
00000000
00000000
,
00001000
00000001
00001000
00000001
,
00001000
00000001
00001000
00000001
,
00001000
00000000
00000000
00001000
00000001
00000000
00000000
00000001
,
00000010
00000000
00000000
00000010
00001000
00000000
00000000
00001000
,
00010000
00000000
00000000
00010000
01000000
00000000
00000000
01000000
,
10000000
00000000
00000000
10000000
00010000
00000000
00000000
00000000
,
00100000
00000000
00000000
00100000
00001000
00000000
00000000
00001000
,
00000100
00000000
00000000
00000100
00000001
00000000
00000100
00000000
,
00000010
00000000
00000000
00000010
00001000
00000000
00000000
00001000
,
00000100
00000000
00000000
00000100
00000010
00000000
00000100
00000000
,
00010000
00000000
00000000
00010000
00001000
00000000
00000000
00001000
,
01000000
00000000
00000000
01000000
00100000
00000000
00000000
00100000
,
10000000
00000000
00000000
10000000
01000000
00000000
00010000
00000000
,
00001000
00000000
00000000
00001000
00000010
00000000
00000100
00000000
,
00000010
00000000
00000000
00000010
00000001
00000000
00000000
00000001
,
00001000
00000000
00000000
00001000
00000010
00000000
00000100
00000000
,
00001000
00000000
00010000
00001000
00010000
00000000
00000010
00000100
,
00000010
00001000
00010000
01000000
,
00100000
00000000
00000000
00100000
10000000
00000000
00000000
10000000
,
01000000
00000000
00000000
01000000
00010000
00000000
00000000
00010000
,
00000100
00000000
00000000
00000100
00000010
00000000
00000000
00000010
,
00000001
00000000
00000000
00000001
00000100
00000000
00000000
00000000
,
00000010
00000000
00000000
00000010
00010000
00000000
00000000
00010000
,
00001000
00000000
00000000
00001000
00100000
00000000
00010000
00000000
,
01000000
00000000
00000000
01000000
00001000
00000000
00000000
00001000
,
00010000
00000000
00000000
00010000
00000010
00000000
00000100
00000001
,
00000100
00000000
00000000
00000100
00000001
00000000
00000000
00000001
,
00000010
00000000
00000000
00000010
00001000
00000000
00000000
00001000
,
00010000
00000000
00000000
00010000
00100000
00000000
00000000
00100000
,
10000000
00000000
00000000
10000000
01000000
00000000
00000000
01000000
,
00100000
00010000
00100000
00000000
00001000
00000000
00010000
00001000
,
00010000
00000000
00000010
00000000
00000100
00000010
00000100
00000000
,
00000001
00000000
00001000
00000000
00000100
00000000
,
00010000
00000000
00001000
00000000
01000000
00000000
,
00100000
00000000
01000000
00000000
,
20020000
30030000
00000000
00000000
00000000
00000000
00000000
00000000
00000000
00000000
00000000
00000000
00000000
00000000
00000000
00000000
00000000
00000000
00000000
00000000
00000000
00000000
00000000
00000000
00000000
00000000
00000000
00000000
00000000
00000000
00000000
00000000
00000000
00000000
00000000
00000000
00000000
00000000
00000000
00000000
00000000
00000000
00000000
00000000
00000000
00000000
00000000
00000000
00000000
00000000
00000000
00000000
00000000
00000000
00000000
00000000
00000000
00000000
00000000
00000000
00000000
00000000
00000000
00000000
,
00000000
00000000
00000000
00000000
,
00000000
00000000
00000000
00000000
,
00000000
00000000
00000000
00000000
,
00000000
00000000
00000000
00000000
,
00000000
01010000
00000000
00000000
,
00000000
00000000
00000000
00000000
;
#NOTES:
     dance-double:
     :
     Hard:
     17:
     :
00000000
00000000
00000000
00000000
,
00000000
00000000
00000000
00000000
,
00000000
01010000
00000000
00000000
,
00000000
00000000
00010000
00000000
00000000
00000000
10000000
01000000
,
00100000
01000000
10000000
00000000
01000000
00000000
00100000
00000000
,
00001000
00000000
00011000
00000000
00000000
00000000
00000010
00000100
,
00000001
00000100
00000010
00000000
00000000
00000000
00001000
00000000
,
00000100
00000000
00000010
00000000
00000001
00000000
00000100
00000010
,
00000001
00000010
00000100
00000000
00001000
00000000
00010000
00000000
,
00100000
00000000
01100000
00000000
00000000
00000000
10000000
00010000
,
10000000
00010000
00100000
00000000
00000000
00100000
01000000
00000000
,
00000000
01000000
10000000
00000000
00000000
10000000
00010000
00000000
,
00000000
00010000
01000000
00000000
00000000
01000000
00001000
00000000
,
00000000
00001000
00010000
00000000
00000000
00010000
00000010
00001000
,
00000100
00000010
00000001
00000000
00000000
00000001
00000100
00000000
,
00000000
00000100
00001000
00000000
00011000
00000000
00100000
00000000
,
01100000
01000000
11000000
01000000
,
00110000
00000000
00001000
00000000
00011000
00000000
00000100
00000010
,
00000001
00001000
00000010
00000000
00000000
00000010
00000100
00000000
,
00000000
00000100
00000001
00000000
00000000
00000001
00000010
00000000
,
00000000
00000010
00001000
00000000
00000000
00001000
00100000
00000000
,
00000000
00100000
00010000
00000000
00000000
00010000
10000000
01000000
,
00100000
01000000
10000000
00000000
00000000
10000000
00010000
00000000
,
00000000
00010000
01000000
00000000
00000000
01000000
10000000
00000000
,
00000000
10000000
01000000
00000000
00000000
01000000
00001000
00000000
,
00000000
00001000
00100000
00001000
01000000
00010000
00100000
00001000
,
01000000
00010000
00100000
00001000
00010000
00000010
00001000
00000001
,
00000010
00000100
00001000
00000000
00000010
00001000
00000010
00000000
,
00000100
00000001
00000100
00000000
00000001
00000010
00000001
00000000
,
00001000
00000100
00001000
00000000
00000010
00010000
00001000
00000000
,
00100000
00010000
10000000
00000000
00010000
01000000
00100000
00000000
,
01000000
00010000
10000000
00000000
01000000
00100000
00010000
00000000
,
01000000
00001000
00010000
00000000
00000010
00001000
00000001
00000000
,
00000010
00000100
00001000
00000000
00000101
00000000
00001100
00000000
,
00000101
00000000
00000001
00000100
00000010
00001000
00000100
00000010
,
00000001
00000100
00001000
00010000
00100000
01000000
00010000
10000000
,
01000000
10000000
00010000
00000000
00100000
01000000
00100000
00000000
,
11000000
00000000
00100000
00000000
00010000
00000000
10000000
01000000
,
00010000
00001000
00010000
00000000
00000000
00010000
00000010
00000000
,
00000000
00000010
00001000
00000000
00000000
00001000
00000001
00000000
,
00000000
00000001
00000010
00000000
00000100
00000010
00000100
00000000
,
00001100
00000000
00000001
00000000
00000100
00000000
00000010
00001000
,
00010000
01000000
00010000
00000000
00000000
00010000
01000000
00000000
,
00000000
01000000
00100000
00000000
00000000
00100000
10000000
00000000
,
00000000
10000000
01000000
00000000
00100000
00010000
01000000
00000000
,
01100000
00000000
00010000
00000000
00001000
00000000
00010000
00000100
,
00001000
00000001
00000010
00000000
00000000
00000010
00000100
00000000
,
00000000
00000100
00001000
00000000
00000000
00001000
00000010
00000000
,
00000000
00000010
00000100
00000000
00000001
00001000
00000100
00000000
,
00000110
00000000
00001000
00000000
00010000
00000000
00001000
00010000
,
01000000
10000000
01000000
00000000
00000000
01000000
10000000
00000000
,
00000000
10000000
00100000
01000000
00010000
01000000
00010000
00000000
,
10000000
00000000
00010000
01000000
00000000
01000000
00100000
01000000
,
00000000
01000000
00001000
00010000
00000000
00010000
00001000
00000100
,
00000000
00000100
00000001
00000010
00000000
00000010
00000100
00001000
,
00000000
00001000
00000001
00000100
00000000
00000100
00000001
00000000
,
00000010
00000000
00000100
00000010
00000000
00000010
00001000
00010000
,
00000000
00010000
01000000
10000000
00000000
10000000
00010000
00100000
,
00000000
00100000
00010000
01000000
00000000
01000000
00100000
00010000
,
00000000
00010000
00001000
00010000
00000000
00010000
00000100
00000010
,
00000001
00000100
00000010
00000100
00000000
00000100
00000001
00001000
,
00000000
00001000
00000001
00000010
00000000
00000010
00001000
00010000
,
00000000
00010000
00001000
00100000
00000000
00100000
01000000
10000000
,
00000000
10000000
00010000
01000000
00000000
01000000
00100000
00000000
,
10000000
00000000
01000000
00100000
00000000
00100000
00010000
01000000
,
00000000
01000000
00001000
00010000
00000000
00010000
00000100
00001000
,
00000000
00001000
00000001
00000000
00000010
00000001
00000100
00000010
,
00001000
00000100
00000010
00000000
00000000
00000000
00000001
00001000
,
00000100
00000010
00000001
00000000
00000000
00000000
00000001
00000000
,
00000000
00000100
00000000
00000100
,
00000000
00001000
00000000
00001000
,
00000000
00010000
00000000
00010000
,
00000000
01000000
00000000
01000000
,
00000000
10000000
00000000
10000000
,
00000000
00100000
00000000
00100000
,
00000000
00010000
00000000
00010000
,
00000000
00000010
00001000
00000001
,
00000100
00000010
00000100
00001000
,
00010000
00100000
10000000
01000000
,
00100000
00000000
00010000
01000000
10000000
01000000
00010000
01000000
,
10000000
01000000
00100000
00000000
10000000
00000000
01000000
00000000
,
00010000
00011000
00001010
00000011
,
00000101
00000110
00001001
00000110
,
00001001
00000000
00000010
00010000
00001000
00100000
00010000
01000000
,
00100000
10000000
00010000
01000000
00010000
00000000
10000000
00000000
,
10010000
00000000
00100000
00010000
00100000
00000000
01000000
00000000
,
11000000
00000000
00010000
01000000
00010000
00000000
10000000
00000000
,
01100000
00000000
00100000
00001000
00100000
00000000
00001000
00000000
,
00011000
00000000
00000100
00001000
00000010
00000000
00000100
00000001
,
00001000
00000000
00000100
00010000
00001000
00000000
00100000
00010000
,
01000000
00000000
00100000
01000000
00100000
10000000
01000000
00100000
,
00010000
00001000
00000100
00000010
00000001
00001000
00000010
00000100
,
00000001
00000000
00000000
00000000
00000000
00000000
00000000
00000000
00000010
00000000
00000000
00000000
00000000
00000000
00000000
00000000
00000000
00000000
00000000
00000000
00000000
00000000
00000000
00000000
00000000
00000000
00000000
00000000
00000000
00000000
00000000
00000000
00002002
00003003
00000000
00000000
00000000
00000000
00000000
00000000
00000000
00000000
00000000
00000000
00000000
00000000
00000000
00000000
00000000
00000000
00000000
00000000
00000000
00000000
00000000
00000000
00000000
00000000
00000000
00000000
00000000
00000000
00000000
00000000
,
00000001
00000100
00000010
00010000
,
00001000
00100000
00010000
10000000
,
01000000
00000000
00000000
01000000
00010000
00000000
00000000
00010000
,
00001000
00000000
00000000
00001000
00000010
00000000
00000000
00000010
,
00001000
00000000
00000000
00001000
00100000
00000000
00000000
00100000
,
01000000
00000000
00000000
01000000
10000000
00000000
00000000
00000000
,
00010000
10000000
00000000
10000000
01000000
00000000
00100000
00001000
,
01000000
00010000
00000000
00010000
01000000
00000000
00001000
00010000
,
00000010
00001000
00000000
00001000
00000100
00000010
00000000
00000010
,
00000001
00000100
00000000
00000100
00000010
00001000
00010000
01000000
,
00010000
00000000
00000000
00010000
10000000
00000000
00000000
10000000
,
01000000
00000000
00000000
01000000
00100000
00000000
00000000
00100000
,
00001000
01000000
00010000
00100000
01000000
00000000
10000000
00010000
,
01000000
00000000
00000000
01000000
00100000
00000000
10000000
00000000
,
00010000
00000000
00000000
10000000
01000000
00010000
00000000
00001000
,
00000010
00000001
00000000
00000001
00001000
00000000
00000010
00000000
,
00000100
00000000
00000001
00001000
00000100
00000000
00000010
00000100
,
00010000
00001000
00100000
00010000
01000000
10000000
01000000
00100000
,
01000000
00000000
00000000
01000000
00010000
00000000
00000000
00010000
,
10000000
00000000
00000000
10000000
01000000
00000000
00000000
01000000
,
00010000
00000000
00000000
00010000
00000100
00000000
00000000
00000100
,
00000010
00000000
00000000
00000010
00000001
00000000
00000000
00000000
,
00001000
00000000
00000000
00001000
00000001
00000010
00000000
00000010
,
00000100
00000000
00000000
00010000
00001000
00000000
00100000
00010000
,
01000000
00000000
00000000
00100000
10000000
00010000
00000000
00010000
,
10000000
00000000
00000000
10000000
01000000
00100000
00001000
00010000
,
00000010
00001000
00000000
00000001
00000010
00000100
00000000
00001000
,
00000001
00000100
00000000
00001000
00010000
00001000
00000000
00100000
,
01000000
10000000
00000000
00100000
00010000
00001000
00000000
00100000
,
00001000
00010000
00000000
00000100
00010000
00001000
00000000
00010000
,
00000010
00001000
00000001
00000100
00000010
00001000
00000100
00000010
,
00000100
00010000
00001000
00100000
00010000
10000000
00100000
01000000
,
00020000
00000000
20030000
00000000
32000000
00000000
,
03020000
00000000
00032000
00000000
00003020
00000000
,
00000031
00000000
00001000
00000000
,
00002002
00003003
00000000
00000000
00000000
00000000
00000000
00000000
00000000
00000000
00000000
00000000
00000000
00000000
00000000
00000000
00000000
00000000
00000000
00000000
00000000
00000000
00000000
00000000
00000000
00000000
00000000
00000000
00000000
00000000
00000000
00000000
00000000
00000000
00000000
00000000
00000000
00000000
00000000
00000000
00000000
00000000
00000000
00000000
00000000
00000000
00000000
00000000
00000000
00000000
00000000
00000000
00000000
00000000
00000000
00000000
00000000
00000000
00000000
00000000
00000000
00000000
00000000
00000000
,
00000000
00000000
00000000
00000000
,
00000000
00000000
00000000
00000000
,
00000000
00000000
00000000
00000000
,
00000000
00000000
00000000
00000000
,
00000000
00001100
00000000
00000000
,
00000000
00000000
00000000
00000000
;
#NOTES:
     dance-double:
     :
     Challenge:
     18:
     :
00000000
00000000
00000000
00000000
,
00000000
00000000
00000000
00000000
,
00000000
00000011
00000000
00000000
,
00000000
00000000
00001000
00000000
00000000
00000000
00000001
00000100
,
00001000
00010000
00100000
00000000
10100000
00000000
01010000
00000000
,
11000000
00000000
01100000
00000000
00000000
00000000
10000000
01000000
,
00010000
00001000
00000010
00000000
00000000
00000000
00001000
00000000
,
00010000
00000000
01000000
00000000
10000000
00000000
00100000
00010000
,
00001000
00000100
00000001
00000000
00000110
00000000
00001100
00000000
,
00001010
00000000
00000011
00000000
00000000
00000000
00000001
00001000
,
00000001
00001000
00000010
00000000
00000100
00000010
00000100
00000000
,
00001000
00000100
00001000
00000000
00010000
00001000
00010000
00000000
,
01000000
00010000
01000000
00000000
10000000
01000000
10000000
00000000
,
00100000
10000000
00100000
00000000
01000000
00100000
01000000
00010000
,
00001000
00000100
00000010
00000000
00000100
00000010
00000100
00000000
,
00000010
00000100
00001100
00000000
00000101
00000000
00000011
00000000
,
00001010
00011000
00110000
10100000
,
11000000
00000000
01000000
00000000
00010000
00000000
00001000
00010000
,
01000000
10000000
00010000
00000000
00100000
00010000
00100000
00000000
,
01000000
00100000
01000000
00000000
00010000
01000000
00010000
00000000
,
00001000
00010000
00001000
00000000
00000100
00001000
00000100
00000000
,
00000010
00001000
00000010
00000000
00010000
00100000
00010000
00001000
,
00000100
00000010
00001000
00000000
00000001
00001000
00000001
00000000
,
00000010
00000001
00000010
00000000
00001000
00000010
00001000
00000000
,
00010000
00001000
00010000
00000000
01000000
00010000
01000000
00000000
,
10000000
01000000
10000000
00010000
01000000
00100000
10000000
00010000
,
01000000
00100000
10000000
01000000
00010000
00001000
00000010
00000001
,
00001000
00000001
00000100
00000000
00000010
00001000
00000100
00000000
,
00010000
00001000
00010000
00000000
00000100
00001000
00000010
00000000
,
00010000
00001000
00010000
00000000
00001000
00100000
00010000
00000000
,
10000000
01000000
00100000
00000000
00010000
10000000
00100000
00000000
,
01000000
00001000
00010000
00000000
00000010
00000100
00000001
00000000
,
00001000
00000100
00000010
00000000
00000001
00000010
00000100
00000000
,
00010000
00001000
00000010
00001000
00010000
01000000
00100000
00010000
,
01000000
00100000
10000000
01000000
00100000
00010000
01000000
00100000
,
00010000
00001000
00000100
00000001
00000010
00001000
00000001
00000100
,
00001000
00001000
00000010
00000000
00000100
00000010
00000100
00000000
,
00001100
00000000
00011000
00000000
00110000
00000000
01000000
00100000
,
10000000
00100000
01000000
00000000
00000000
01000000
00001000
00000000
,
00000000
00001000
00100000
00000000
00000000
00100000
01000000
00000000
,
00000000
01000000
00010000
00000000
00001000
00010000
00001000
00000000
,
00001100
00000000
00000110
00000000
00001001
00000000
00000100
00000010
,
00000001
00000010
00000100
00000000
00000000
00000100
00010000
00000000
,
00000000
00010000
01000000
00000000
00000000
01000000
10000000
00000000
,
00000000
10000000
00010000
00000000
01000000
00100000
10000000
00000000
,
11000000
00000000
01010000
00000000
00011000
00000000
00010000
00000010
,
00000100
00000010
00010000
00000000
00000000
00010000
00001000
00000000
,
00000000
00001000
00000100
00000000
00000000
00000100
00000010
00000000
,
00000000
00000010
00000100
00000000
00000001
00001000
00000100
00000000
,
00000110
00000000
00001010
00000000
00011000
00000000
01000000
00100000
,
00001000
00100000
01000000
00000000
00000000
01000000
10000000
00000000
,
00000000
10000000
00100000
01000000
00010000
01000000
00010000
00000000
,
00100000
00000000
00002000
00010000
00003000
00010000
00000020
00001000
,
00000030
00001000
00000200
00000010
00000300
00000010
00000002
00000100
,
00000003
00000100
00002000
00010000
00003000
00010000
02000000
00100000
,
03000000
00100000
00020000
01000000
00030000
01000000
00100000
00000000
,
10100000
00000000
02000000
00010000
03000000
00010000
00002000
00000010
,
00003000
00000010
00000002
00001000
00000003
00001000
00000002
00000100
,
00000003
00000100
00002000
00010000
00003000
00010000
00200000
01000000
,
00300000
01000000
00200000
10000000
00300000
10000000
01000000
00010000
,
00001000
00010000
00000200
00001000
00000300
00001000
00000200
00000010
,
00000300
00000010
00000002
00000100
00000003
00000100
00000020
00010000
,
00000030
00010000
00002000
01000000
00003000
01000000
00020000
00100000
,
00030000
00100000
02000000
10000000
03000000
10000000
00100000
00000000
,
00110000
00000000
00002000
00010000
00003000
00010000
00002000
00000100
,
00003000
00000100
00000002
00001000
00000003
00001000
00000200
00000010
,
00000300
00000010
00000001
00000000
00000100
00000010
00001000
00010000
,
01000000
00100000
10000000
00000000
00000000
00000000
00010000
10000000
,
01000000
10000000
00100000
00000000
00000000
00000000
00100000
00000000
,
00000000
00010000
00000000
00010000
,
00000000
10000000
00000000
10000000
,
00000000
01000000
00000000
01000000
,
00000000
00001000
00000000
00001000
,
00000000
00000100
00000000
00000100
,
00000000
00000001
00000000
00000001
,
00000000
00000010
00000000
00000010
,
00000000
00000001
00000011
00000100
,
00001100
00010000
00011000
00100000
,
00110000
01000000
11000000
00010000
,
01010000
00000000
10000000
01000000
00100000
00010000
00001000
00000100
,
00000010
00000001
00000010
00000000
00000110
00000000
00000001
00000000
,
00000101
00000010
00001010
00010000
,
00011000
00100000
00110000
01000000
,
11000000
00000000
00100000
00010000
00001000
00010000
00100000
00010000
,
00001000
00010000
00100000
10000000
01000000
00000000
00110000
00000000
,
00101000
00000000
00010000
00000100
00001000
00000000
00001001
00000000
,
00000110
00000000
00000010
00000001
00000100
00000000
00000110
00000000
,
00001010
00000000
00000100
00000010
00010000
00000000
00010010
00000000
,
00011000
00000000
01000000
00100000
00010000
00000000
01000000
00100000
,
10000000
00000000
01000000
00010000
00001000
00000000
00100000
00001000
,
00010000
00000000
00000010
00001000
00000100
00000010
00000001
00000100
,
00001000
00000001
00000010
00001000
00010000
01000000
00100000
10000000
,
01000000
00000000
00000000
00000000
00000000
00000000
00000000
00000000
00100000
00000000
00000000
00000000
00000000
00000000
00000000
00000000
00000000
00000000
00000000
00000000
00000000
00000000
00000000
00000000
00000000
00000000
00000000
00000000
00000000
00000000
00000000
00000000
20020000
30030000
00000000
00000000
00000000
00000000
00000000
00000000
00000000
00000000
00000000
00000000
00000000
00000000
00000000
00000000
00000000
00000000
00000000
00000000
00000000
00000000
00000000
00000000
00000000
00000000
00000000
00000000
00000000
00000000
00000000
00000000
,
10000000
01000000
00010000
00001000
,
00000010
00000001
00000100
00000001
,
00001000
00000000
00000010
00001000
00000100
00000000
00000010
00000001
,
00000100
00000000
00000010
00000100
00001000
00000000
00010000
00001000
,
00100000
00000000
01000000
10000000
00010000
00000000
01000000
00100000
,
10000000
00000000
00010000
01000000
00010000
00000000
01100000
00000000
,
10000000
01000000
00000000
00100000
00010000
00000000
01000000
00001000
,
00010000
00000100
00000000
00000010
00000001
00000000
00001000
00000010
,
00000100
00000010
00000000
00001000
00000001
00000100
00000000
00001000
,
00010000
00001000
00000000
00000100
00001000
00010000
00100000
10000000
,
01000000
00000000
00100000
00010000
01000000
00000000
00001000
00010000
,
00000100
00000000
00000010
00000001
00001000
00000000
00000001
00000000
,
00001000
00000100
00000001
00000100
00001000
00000000
00000001
00000100
,
00000010
00000000
00001000
00000010
00010000
00000000
00001000
01000000
,
00100000
00000000
00000000
00100000
10000000
00010000
00000000
00100000
,
01000000
10000000
00000000
01000000
00010000
00000000
00001000
00000000
,
00000010
00000000
00000001
00001000
00000100
00000000
00001000
00000001
,
00000010
00001000
00010000
01000000
10000000
00010000
01000000
00100000
,
10000000
00000000
00010000
10000000
01000000
00000000
00100000
00010000
,
01000000
00000000
00100000
10000000
01000000
00000000
00100000
00010000
,
00001000
00000000
00000100
00001000
00000010
00000000
00010000
00001000
,
00000100
00000000
00000010
00001000
00000100
00000000
00000110
00000000
,
00001000
00000001
00000000
00000001
00001000
00000100
00000000
00000100
,
00000010
00000001
00000000
00000001
00000100
00000000
00000010
00001000
,
00010000
01000000
00000000
01000000
00010000
00100000
00000000
00100000
,
00010000
10000000
00000000
10000000
01000000
00010000
00001000
00010000
,
01000000
00100000
00000000
00100000
00010000
01000000
00000000
01000000
,
00010000
00001000
00000000
00001000
00000010
00000100
00000000
00000100
,
00000001
00001000
00000000
00001000
00000100
00000010
00000000
00000010
,
00001000
00010000
00000000
00010000
01000000
10000000
00000000
00100000
,
10000000
01000000
00100000
00010000
01000000
00100000
10000000
01000000
,
00010000
00001000
00000010
00000001
00000100
00001000
00000100
00000001
,
00001010
00000000
00000101
00000000
00001100
00000000
,
00011000
00000000
01010000
00000000
11000000
00000000
,
00100000
00000000
01000000
00000000
,
20020000
30030000
00000000
00000000
00000000
00000000
00000000
00000000
00000000
00000000
00000000
00000000
00000000
00000000
00000000
00000000
00000000
00000000
00000000
00000000
00000000
00000000
00000000
00000000
00000000
00000000
00000000
00000000
00000000
00000000
00000000
00000000
00000000
00000000
00000000
00000000
00000000
00000000
00000000
00000000
00000000
00000000
00000000
00000000
00000000
00000000
00000000
00000000
00000000
00000000
00000000
00000000
00000000
00000000
00000000
00000000
00000000
00000000
00000000
00000000
00000000
00000000
00000000
00000000
,
00000000
00000000
00000000
00000000
,
00000000
00000000
00000000
00000000
,
00000000
00000000
00000000
00000000
,
00000000
00000000
00000000
00000000
,
00000000
10100000
00000000
00000000
,
00000000
00000000
00000000
00000000
;
