
//----- song ID: tenj -----//
#TITLE:天上の星 ~黎明記~;
#ARTIST:TЁЯRA;
#TITLETRANSLIT:Tenjou no Hoshi -Reimeiki-;
#BANNER:Tenjou no Hoshi -Reimeiki-.png;
#BACKGROUND:Tenjou no Hoshi -Reimeiki--bg.png;
#CDTITLE:./CDTitles/pnm 18 Sengoku Retsuden.png;
#MUSIC:Tenjou no Hoshi -Reimeiki-.ogg;
#SAMPLESTART:30.36;
#SAMPLELENGTH:15;
#DISPLAYBPM:170;
#BPMS:0=170.5,4=170,188=85,204=170;
#NOTES:
     dance-single:
     :
     Beginner:
     2:
     :
0000
0000
0000
0000
,
0000
0000
0000
0000
,
0000
0000
0000
0000
,
0000
0000
0000
0000
,
0000
0000
0000
0000
,
0000
0000
0000
0000
,
0001
0000
0000
0000
,
1000
0000
0000
0000
,
0001
0000
0000
0000
,
1000
0000
0000
0000
,
0001
0000
0000
0000
,
0001
0000
0000
0000
,
1000
0000
0000
0000
,
1000
0000
0000
0000
,
0001
0000
0000
0000
,
1000
0000
0000
0000
,
0001
0000
0000
0000
,
0010
0000
0000
0000
,
0100
0000
0000
0000
,
0010
0000
0000
0000
,
0100
0000
0000
0000
,
0000
0000
0000
0000
,
0001
0000
0001
0000
,
0001
0001
0001
0000
,
1000
0000
1000
0000
,
1000
1000
1000
0000
,
0001
0000
0001
0000
,
1000
0000
1000
0000
,
0100
0000
0100
0000
,
0010
0000
0000
0000
,
1000
0000
1000
0000
,
1000
1000
1000
0000
,
0001
0000
0001
0000
,
0001
0001
0001
0000
,
1000
0000
1000
0000
,
0001
0000
0001
0000
,
0100
0000
0100
0000
,
0010
0000
0000
0000
,
1000
0000
1000
0000
,
1000
0000
0000
0000
,
0001
0000
0001
0000
,
0001
0000
0000
0000
,
1000
0000
1000
0000
,
1000
0000
0000
0000
,
0001
0000
0001
0000
,
0001
0000
0000
0000
,
0000
0000
0000
0000
,
0100
0000
0001
0000
,
0100
0000
1000
0000
,
0001
0000
1000
0000
,
0001
0000
1000
0000
,
0001
0000
0001
0000
,
0001
0001
0001
0000
,
1000
0000
1000
0000
,
1000
1000
1000
0000
,
0100
0000
0100
0000
,
0010
0000
0010
0000
,
0001
0000
0001
0000
,
1001
0000
0000
0000
,
0010
0000
0010
0000
,
1000
0000
1000
0000
,
0100
0000
0100
0000
,
0001
0000
0001
0000
,
0010
0000
0010
0000
,
1000
0000
1000
0000
,
0100
0000
0100
0000
,
0001
0000
0001
0000
,
0100
0000
0000
0000
,
0000
0000
0000
0000
;
#NOTES:
     dance-single:
     :
     Easy:
     5:
     :
0000
0000
0000
0000
,
0000
0000
0000
0000
,
0000
0000
0000
0000
,
0000
0000
0000
0000
,
0000
0000
0000
0000
,
0000
0000
0000
0000
,
0010
0000
1000
0000
,
0100
0000
0010
0000
,
0001
0000
0100
0000
,
0010
0000
0100
0000
,
0001
0000
0001
0000
,
1000
0000
0000
0000
,
1000
0000
1000
0000
,
0001
0000
0000
0000
,
0010
0000
0001
0000
,
1000
0000
0100
0000
,
0010
0000
0001
0000
,
1000
0000
0010
0000
,
0200
0000
0000
0300
,
0010
0000
0010
0000
,
0200
0000
0000
0000
,
0300
0000
0000
0000
,
0001
0001
0100
0000
,
1000
1000
0100
0000
,
0001
0010
0100
1000
,
0100
0000
0010
0010
,
0001
0000
0010
0010
,
1000
0000
0001
1000
,
0001
1000
0100
0010
,
0001
0000
0010
0000
,
1000
0001
0100
0000
,
0001
1000
0100
0000
,
0001
0010
0100
1000
,
0010
0000
0100
0100
,
0002
0000
0000
0003
,
1000
0001
1000
0001
,
0010
0000
0001
1000
,
0200
0000
0000
0300
,
1000
1000
1000
0010
,
1000
0000
0000
0000
,
0001
0001
0001
0010
,
0001
0000
0000
0000
,
1000
1000
0010
1000
,
0100
0000
0000
0000
,
0001
0001
0010
0001
,
0100
0000
0010
0010
,
0200
0000
0000
0300
,
0001
0001
1000
1000
,
0001
0100
1000
0000
,
0100
0001
0100
1000
,
0100
0010
0010
0000
,
1000
0100
0100
0000
,
0001
0100
0100
0000
,
0010
1000
0001
0100
,
0020
0000
0000
0030
,
1000
0100
0001
0000
,
1000
0100
0001
0000
,
0001
0100
1000
0001
,
0100
0020
0000
0030
,
1000
1000
0100
0010
,
0001
0000
0100
0000
,
0001
0001
0100
0010
,
1000
0000
0100
0000
,
1000
0001
1000
0100
,
0010
0001
1000
0001
,
0100
1000
0100
0001
,
1000
0001
0010
0000
,
1001
0000
1001
0000
,
0000
0000
0000
0000
;
#NOTES:
     dance-single:
     :
     Medium:
     8:
     :
0000
0000
0000
0000
,
0000
0000
0000
0000
,
0000
0000
0000
0000
,
0000
0000
0000
0000
,
0000
0000
0000
0000
,
0000
0000
0000
0000
,
0100
0000
0010
0000
,
0001
0100
1000
0000
,
0100
0001
0010
0000
,
0100
1000
0010
0000
,
2000
0000
3100
0000
,
0001
0010
0100
1000
,
0002
0000
0103
0000
,
0020
0000
0130
0000
,
2000
0000
3010
0000
,
0001
0100
1000
0010
,
0002
0000
0013
0000
,
0200
0000
0310
0000
,
0001
0010
0001
0010
,
0100
0000
0010
0000
,
1000
0010
1000
0010
,
0100
0000
0000
0000
,
0001
0000
1000
0100
0010
0000
0001
0000
,
0100
1000
0010
0001
,
1000
0000
0001
0100
0010
0000
1000
0000
,
0100
0000
0001
1000
,
1100
0000
1000
0001
,
0101
0000
1000
0100
,
0010
0010
0001
1000
,
0010
0000
0100
0010
,
1000
0000
0100
1000
0100
0000
0010
0000
,
0001
0000
0100
0001
0100
0000
0010
0000
,
1000
0010
0001
0100
,
2000
0000
3001
0000
,
0010
0001
0100
0010
,
1000
0010
1000
0000
0001
0000
0100
0000
,
0010
0100
0010
0000
1000
0000
0001
0000
,
2002
0000
0000
3003
,
1000
0000
0100
0000
0010
0001
0100
0000
,
0020
0000
0000
0030
,
1000
0100
0010
0000
0001
0000
0010
0000
,
0200
0000
0000
0300
,
1000
0100
1000
0000
0001
0000
1000
0000
,
0200
0000
0000
0300
,
0010
0000
0001
0100
0010
0000
1000
0000
,
0020
0000
0000
0030
,
0010
0100
0000
0010
0100
0000
0010
0000
,
1000
0100
0100
0000
0010
0000
0001
0000
,
0100
0001
0010
0100
1000
0000
0001
1000
,
1001
0000
1000
0001
1001
0000
0010
0010
,
1000
0100
0010
0001
1001
0000
0010
0000
,
0100
0000
0001
1000
0010
0000
0100
0000
,
0010
0000
1000
0001
0100
0000
0010
0000
,
1000
0100
0001
0010
,
0200
0000
0010
0310
,
0001
0000
0100
0000
0010
0100
0001
0000
,
1000
0000
0100
0000
0010
0100
1000
0000
,
0001
0100
0010
0000
1000
0100
0010
0000
,
0220
0000
0000
0330
,
0001
0000
0100
0000
1000
0100
0001
0000
,
0100
1000
0010
0001
,
1000
0000
0100
0000
0001
0100
1000
0000
,
0100
0001
0010
1000
,
0100
0000
0010
0000
1000
0100
0010
0000
,
0100
0000
0010
0000
0001
0100
0010
0000
,
1000
1010
0001
0101
,
1000
0100
0010
0001
0010
0000
0110
0000
,
1001
0000
0010
0001
0100
0000
0010
0000
,
0000
0000
0000
0000
;
#NOTES:
     dance-single:
     :
     Hard:
     12:
     :
0000
0000
0000
0000
,
0000
0000
0000
0000
,
0000
0000
0000
0000
,
0000
0000
0000
0000
,
0000
0000
0000
0000
,
0000
0000
0000
0000
,
2000
0000
0200
3000
,
0020
0300
0002
0030
,
2000
0000
0000
0003
,
0010
0010
0200
3300
,
0020
0000
0200
0300
,
0001
0001
0200
0030
,
2000
3000
0020
0030
,
1000
0010
2000
0300
,
0002
3000
0200
0300
,
0010
0010
0100
0010
,
0200
0003
0020
0030
,
0302
0100
2003
0100
,
3020
0000
0000
0000
,
2030
0100
3002
0020
,
0030
0203
0000
0000
,
0310
0000
0000
0000
,
1001
0000
0100
0001
0010
1000
0010
0000
,
0110
0000
0100
0010
0001
0100
0010
0000
,
1000
0000
0100
0001
0010
0000
0100
1000
,
0010
0000
0100
0010
0000
0010
1000
0100
,
0010
0000
0010
0100
0000
0100
0010
0001
,
0100
0000
0010
0000
1000
0100
0001
0000
,
0101
0000
0001
0100
0010
0100
1000
0001
,
0100
0000
0010
1000
0000
1000
0100
0000
,
0011
0000
0010
0001
0100
0010
1000
0000
,
1100
0000
1000
0010
0100
0001
1000
0000
,
0010
0100
0010
0000
1000
0001
1000
0000
,
0110
0000
0010
0100
0000
0100
0001
0010
,
0200
0000
0001
0000
0010
0000
1300
0001
,
0020
0001
0100
1030
,
0001
0010
0100
0000
1000
0100
0010
0000
,
0001
0010
0100
1000
0010
0100
0010
0000
,
1000
1000
0100
0010
0001
0001
0010
0100
,
2000
0000
0010
3010
0200
0000
0010
0000
,
0301
0010
0100
1000
1000
0100
0010
0001
,
0200
0000
0010
0310
2000
0000
0100
0000
,
3001
0100
1000
0100
0001
0010
1000
0010
,
0200
0000
0010
0310
0002
0000
0100
0000
,
1003
0010
1000
1000
0001
0100
0010
0010
,
2000
0000
0001
0001
3001
0000
1001
0000
,
0100
0100
0000
0010
0110
0000
0000
0000
,
1000
0000
0010
0001
0010
0000
1000
0000
0001
0000
0100
1000
0100
0000
0001
0000
,
1000
0000
0100
0001
0100
0000
0010
1000
0010
0000
0100
0000
0001
0100
1000
0000
,
0100
0000
1000
0100
0000
0001
0010
0000
1000
0000
0001
0100
0000
1000
0010
0000
,
0001
0000
1000
0100
0010
0000
0001
0100
0010
1000
0100
0010
0001
0100
0010
0000
,
1001
0000
0010
1000
0100
0001
0100
0000
,
0110
0000
0010
0100
1000
0010
0100
0000
,
0001
0100
0010
1000
0100
0010
0001
1000
,
0100
0000
0010
0100
0000
0100
1000
0001
,
0010
0000
0010
0100
0000
0010
0001
0100
,
0010
0000
0010
0100
0000
0010
1000
0001
,
1001
0000
1000
0010
0110
0000
1001
0000
,
0010
0001
0100
0010
1000
0100
0010
0001
,
0200
0000
0001
0000
0310
1000
0100
0010
,
0002
0000
1000
0000
0103
0010
1000
0100
,
0020
0000
0001
0000
0130
1000
0001
0100
,
0120
0000
1000
0000
0001
0000
1030
0100
,
0020
0000
0001
0031
0100
0010
1000
0001
,
0200
0000
0010
0310
1000
0100
0001
0100
,
1000
0010
0010
0000
0001
0010
0010
0000
,
1000
0100
0010
0001
0100
0010
0100
0000
,
1001
0000
0001
0001
1000
0000
1001
0000
,
0000
0000
0000
0000
;
#NOTES:
     dance-double:
     :
     Easy:
     5:
     :
00000000
00000000
00000000
00000000
,
00000000
00000000
00000000
00000000
,
00000000
00000000
00000000
00000000
,
00000000
00000000
00000000
00000000
,
00000000
00000000
00000000
00000000
,
00000000
00000000
00000000
00000000
,
00000010
00000000
00000000
00000000
,
00001000
00000000
00001000
00000000
,
00010000
00000000
00000000
00000000
,
00100000
00000000
00000000
00000000
,
10000000
00000000
10000000
00000000
,
01000000
00000000
00000000
00000000
,
00010000
00000000
00010000
00000000
,
00001000
00000000
00000000
00000000
,
00000100
00000000
00000100
00000000
,
00000001
00000000
00000000
00000000
,
00000010
00000000
00000100
00000000
,
00001000
00000000
00001000
00000000
,
00020000
00000000
00000000
00030000
,
00100000
00000000
00100000
00000000
,
02000000
00000000
00000000
00000000
,
03000000
00000000
00000000
00000000
,
10000000
01000000
00100000
00000000
,
00100000
00010000
01000000
00000000
,
00010000
00000000
00100000
00000000
,
00001000
00000000
00010000
00001000
,
00010000
00000000
00000100
00001000
,
00000010
00000000
00000100
00000000
,
00000001
00000000
00000010
00000100
,
00001000
00000000
00000100
00000000
,
00010000
00001000
00010000
00000000
,
00001000
00100000
00010000
00000000
,
01000000
00000000
00100000
00000000
,
10000000
00000000
01000000
01000000
,
00020000
00000000
00000000
00030000
,
00100000
00000000
00001000
00000000
,
00010000
00000000
00000100
00000000
,
00000020
00000000
00000000
00000030
,
00001000
00000100
00000001
00000100
,
00001000
00000000
00000000
00000000
,
00010000
00000100
00010000
00001000
,
00100000
00000000
00000000
00000000
,
00010000
01000000
10000000
01000000
,
00010000
00000000
00000000
00000000
,
10000000
01000000
00100000
00010000
,
01000000
00000000
00010000
00100000
,
00002000
00000000
00000000
00003000
,
00010000
00010000
00001000
00001000
,
00000100
00000001
00000100
00000000
,
00001000
00010000
00100000
00010000
,
00001000
00010000
00100000
00000000
,
10000000
01000000
00100000
00000000
,
00010000
01000000
00100000
00000000
,
10000000
00000000
01000000
00000000
,
00010000
00000000
00001000
00010000
,
00000020
00000000
00000000
00000030
,
00000100
00000010
00001000
00000000
,
00000001
00001000
00000010
00000100
,
00000020
00000000
00000000
00000030
,
00000100
00000000
00000001
00000100
,
00001000
00000000
00010000
00000000
,
00001000
00000000
00100000
00010000
,
01000000
00000000
00100000
00000000
,
10000000
00100000
01000000
00010000
,
00100000
00000000
00001000
00000000
,
00010000
00000100
00001000
00000010
,
00000100
00000000
00000001
00000000
,
00001001
00000000
00000100
00000000
,
00000000
00000000
00000000
00000000
;
#NOTES:
     dance-double:
     :
     Medium:
     8:
     :
00000000
00000000
00000000
00000000
,
00000000
00000000
00000000
00000000
,
00000000
00000000
00000000
00000000
,
00000000
00000000
00000000
00000000
,
00000000
00000000
00000000
00000000
,
00000000
00000000
00000000
00000000
,
00000010
00000000
00000001
00000000
,
00001000
00000001
00000100
00000000
,
00001000
00000000
00010000
00000000
,
01000000
10000000
00100000
00000000
,
02000000
00000000
03010000
00000000
,
00100000
00001000
00010000
01000000
,
00200000
00000000
00301000
00000000
,
00000200
00000000
00000310
00000000
,
00000002
00000000
00001003
00000000
,
00000010
00000100
00001000
00010000
,
00002000
00000000
00103000
00000000
,
02000000
00000000
13000000
00000000
,
00010000
01000000
00100000
10000000
,
00010000
00000000
00100000
00000000
,
00001000
00010000
00000010
00001000
,
00000001
00000000
00000000
00000000
,
00000010
00000000
00000001
00000100
00000010
00000000
00000100
00000000
,
00001000
00010000
00010000
00001000
,
00100000
00000000
00010000
01000000
00100000
00000000
10000000
00000000
,
01000000
00000000
00100000
00010000
,
11000000
00000000
00100000
00001000
,
00011000
00000000
00000010
00001000
,
00000101
00000000
00001001
00000000
,
00001100
00000000
00000010
00001000
,
00000001
00000000
00000100
00001000
00000100
00000000
00000010
00000000
,
00010000
00000000
00001000
00010000
00001000
00000000
01000000
00000000
,
00100000
10000000
01000000
00010000
,
00002000
00000000
00013000
00000000
,
00000100
00001000
00000001
00000010
,
00000100
00001000
00000100
00000000
00010000
00000000
00001000
00000000
,
00100000
00010000
00100000
00000000
00010000
00000000
10000000
00000000
,
20020000
00000000
00000000
30030000
,
10000000
00000000
00010000
00000000
10000000
01000000
00010000
00000000
,
00002000
00000000
00000000
00003000
,
00010000
00001000
00000100
00000000
00000001
00000000
00001000
00000000
,
00000200
00000000
00000000
00000300
,
00000001
00000000
00001000
00000000
00000001
00000010
00001000
00000000
,
00020000
00000000
00000000
00030000
,
00001000
00010000
00100000
00000000
10000000
00000000
00010000
00000000
,
02000000
00000000
00000000
03000000
,
00010000
10000000
00000000
10000000
00010000
00000000
10010000
00000000
,
10000000
01000000
00010000
00000000
00001000
00000000
00010000
00000000
,
00001000
00000100
00000001
00000010
00000100
00000000
00001000
00000001
,
00000100
00000000
00001000
00010000
00011000
00000000
00100000
00010000
,
10000000
01000000
00010000
00001000
00022000
00000000
00000000
00033000
,
00011000
00000000
00010000
00001000
00010000
00000000
00000100
00000000
,
00000010
00000000
00000001
00001000
00000001
00000000
00000100
00000000
,
00001000
00010000
00100000
10000000
,
02000000
00000000
00100000
03010000
,
00001000
00000000
00010000
00000000
00001000
00100000
00010000
00000000
,
01000000
00100000
00010000
00001000
,
00010000
00011000
00000100
00000010
,
00002002
00000000
00000000
00003003
,
00000001
00000000
00001000
00000000
00000010
00000100
00001000
00000000
,
00010000
00001000
00100000
01000000
,
10000000
00000000
00010000
00000000
00100000
00001000
00010000
00000000
,
00000100
00001000
00000001
00000000
,
00000010
00001000
00001001
00000100
,
00010000
00000000
00001000
00000000
00010000
00001000
00100000
00000000
,
00010000
10010000
01000000
00100000
,
00010000
00100000
00010000
00100000
00001000
00000000
00010000
00000000
,
00011000
00001000
00010000
00011000
,
00000000
00000000
00000000
00000000
;
#NOTES:
     dance-double:
     :
     Hard:
     12:
     :
00000000
00000000
00000000
00000000
,
00000000
00000000
00000000
00000000
,
00000000
00000000
00000000
00000000
,
00000000
00000000
00000000
00000000
,
00000000
00000000
00000000
00000000
,
00000000
00000000
00000000
00000000
,
00000020
00000000
00000200
00000030
,
00002000
00000300
00020000
00003000
,
02000000
00000000
00000000
00030000
,
20000000
03000000
00020000
30000000
,
00100000
00000000
02000000
00030000
,
10000000
00000000
00020000
03000000
,
10000000
00000000
00100000
00000000
,
00002000
00030000
00000020
00003000
,
00000200
00000030
00001000
00000000
,
00000001
00000001
00000020
00000300
,
00000230
00000000
00000010
00000010
,
00000302
00000100
00002003
00000100
,
00000020
00000000
00003000
00000000
,
00002030
00000001
00003200
00000010
,
00000000
00020000
00000300
00000000
,
00031000
00000000
00000000
00000000
,
00011000
00000000
00001000
00010000
01000000
10000000
00010000
00000000
,
10010000
00000000
00100000
10000000
01000000
00100000
00010000
00000000
,
01000000
00000000
00110000
00000000
10000000
00010000
00100000
00001000
,
00010000
00000000
00000100
00010000
00000000
00010000
00001000
00000100
,
00000001
00000000
00000001
00000010
00000000
00000010
00000100
00001000
,
00000001
00000000
00000100
00000000
00001000
00010000
00001000
00000000
,
00101000
00000000
00010000
00001000
00010000
00100000
10000000
01000000
,
00100000
00000000
00100000
00001000
00000000
00001000
00010000
01000000
,
10000000
00000000
10000000
00010000
01000000
00010000
00100000
00000000
,
01010000
00000000
00001000
00100000
00001000
00010000
00000100
00000000
,
00001000
00000100
00000010
00000000
00000001
00000100
00000010
00000000
,
00001010
00000000
00001000
00000001
00000000
00000001
00000100
00001000
,
00020000
00100000
00001000
00000100
,
00032000
00000010
00010000
01000000
,
00013000
00000100
00001000
00000000
00000010
00010000
00001000
00000000
,
00010000
00001000
00100000
00010000
10000000
01000000
00100000
00000000
,
00010000
10000000
01000000
00010000
00001000
00100000
00010000
10000000
,
02000000
00000000
00100000
03100000
00010000
00000000
00001000
00000000
,
00001000
00000001
00000100
00001000
00010000
00000010
00001000
00000001
,
00000200
00000000
00000010
00000310
00001000
00000000
00010000
00000000
,
00010000
01000000
00100000
10000000
01000000
00100000
00001000
00010000
,
00002000
00000000
00010000
00013000
00000100
00000000
00000010
00000000
,
00001000
00000010
00000100
00000001
00000010
00000100
00010000
00001000
,
00020000
00000000
00001000
00001000
00031000
00000000
00011000
00000000
,
00001000
01000000
00000000
01000000
00100000
00000000
10010000
00000000
,
10000000
00000000
01000000
00100000
01000000
00000000
00000000
00000000
00010000
00000000
00001000
00010000
00001000
00000000
00000000
00000000
,
00000100
00000000
00000001
00001000
00000001
00000000
00000100
00000010
00000100
00000000
00000000
00001000
00000000
00010000
00001000
00100000
,
00010000
00000000
00000000
10000000
00000000
10000000
01000000
00100000
00010000
00000000
00000000
00000000
01000000
00000000
00010000
00100000
,
00001000
00000000
00000000
00010000
00000000
00000000
00000010
00000000
00001000
00000100
00000010
00000001
00000100
00000000
00000011
00000000
,
00001001
00000000
00000001
00000100
00001000
00010000
00001000
00000000
,
00011000
00000000
00010000
00001000
00100000
00010000
01000000
00000000
,
00100000
10000000
01000000
00000000
00100000
00010000
01000000
10000000
,
01000000
00000000
00010000
00100000
00000000
00100000
00001000
00010000
,
00001000
00000000
00010000
00000100
00000000
00000100
00001000
00000001
,
00000010
00000000
00000010
00001000
00000000
00001000
00010000
00100000
,
01000000
00000000
00100000
10000000
11000000
00000000
10010000
00000000
,
00100000
00001000
00010000
00000010
00001000
00000001
00000100
00000000
,
00000201
00000000
00000010
00000000
00001300
00000100
00000001
00000010
,
00000200
00000000
00000010
00000000
00001300
00000010
00010000
00001000
,
00020000
00000000
00001000
00000000
00130000
01000000
00010000
10000000
,
00020000
00000000
01000000
00000000
10000000
00000000
00130000
00100000
,
02000000
00000000
00100000
00000000
03010000
01000000
10000000
00100000
,
02000000
00000000
00100000
00000000
03010000
00100000
00001000
00010000
,
00002000
00000000
00010000
00000000
00003010
00000100
00001000
00000001
,
00001000
00000100
00000010
00000001
00000100
00001000
00010000
00000000
,
00011000
00000000
00000010
00000010
00001000
00000000
00010100
00000000
,
00000000
00000000
00000000
00000000
;
