
//----- song ID: tasf -----//
#TITLE:Take A Step Forward;
#ARTIST:TAG feat. Sydney Powers;
#BANNER:Take A Step Forward.png;
#BACKGROUND:Take A Step Forward-bg.png;
#CDTITLE:./CDTitles/DDR X3 VS 2ndMIX.png;
#MUSIC:Take A Step Forward.ogg;
#SAMPLESTART:47.6;
#SAMPLELENGTH:15;
#BPMS:0=145;
#NOTES:
     dance-single:
     :
     Beginner:
     2:
     :
0000
0000
0000
0000
,
0000
0000
0000
0000
,
0000
0000
0000
0000
,
0000
0000
0000
0000
,
0000
0000
0000
0000
,
0001
0000
0000
0000
,
0010
0000
0000
0000
,
1000
0000
0000
0000
,
0100
0000
0000
0000
,
0001
0000
0001
0000
,
0010
0000
0010
0000
,
2000
0000
3000
0000
,
0200
0000
0300
0000
,
0001
0001
0000
0000
,
0010
0010
0000
0000
,
1000
1000
0000
0000
,
0100
0000
0100
0000
,
0010
0010
0000
0000
,
0001
0001
0000
0000
,
0100
0100
0000
0000
,
0010
0000
0010
0000
,
2000
0000
3000
0000
,
0002
0000
0003
0000
,
2000
0000
3000
0000
,
0002
0000
0003
0000
,
0001
0001
0000
0000
,
0010
0010
0000
0000
,
1000
0000
0001
0000
,
0000
0000
0000
0000
,
0001
0000
0001
0000
,
0010
0000
0010
0000
,
1000
0000
0000
0000
,
0001
0000
0000
0000
,
0010
0000
0010
0000
,
0100
0000
0100
0000
,
2000
0000
3000
0000
,
0002
0000
0003
0000
,
1001
0000
0000
0000
,
0000
0000
0000
0000
,
0100
0000
0000
0000
,
0000
0000
0000
0000
,
0010
0000
0010
0000
,
0001
0000
0001
0000
,
0100
0000
0100
0000
,
1000
0000
1000
0000
,
0001
0000
0001
0000
,
0100
0000
0100
0000
,
0001
0000
0000
0000
,
1000
0000
0000
0000
,
0100
0000
0100
0000
,
0001
0000
0001
0001
,
0001
0000
0000
0000
,
1000
0000
0000
0000
,
0001
0000
0001
0000
,
0100
0000
0100
0000
,
1000
0000
0001
0000
,
1000
0000
0001
0000
,
0010
0000
0010
0000
,
1000
0000
1000
1000
,
2000
0000
3000
0000
,
0002
0000
0003
0000
,
1001
0000
0000
0000
,
0000
0000
0000
0000
;
#NOTES:
     dance-single:
     :
     Easy:
     7:
     :
0000
0000
0000
0000
,
0000
0000
0000
0000
,
0000
0000
0000
0000
,
0000
0000
0000
0000
,
0000
0000
0000
0000
,
0002
0000
0000
0003
,
2000
0000
0000
3000
,
0100
0000
1000
0000
,
0100
0000
0001
0000
,
0010
0000
1000
1000
,
0100
0000
0001
0001
,
0100
0000
1000
1000
,
0100
0001
0010
1000
,
0010
1000
0020
0030
,
0100
0001
0200
0300
,
0010
0001
0020
0030
,
1000
0100
0001
0010
,
1000
0100
1000
1000
,
0100
0001
0100
0100
,
0001
0010
0001
0001
,
0010
1000
1001
0001
,
2000
0000
0100
3100
,
0200
0000
0301
0100
,
2000
3100
0002
0103
,
1000
0200
0000
0300
,
0010
0001
0100
1000
,
0100
0001
0010
1000
,
0020
0000
0002
0033
,
1000
0100
0010
0001
,
1000
0000
1010
0000
,
0100
0001
0101
0101
,
2000
0000
0010
3001
,
0200
0000
0001
0310
,
1000
0100
0001
0100
,
1000
0010
0100
0001
,
0200
0000
0001
0301
,
0010
0001
0100
1000
,
0200
0000
0301
0010
,
0002
0000
0013
1000
,
0020
0000
1030
0100
,
0002
0000
1003
0001
,
1000
2000
3100
0001
,
0100
0200
0301
0010
,
0001
0002
0013
1000
,
0001
1000
0001
1001
,
2002
0003
0200
3000
,
0002
0300
0200
0003
,
1000
1300
0010
0001
,
0010
1000
0001
1000
,
0001
0002
0013
0020
,
1030
2000
3100
0200
,
0302
0000
0100
0103
,
0202
0303
2020
3030
,
0020
0030
2000
3000
,
0200
0301
0200
1300
,
0200
0300
1000
1000
,
0010
0010
0001
0001
,
0010
1000
0100
0001
,
0100
1000
0010
0001
,
0020
0030
1000
0100
,
0010
0001
1000
0100
,
2002
0000
0000
3003
,
0000
0000
0000
0000
;
#NOTES:
     dance-single:
     :
     Medium:
     9:
     :
0000
0000
0000
0000
,
0000
0000
0000
0000
,
0000
0000
0000
0000
,
0000
0000
0000
0000
,
0000
0000
0000
0000
,
0020
0000
0000
0000
,
2000
0000
0000
0030
,
0200
3000
0002
0300
,
0020
0003
0002
0030
,
0020
0000
0003
0000
1030
0010
0000
0000
,
0002
0000
0000
0000
0103
0001
0000
0010
,
0200
0000
0000
0000
,
0300
0000
0000
0000
,
1000
0100
0001
0000
0010
0000
0001
0000
,
0100
0000
0010
1000
0100
0000
0001
0000
,
0100
1000
0010
0001
,
0200
0000
2000
3300
,
0001
0100
1000
0000
0010
0000
1000
0000
,
0100
0000
0010
0001
0100
0000
1000
0000
,
0100
0001
0010
1000
,
0020
0000
0031
0100
,
2020
0000
3030
0001
,
2000
0000
0000
3100
1000
0000
0010
0000
,
0001
0100
0001
0010
,
1000
0100
0001
0000
0000
0000
0100
0000
,
0010
0001
0010
0000
0100
1000
0100
0000
,
1000
0010
1000
0000
0001
0100
0001
0000
,
0020
0000
0000
0230
2000
0000
0000
0000
,
0300
0000
0010
0000
3010
0000
0001
0010
,
1000
0000
0000
0100
0000
0000
0010
0000
0001
0000
0000
0100
0000
0000
0010
0000
,
1000
0000
0000
0001
0000
0000
0010
0000
0100
0000
0000
0000
1000
0000
0000
0000
,
0010
0000
1000
1000
,
0200
0001
0010
1300
,
0001
0000
0000
0100
0000
0000
0010
0000
1000
0000
0000
0100
0000
0000
0010
0000
,
0001
0000
0000
1000
0000
0000
0010
0000
0100
0000
0000
0000
0001
0000
0000
0000
,
0020
0000
0000
0000
0000
0030
1000
0010
,
0001
0001
0200
0000
,
0302
0000
0000
0103
0001
0000
0000
0000
,
1000
0100
0000
0000
1000
0010
0000
0000
,
0200
0000
0000
0301
0100
0000
0000
0000
,
0001
0010
0000
0000
0100
1000
0010
0000
,
2000
0000
0000
3100
1000
0000
0000
0000
,
0001
0100
0000
0000
0001
0010
0000
0000
,
0200
0000
0000
1300
0100
0000
0000
0000
,
1000
0010
0000
0000
0100
0001
0010
0000
,
0001
0000
0000
0100
0000
0000
0010
0000
1000
0000
0000
0100
0000
0000
0010
0000
,
0001
0000
0000
1000
0000
0000
0010
0000
0100
0000
0000
0000
0001
0000
0000
0000
,
0010
0000
0001
0001
,
0200
1000
0010
0301
,
1000
0000
0000
0100
0000
0000
0010
0000
0001
0000
0000
0100
0000
0000
0010
0000
,
1000
0000
0000
0001
0000
0000
0010
0000
0100
0000
0000
0000
1000
0000
0000
0000
,
0020
0000
0000
0000
,
0002
0000
0030
0000
0103
0000
0001
0010
,
1000
0000
0000
0100
0000
0000
0010
0000
0001
0000
0000
0100
0000
0000
0010
0000
,
1000
0000
0000
0001
0000
0000
0010
0000
0100
0000
0000
0000
0100
0000
0000
0000
,
0010
0000
0000
0000
0001
0000
0100
1000
,
0200
0001
0010
1300
,
0001
0000
0000
0100
0000
0000
0010
0000
1000
0000
0000
0100
0000
0000
0010
0000
,
0001
0000
0000
1000
0000
0000
0010
0000
0100
0000
0000
0001
0000
0000
0010
0000
,
2000
0000
0000
3010
,
0001
0000
0000
0000
0100
0000
0000
0000
0001
0000
0000
0010
0000
0000
1000
0000
,
0100
0000
0000
0000
,
0000
0000
0000
0000
;
#NOTES:
     dance-single:
     :
     Hard:
     11:
     :
0000
0000
0000
0000
,
0000
0000
0000
0000
,
0000
0000
0000
0000
,
0000
0000
0000
0000
,
0000
0000
0000
0000
,
1000
0001
0010
0001
0000
1000
0100
0001
,
0010
0001
0100
1000
0000
0100
1000
0000
,
0100
1000
0010
0100
0000
1000
0100
0001
,
1000
0100
0010
0001
0000
1000
0100
0000
,
1000
0010
0100
1000
0000
0100
0010
0000
,
0100
0001
0010
1000
0000
0100
0010
0000
,
0100
0010
1000
0001
0000
0100
1000
0000
,
0100
1000
0010
0001
0000
0100
1000
0000
,
0110
0000
0001
1000
0100
0010
1000
0000
,
0010
0000
0100
0010
1000
0001
0100
0000
,
0010
0000
0100
0000
0010
0100
0010
1000
,
0100
0000
0010
1000
0012
0000
0103
0000
,
1010
0000
0100
0001
0010
0001
1000
0000
,
0100
0000
0010
1000
0100
0001
0010
0000
,
1000
0000
0010
0100
1000
0001
0100
0000
,
1000
0000
0010
0000
0100
0001
0010
0100
,
1000
0000
0010
1000
0010
0100
1000
0000
,
0100
0010
0100
0010
1000
0001
0100
0000
,
0010
0001
0100
1000
0100
0010
1000
0000
,
0100
0010
0100
1000
0010
0001
0100
0000
,
1000
0001
0010
0100
1000
0001
0010
0000
,
0100
0010
1000
0001
0100
0001
0010
0100
,
2020
0000
3030
0000
0100
0000
0010
0001
,
2020
0000
0000
0000
0000
3030
0100
0001
,
1000
0000
0100
0000
0010
0001
1000
0010
,
1000
0010
0011
1010
,
2200
0000
3300
0000
0100
0010
1000
0000
,
0100
0000
0010
1000
0100
0001
0010
0000
,
0100
0000
0001
0010
1000
0000
0100
0010
,
1000
0000
0010
0001
0100
0000
0010
1000
,
0202
0000
0303
0000
0000
0000
1000
0001
,
0010
0000
1000
0000
0010
0000
0100
0001
,
0220
0000
0000
0330
,
2002
0000
0000
3003
,
0100
0010
0001
0100
,
1000
0000
0010
0000
0100
0000
0010
0100
,
1000
0001
0010
1000
0100
0010
1000
0000
,
0010
0001
1000
0010
0100
0000
0010
0000
,
1000
0010
0100
0001
0010
1000
0100
0000
,
0010
1000
0100
0001
0010
1000
0100
0000
,
1000
0100
0010
0000
1000
0001
0010
0000
,
0100
0001
0010
0000
1100
0000
0101
0000
,
0220
0000
0330
1000
0010
0001
0100
1000
,
0010
0000
0001
0010
1000
0001
0100
0000
,
0010
0000
0001
0100
0010
0000
1000
0001
,
0100
0000
0010
0001
1000
0000
0100
0001
,
0010
0000
1000
0100
0010
0000
1000
0000
,
0010
0000
0100
0010
0001
0000
1000
0100
,
0010
0000
1000
0001
0100
0000
0010
1000
,
0100
0001
1100
0110
,
0022
0000
0033
0001
0010
1000
0100
0010
,
0001
0000
0100
0010
1000
0001
0100
0000
,
0010
0000
0001
1000
0010
0000
0100
0001
,
1000
0000
0010
0001
0100
0000
0010
1000
,
0100
0000
0001
0000
0100
0000
0010
0100
,
1000
0010
0100
0001
0010
0000
0100
0000
,
2020
0000
0000
3030
,
0000
0000
0000
0000
;
#NOTES:
     dance-single:
     :
     Challenge:
     15:
     :
0000
0000
0000
0000
,
0000
0000
0000
0000
,
0000
0000
0000
0000
,
0000
0000
0000
0000
,
0000
0000
0000
0000
,
1000
0000
0100
0000
0010
0001
0000
1000
0001
0000
0010
0001
0000
1000
0001
0000
,
1000
0000
0010
0000
0100
0001
0000
1000
0001
0000
0100
0001
0000
1000
0001
0000
,
1000
0000
0100
0000
0010
0001
0000
0100
0001
0000
0010
0001
0000
0100
0001
0000
,
0010
0000
0100
0000
1000
0010
0000
0100
0001
0000
0010
0100
0000
1000
0001
0000
,
1000
0000
0010
0000
1000
0001
0000
0001
0100
0000
0100
0010
0000
0010
1000
0000
,
0001
0000
0010
0000
0001
1000
0000
1000
0100
0000
0100
0010
0000
0010
0001
0000
,
1000
0000
0010
0000
1000
0100
0000
0100
0010
0000
0010
0001
0000
0001
1000
0000
,
0001
0000
0100
0010
0000
0100
0010
0000
1000
0001
0000
1000
0001
0000
0000
0000
,
0000
0000
1000
0000
0100
0000
0010
0000
0001
0010
0000
0011
0000
0000
0001
1000
,
0001
0000
0100
0000
0010
1000
0000
1010
0000
0000
0010
0000
0100
0000
0010
0000
,
1000
0000
0000
1000
0000
0000
1001
0000
0000
0000
0001
0000
1000
0000
0001
0000
,
0000
0000
0000
0000
0100
0100
0010
0010
,
0110
0000
0001
0000
0100
0000
0001
0000
1000
0100
0000
1100
0000
0000
1000
0001
,
1000
0000
0010
0000
0100
0001
0000
0101
0000
0000
0000
0000
0001
0000
0100
0000
,
0010
0000
0000
0010
0000
0000
0110
0000
0000
0000
1000
0000
0001
0000
1000
0001
,
0000
0000
0000
0000
1000
0100
0010
0001
,
2000
0000
0010
0000
3100
1000
0010
0200
,
1000
0000
0000
0000
0301
0000
0010
0000
0100
0000
0000
1000
0000
0000
0100
0000
,
0020
0000
0031
0002
0000
1003
0010
2000
,
0000
0010
3010
0000
0000
0000
1001
0000
,
1000
0000
0010
0000
0100
0001
0100
0001
0000
1000
0000
0100
1000
0000
0100
0000
,
1000
0000
0001
0000
0010
0001
0010
0001
0000
1000
0000
0010
1000
0000
0010
0000
,
0200
0000
0000
0010
0020
0000
0000
0000
,
0330
0000
0000
0000
0000
0000
0000
0000
0000
0000
0000
0000
0001
0100
0010
0000
,
1000
0000
0100
0010
0000
0100
0010
0000
0001
0000
0100
0010
0000
0100
0010
0000
,
1000
0000
0010
0100
0000
0010
0100
0000
0101
0000
0000
0000
1100
0000
0000
0000
,
1001
0000
0000
0000
0000
0000
0001
0100
0010
0000
1000
0000
0010
0000
1010
0000
,
0000
0000
1000
0100
0010
0000
0011
0000
0000
0000
0001
1000
0001
0000
0000
0000
,
1000
0000
0010
0100
0000
0001
0010
0000
0100
0000
0010
0001
0000
0100
0010
0000
,
1000
0000
0100
0010
0000
0001
0100
0000
0010
0000
0100
0001
0000
0010
0100
0000
,
2000
0000
0000
0000
0001
0000
0000
0000
0010
0000
0000
0000
3001
0100
0001
0000
,
1000
0000
0100
0000
0001
0000
0100
0000
1000
0000
0000
0001
0000
0000
1000
0000
,
2002
0000
0000
0000
,
0000
0000
0000
3003
,
0001
0000
0100
0000
0010
1000
0000
0001
0100
0000
0010
1000
0000
0001
0100
0000
,
0001
0000
0010
0000
0100
1000
0000
0001
0010
0000
0010
0000
0100
0000
0100
0000
,
1000
0000
0001
0000
1000
0100
0000
0100
0001
0000
0001
0010
0000
0010
1000
0000
,
0001
0000
1000
0000
0001
0100
0000
0100
1000
0000
1000
0010
0000
0010
0001
0000
,
1000
0000
0001
0000
1000
0010
0000
0010
0001
0000
0001
0100
0000
0100
1000
0000
,
0001
0000
1000
0000
0001
0010
0000
0010
1000
0000
1000
0100
0000
0100
0001
0000
,
1000
0000
0100
0010
0000
0010
0001
0000
1000
0000
0010
0100
0000
0100
0001
0000
,
1000
0000
0100
0010
0000
0010
0001
0000
1000
0000
0010
0100
0001
0000
0010
0100
,
1000
0000
0000
0000
0000
0000
1000
0100
0001
0000
0100
0000
1000
0000
1001
0000
,
0000
0000
0001
0010
1000
0000
0010
0000
0000
0000
1001
0000
0000
0000
0000
0000
,
1001
0000
0001
0010
0000
0001
0010
0100
1000
0000
0010
1000
0000
0010
1000
0001
,
0100
0000
0001
1000
0000
0100
0010
0001
1000
0000
0001
1000
0000
0010
0100
0001
,
2000
0100
0010
0100
,
3002
0000
0000
0000
0100
0000
0000
0000
0010
0000
0000
0000
0103
0010
1000
0000
,
0001
0000
0100
1000
0000
0100
0010
1000
0100
0000
0001
0100
0000
0010
0001
0100
,
0010
0000
0001
0010
0000
1000
0001
0010
0100
0000
1000
0010
0100
0000
0001
0010
,
0100
0000
0000
0000
0110
0000
1000
0010
0001
0000
0010
0000
1000
0000
1001
0000
,
0000
0000
0001
0100
1000
0000
0100
0000
0010
0000
1000
0000
1001
0000
0000
0000
,
0001
0100
0010
1000
0000
1000
0001
0000
1000
0100
0010
0001
0000
0001
1000
0000
,
0001
1000
0010
0100
0000
0100
0001
0000
1000
0001
0010
0100
0000
0100
1000
0000
,
0002
0000
0000
0000
1000
0000
0000
0000
0103
0000
0000
0000
0001
1000
0001
0000
,
0100
0010
1000
0000
0100
0010
0001
0000
1000
0000
0010
0100
0000
0100
0001
0000
,
1001
0000
0000
0000
,
0000
0000
0000
0000
;
#NOTES:
     dance-double:
     :
     Easy:
     6:
     :
00000000
00000000
00000000
00000000
,
00000000
00000000
00000000
00000000
,
00000000
00000000
00000000
00000000
,
00000000
00000000
00000000
00000000
,
00000000
00000000
00000000
00000000
,
00000020
00000000
00000000
00000030
,
00002000
00000000
00000000
00003000
,
00010000
00000000
00100000
00000000
,
10000000
00000000
01000000
00000000
,
00010000
00000000
00001000
00000100
,
00000001
00000000
00000100
00001000
,
00010000
00000000
01000000
10000000
,
01000000
00010000
00001000
00000010
,
00000001
00000100
00002000
00003000
,
00010000
00100000
20000000
30000000
,
01000000
00010000
00002000
00003000
,
00000100
00000001
00000100
00001000
,
00010000
00100000
10000000
10000000
,
00100000
00010000
00001000
00001000
,
00000010
00000001
00000010
00000010
,
00001000
00010000
00110000
00010000
,
00002000
00000000
00000100
00003100
,
00000002
00000000
00000103
00001000
,
00020000
00130000
20000000
31000000
,
00010000
00002000
00000000
00003000
,
00000010
00000001
00000100
00001000
,
00010000
00100000
10000000
01000000
,
00020000
00030000
00002000
00003000
,
00000100
00000001
00000100
00001000
,
00010000
00000000
00110000
00000000
,
00010000
00001000
00001010
00001010
,
00020000
00000000
00100000
10030000
,
00020000
00000000
00031000
00000010
,
00000001
00000100
00001000
00010000
,
01000000
10000000
01000000
00010000
,
00002000
00000000
00000100
00003100
,
00000001
00000100
00001000
00010000
,
00200000
00000000
10300000
01000000
,
00020000
00000000
00031000
00000010
,
00000002
00000000
00000103
00001000
,
00020000
00000000
01030000
10000000
,
01000000
00020000
00031000
00000100
,
00000001
00000200
00001300
00010000
,
00100000
20000000
30100000
00010000
,
00001000
00000010
00001000
00001010
,
00022000
00003000
02000000
00030000
,
20000000
03000000
02000000
30000000
,
00010000
03010000
00001000
00000010
,
00000001
00000100
00001000
00010000
,
00100000
20000000
30100000
00020000
,
00031000
00002000
00003100
00000200
,
00000302
00000000
00000100
00000103
,
00002200
00003300
00022000
00033000
,
00200000
00300000
20000000
30000000
,
02000000
03010000
00002000
00003010
,
00000002
00000003
00000100
00000100
,
00001000
00010000
00100000
10000000
,
00100000
00010000
00001000
00000100
,
00000001
00000100
00001000
00010000
,
00200000
00300000
10000000
01000000
,
00010000
00001000
00000001
00001000
,
00002002
00000000
00000000
00003003
,
00000000
00000000
00000000
00000000
;
#NOTES:
     dance-double:
     :
     Medium:
     10:
     :
00000000
00000000
00000000
00000000
,
00000000
00000000
00000000
00000000
,
00000000
00000000
00000000
00000000
,
00000000
00000000
00000000
00000000
,
00000000
00000000
00000000
00000000
,
00200000
00000000
00000000
00000000
,
00020000
00000000
00000000
00300000
,
02000000
00030000
03002000
00003000
,
00000020
00000000
00002000
00000030
,
00000200
00000000
00003000
00000000
00001300
00000010
00000000
00000000
,
00000002
00000000
00000000
00000000
00000103
00001000
00000000
00010000
,
02000000
00000000
00000000
00000000
,
03000000
00000000
00000000
00000000
,
10000000
01000000
10000000
00000000
01000000
00000000
00010000
00000000
,
00001000
00000000
00000100
00001000
00010000
00000000
00000010
00000000
,
00000001
00000100
00002000
00010000
,
00000200
00003300
00020000
00030000
,
00001000
00000100
00001000
00000000
00010000
00000000
00100000
00000000
,
00010000
00000000
01000000
00010000
00001000
00000000
00100000
00000000
,
10000000
01000000
00020000
00001000
,
02000000
03030000
00001000
00000010
,
00000200
00000000
00000000
00000000
00000000
00000300
00000100
00000000
,
00002000
00000000
00000000
00013000
00001000
00000000
00000100
00000000
,
00010000
01000000
10000000
00100000
,
00010000
00001000
00000100
00000000
00000000
00000000
00001000
00000000
,
00000010
00000001
00000100
00000000
00001000
00000100
00001000
00000000
,
00010000
00001000
01000000
00000000
10000000
01000000
10000000
00000000
,
02000000
00000000
00000000
03010000
00200000
00000000
00000000
00000000
,
00000000
00000000
10000000
00000000
10000000
00000000
00310000
00001000
,
00000010
00000000
00000000
00001000
00000000
00000000
00000100
00000000
00000001
00000000
00000000
00000100
00000000
00000000
00001000
00000000
,
00010000
00000000
00000000
00001000
00000000
00000000
00000010
00000000
00010000
00000000
00000000
00000000
00100000
00000000
00000000
00000000
,
10000000
00000000
01000000
00010000
,
00001000
00000000
00000000
00000100
00000000
00001100
00000000
00000000
,
00100000
00000000
00000000
00010000
00000000
00000000
01000000
00000000
10000000
00000000
00000000
01000000
00000000
00000000
00010000
00000000
,
00001000
00000000
00000000
00010000
00000000
00000000
00100000
00000000
00001000
00000000
00000000
00000000
00000010
00000000
00000000
00000000
,
00000001
00000000
00000000
00000000
00000000
00000000
00000010
00000001
,
00000010
00001000
00010000
00100000
,
20000000
00000000
00000000
31000000
00010000
00000000
00000000
00000000
,
00100000
00010000
00000000
00000000
00001000
00010000
00000000
00000000
,
00002000
00000000
00000000
00003010
00001000
00000000
00000000
00000000
,
00000010
00000001
00000000
00000000
00000100
00001000
00000100
00000000
,
00000002
00000000
00000000
00000103
00001000
00000000
00000000
00000000
,
00000010
00001000
00000000
00000000
00010000
00001000
00000000
00000000
,
00020000
00000000
00000000
00130000
00010000
00000000
00000000
00000000
,
00100000
10000000
00000000
00000000
01000000
00010000
00001000
00000000
,
00000010
00000000
00000000
00001000
00000000
00000000
00000100
00000000
00000001
00000000
00000000
00000100
00000000
00000000
00001000
00000000
,
00010000
00000000
00000000
00001000
00000000
00000000
00000010
00000000
00010000
00000000
00000000
00000000
00100000
00000000
00000000
00000000
,
10000000
00000000
01000000
00010000
,
00001000
00000000
00000000
00000100
00000000
00001100
00000000
00000000
,
00100000
00000000
00000000
00010000
00000000
00000000
01000000
00000000
10000000
00000000
00000000
01000000
00000000
00000000
00010000
00000000
,
00001000
00000000
00000000
00010000
00000000
00000000
00100000
00000000
00001000
00000000
00000000
00000000
00000010
00000000
00000000
00000000
,
00000002
00000000
00000000
00000000
,
00000020
00000000
00000003
00000000
00001030
00000000
01000000
00010000
,
00100000
00000000
00000000
00010000
00000000
00000000
01000000
00000000
10000000
00000000
00000000
01000000
00000000
00000000
00010000
00000000
,
00001000
00000000
00000000
00010000
00000000
00000000
00100000
00000000
00001000
00000000
00000000
00000000
00000010
00000000
00000000
00000000
,
00000001
00000000
00000000
00000000
00000100
00000000
00001000
00010000
,
01000000
00000000
00000000
00010000
00000000
00011000
00000000
00000000
,
00000010
00000000
00000000
00001000
00000000
00000000
00000100
00000000
00000001
00000000
00000000
00000100
00000000
00000000
00001000
00000000
,
00010000
00000000
00000000
00001000
00000000
00000000
00000010
00000000
00010000
00000000
00000000
00001000
00000000
00000000
00100000
00000000
,
20000000
00000000
00000000
30100000
,
00010000
00000000
00000000
00000000
00001000
00000000
00000000
00000000
00000100
00000000
00000000
00001000
00000000
00000000
00000010
00000000
,
00000001
00000000
00000000
00000000
,
00000000
00000000
00000000
00000000
;
#NOTES:
     dance-double:
     :
     Hard:
     12:
     :
00000000
00000000
00000000
00000000
,
00000000
00000000
00000000
00000000
,
00000000
00000000
00000000
00000000
,
00000000
00000000
00000000
00000000
,
00000000
00000000
00000000
00000000
,
01000000
00010000
00100000
00010000
00000000
00010000
00001000
00000100
,
00000010
00000100
00000001
00001000
00000000
00000100
00010000
00000000
,
01000000
10000000
00100000
01000000
00000000
10000000
01000000
00010000
,
00001000
00000100
00000010
00000100
00000000
00000001
00000100
00001000
,
00010000
00001000
00100000
10000000
00000000
01000000
00100000
00000000
,
01000000
00010000
00001000
00000100
00000000
00000010
00000100
00000000
,
00010000
00100000
01000000
00010000
00000000
00001000
00010000
00100000
,
01000000
00100000
00001000
00010000
,
00011000
00000000
00110000
00000000
01000000
00100000
10000000
00000000
,
00010000
00000000
00001000
00000100
00000010
00000100
00000010
00000000
,
00001000
00000000
00010000
00000000
01000000
00100000
01000000
00000000
,
00010000
01000000
00120000
00031000
,
00001100
00000000
00000010
00000100
00000010
00001000
00010000
00000000
,
01000000
00000000
00100000
10000000
01000000
00010000
00001000
00000000
,
00000100
00000000
00000010
00001000
00010000
00001000
01000000
00000000
,
00100000
00000000
10000000
00000000
00100000
00010000
00001000
00000100
,
00000010
00000000
00001000
00010000
00100000
10000000
00100000
00000000
,
01000000
00010000
00001000
00010000
00000100
00000010
00000001
00000000
,
00000100
00001000
00010000
01000000
00100000
10000000
00100000
00000000
,
00010000
00100000
00010000
00001000
00010000
00000100
00000010
00000000
,
00000001
00001000
00000100
00001000
00010000
01000000
10000000
00000000
,
01000000
00100000
10000000
00010000
01000000
00001000
00010000
00000000
,
00022000
00000000
00033000
00001000
00100000
00000000
00100000
00010000
,
20200000
00000000
00000000
00000000
00000000
30300000
01000000
00010000
,
00001000
00000000
00000100
00000000
00000010
00001000
00010000
00001000
,
01000000
10000000
00110000
10100000
,
22000000
00000000
33000000
00010000
00001000
00000100
00001000
00000000
,
00000100
00000000
00000010
00001000
00010000
00001000
00100000
00000000
,
01000000
00000000
00010000
00100000
00001000
00000000
00000100
00000010
,
00001000
00000000
00000010
00000100
00001000
00000000
00010000
00100000
,
10000000
00000000
01000000
00000000
00010000
00000000
00001000
00000100
,
00001000
00000000
00010000
00000000
01000000
00000000
01000000
00010000
,
02200000
00000000
00000000
03300000
,
00022000
00000000
00000000
00033000
,
00000100
00000010
00001000
01000000
,
00100000
00000000
10000000
00000000
01000000
00010000
00100000
00000000
,
00100000
00010000
00001000
00000100
00000010
00000100
00001000
00000000
,
00010000
01000000
00100000
00010000
00001000
00010000
00000100
00000000
,
00001000
00010000
01000000
00010000
00100000
00000000
00001000
00000000
,
00000010
00001000
00010000
00001000
00100000
01000000
00100000
00000000
,
00010000
00001000
00010000
00000000
01000000
00010000
00100000
00000000
,
00001000
00000010
00000100
00000000
00001100
00000000
00011000
00000000
,
02020000
00000000
03030000
10000000
00100000
00010000
00001000
00000100
,
00000010
00000000
00001000
00010000
00001000
00010000
01000000
00000000
,
00100000
00000000
00010000
00001000
00000100
00000000
00000010
00001000
,
00010000
00000000
01000000
00010000
10000000
00000000
01000000
00010000
,
00001000
00000100
00001000
00000100
,
00100000
00000000
01000000
00000000
00010000
00000000
00100000
01000000
,
00001000
00000000
00000100
00000010
00001000
00000000
00010000
00100000
,
01000000
00010000
11000000
01100000
,
00022000
00000000
00033000
00001000
00000100
00000001
00000100
00000000
,
00001000
00000000
00010000
00001000
01000000
00010000
01000000
00000000
,
00100000
00000000
00010000
00001000
00000100
00000000
00000010
00000000
,
00000100
00000000
00010000
00001000
00010000
00000000
01000000
00100000
,
01000000
10000000
01000000
00100000
,
00001000
00000100
00000010
00001000
00000001
00000000
00000100
00000000
,
00002002
00000000
00000000
00003003
,
00000000
00000000
00000000
00000000
;
#NOTES:
     dance-double:
     :
     Challenge:
     15:
     :
00000000
00000000
00000000
00000000
,
00000000
00000000
00000000
00000000
,
00000000
00000000
00000000
00000000
,
00000000
00000000
00000000
00000000
,
00000000
00000000
00000000
00000000
,
10000000
00000000
00100000
00000000
10000000
01000000
00000000
01000000
00010000
00000000
00010000
00001000
00000000
00001000
00000010
00000000
,
00000001
00000000
00000100
00000000
00001000
00000100
00000000
00000010
00000100
00000000
00000001
00000100
00000000
00000001
00001000
00000000
,
00000001
00000000
00000010
00000000
00000001
00000100
00000000
00000100
00001000
00000000
00001000
00010000
00000000
00010000
00100000
00000000
,
10000000
00000000
01000000
00000000
00010000
01000000
00000000
00100000
01000000
00000000
10000000
01000000
00000000
10000000
00010000
00000000
,
10000000
00000000
00100000
00000000
01000000
00010000
00000000
00010000
00100000
00000000
00100000
00001000
00000000
00001000
00010000
00000000
,
00000010
00000000
00001000
00000000
00000100
00000010
00000000
00000010
00000001
00000000
00000001
00001000
00000000
00001000
00000010
00000000
,
00000100
00000000
00000001
00000000
00000010
00000100
00000000
00000100
00010000
00000000
00010000
00001000
00000000
00001000
01000000
00000000
,
00010000
00000000
00100000
01000000
00000000
01000000
00100000
00000000
00010000
10000000
00000000
10000000
00010000
00000000
00000000
00000000
,
00000000
00000000
10000000
00000000
00100000
00000000
00010000
00000000
00001000
00010000
00000000
00010000
00000000
00000000
00001000
01000000
,
00001000
00000000
00010000
00000000
00000010
00010000
00000000
00011000
00000000
00000000
00001000
00010000
00001000
00000000
00001000
00000000
,
00000010
00000000
00000000
00000001
00000000
00000000
00000001
00000000
00000000
00000000
00000010
00000000
00000100
00000000
00000010
00000000
,
00000000
00000000
00000000
00000000
00000010
00000010
00000100
00000100
,
00000110
00000000
00000001
00000000
00000010
00000000
00001000
00000000
00010000
00001000
00000000
00001000
00000000
00000000
00010000
00000100
,
00010000
00000000
00001000
00000000
00100000
00001000
00000000
00011000
00000000
00000000
00010000
00001000
00010000
00000000
00010000
00000000
,
00100000
00000000
00000000
10000000
00000000
00000000
10000000
00000000
00000000
00000000
00100000
00000000
01000000
00000000
00100000
01000000
,
00000000
00000000
00000000
00000000
10000000
01000000
00100000
00010000
,
20000000
00000000
01000000
00000000
30100000
10000000
01000000
00010000
,
00002000
00000000
00000000
00000000
00003010
00000000
00001000
00000000
00010000
00000000
00000000
00001000
00000000
00000000
00000100
00000000
,
00000002
00000000
00000010
00000010
00000000
00000103
00000100
00000020
,
00000000
00001030
00000020
00000000
00000030
00000000
00000110
00000000
,
00000001
00000000
00000100
00000000
00001000
00010000
00001000
00010000
00000000
00010000
00000000
00010000
00001000
00000000
00011000
00000000
,
00010000
00000000
00100000
00000000
10000000
00010000
10000000
00010000
00000000
00010000
00000000
00010000
10000000
00000000
01000000
00000000
,
02000000
00000000
00000000
00100000
00200000
00000000
00000000
00000000
,
03300000
00000000
00000000
00000000
00000000
00000000
00000000
00000000
00000000
00000000
00000000
00000000
10000000
01000000
00100000
00000000
,
00010000
00000000
10000000
01000000
00000000
01000000
00100000
00000000
00010000
00000000
00100000
00001000
00000000
00001000
00010000
00000000
,
00000100
00000000
00001000
00000010
00000000
00000010
00000100
00000000
00000001
00000000
00000010
00000100
00001000
00000000
00000010
00000100
,
00000001
00000000
00000000
00000000
00000000
00000000
00000001
00000100
00000001
00000000
00000010
00000000
00001000
00000000
00010000
00000000
,
00000000
00000000
00010000
00000100
00001000
00000000
00001010
00000000
00000000
00000000
00001000
00000001
00001000
00000000
00000000
00000000
,
00000001
00000000
00000010
00000001
00000000
00000100
00000010
00000000
00001000
00000000
00000100
00010000
00000000
00001000
00100000
00000000
,
00010000
00000000
01000000
00100000
00000000
10000000
01000000
00000000
00010000
00000000
01000000
10000000
00000000
00100000
01000000
00000000
,
00020000
00000000
00000000
00000000
00100000
00000000
00000000
00000000
01000000
00000000
00000000
00000000
00130000
01000000
10000000
00000000
,
01000000
00000000
00010000
00000000
00001000
00000000
00000010
00000000
00000001
00000000
00000000
00000001
00000000
00000000
00001000
00000000
,
00002002
00000000
00000000
00000000
,
00000000
00000000
00000000
00003003
,
00000001
00000000
00000100
00000000
00000010
00001000
00000000
00000001
00000100
00000000
00000001
00000010
00000000
00000100
00001000
00000000
,
00000100
00000000
00010000
00000000
00001000
00100000
00000000
00010000
01000000
00000000
01000000
00000000
00010000
00000000
00010000
00000000
,
10000000
00000000
00010000
00000000
10000000
01000000
00000000
01000000
00010000
00000000
00010000
00001000
00000000
00001000
00000010
00000000
,
00000001
00000000
00001000
00000000
00000001
00000100
00000000
00000100
00001000
00000000
00001000
00010000
00000000
00010000
00100000
00000000
,
10000000
00000000
00010000
00000000
10000000
01000000
00000000
01000000
00010000
00000000
00010000
00100000
00000000
00100000
10000000
00000000
,
00010000
00000000
10000000
00000000
01000000
00010000
00000000
00010000
00001000
00000000
00001000
00000010
00000000
00000010
00000001
00000000
,
00001000
00000000
00000100
00000010
00000000
00000001
00001000
00000000
00000001
00000000
00000100
00000010
00000000
00010000
00001000
00000000
,
00100000
00000000
00010000
01000000
00000000
00100000
10000000
00000000
00010000
00000000
00100000
00010000
01000000
00000000
00100000
10000000
,
01000000
00000000
00000000
00000000
01100000
00000000
10000000
01000000
00010000
00000000
01000000
00000000
10000000
00000000
10010000
00000000
,
00000000
00000000
10000000
00100000
00010000
00000000
00001000
00000000
00000000
00000000
00001000
00000000
00010000
00000000
00000000
00000000
,
00011000
00000000
00001000
00010000
00000000
00000010
00001000
00000010
00000100
00000000
00000001
00000010
00000000
00000100
00001000
00000001
,
00001000
00000000
00000010
00000100
00000000
00001000
00010000
00001000
00010000
00000000
00100000
01000000
00000000
00100000
01000000
00010000
,
20000000
01000000
00100000
01000000
,
30020000
00000000
00000000
00000000
00100000
00000000
00000000
00000000
01000000
00000000
00000000
00000000
00130000
00001000
00010000
00000000
,
00001000
00000000
00010000
00000010
00000000
00001000
00000100
00000010
00000001
00000000
00000100
00000010
00000000
00001000
00000010
00000100
,
00001000
00000000
00010000
00100000
00000000
01000000
00010000
00100000
01000000
00000000
10000000
00010000
01000000
00000000
00010000
10000000
,
01000000
00000000
00000000
00000000
01100000
00000000
10000000
00100000
00010000
00000000
00001000
00000000
00010000
00000000
00011000
00000000
,
00000000
00000000
00001000
00000010
00000001
00000000
00001000
00000000
00000010
00000000
00000100
00000000
00001001
00000000
00000000
00000000
,
00000001
00000100
00000001
00000100
00000000
00000001
00000010
00000000
00000100
00001000
00000100
00001000
00000000
00000100
00010000
00000000
,
00001000
00010000
00001000
00010000
00000000
01000000
00100000
00000000
01000000
10000000
00010000
10000000
00000000
01000000
00100000
00000000
,
00002000
00000000
00000000
00000000
01000000
00000000
00000000
00000000
00013000
00000000
00000000
00000000
00010000
00001000
00010000
00000000
,
00000100
00001000
00000010
00000000
00000100
00000001
00000010
00000000
00000100
00000000
00010000
00001000
00000000
00001000
00010000
00000000
,
00011000
00000000
00000000
00000000
,
00000000
00000000
00000000
00000000
;
