
//----- song ID: sosp -----//
#TITLE:Something Special;
#ARTIST:nc ft. Jasmine Nii;
#BANNER:Something Special.png;
#BACKGROUND:Something Special-bg.png;
#CDTITLE:./CDTitles/DDR X3 VS 2ndMIX.png;
#MUSIC:Something Special.ogg;
#SAMPLESTART:52.74;
#SAMPLELENGTH:15;
#BPMS:0=95;
#NOTES:
     dance-single:
     :
     Beginner:
     2:
     :
0000
0000
0000
0000
,
0000
0000
0000
0000
,
0000
0000
0000
0000
,
0000
0000
0000
0000
,
0000
0000
0000
0000
,
1000
0000
0000
0000
,
0001
0000
0000
0000
,
1000
0000
0000
0000
,
0001
0000
0000
0000
,
0010
0000
0010
0000
,
0100
0000
0100
0000
,
0001
0000
0001
0000
,
1000
1000
1000
0000
,
0001
0001
0000
0000
,
1000
1000
0000
0000
,
0010
0010
0000
0000
,
0100
0100
0000
0000
,
0001
0001
0000
0000
,
1000
1000
0000
0000
,
0100
0100
0000
0000
,
0001
0001
0000
0000
,
1000
0000
1000
0000
,
0001
0000
0001
0000
,
0010
0010
0010
0000
,
0100
0100
0100
0000
,
0010
0000
0010
0000
,
0100
0000
0100
0000
,
0001
0001
0001
0000
,
1000
1000
1000
0000
,
0010
0000
0010
0000
,
0001
0000
0001
0000
,
1000
1000
1000
0000
,
0100
0100
0100
0000
,
0010
0000
0010
0000
,
0001
0000
0001
0000
,
1000
1000
1000
0000
,
0100
0100
0100
0000
,
1001
0000
0000
0000
,
0010
0000
0010
0000
,
0100
0000
0100
0000
,
1001
0000
0000
0000
,
0000
0000
0000
0000
;
#NOTES:
     dance-single:
     :
     Easy:
     4:
     :
0000
0000
0000
0000
,
0000
0000
0000
0000
,
0000
0000
0000
0000
,
0000
0000
0000
0000
,
0000
0000
0000
0000
,
1000
0000
0000
0000
,
0010
0000
0000
0000
,
0001
0000
1000
0000
,
0010
0000
0100
0000
,
1000
0000
0100
0000
,
0010
0000
0001
0000
,
0001
0100
0000
0000
,
0100
0000
0001
0000
,
1000
1000
0000
0000
,
0001
0010
0001
0000
,
0010
0010
0000
0000
,
0100
0010
0100
0000
,
1000
0100
0001
0000
,
0001
0010
1000
0000
,
0100
1000
0010
0000
,
0010
0001
0100
0000
,
1000
0000
0010
0001
,
0010
0000
1000
0100
,
1000
0000
0001
0010
,
0001
0000
1000
0010
,
0001
0100
1000
0000
,
1000
0010
0001
0000
,
0010
0001
0100
0000
,
0100
1000
0010
0000
,
1000
0100
0001
0000
,
0010
0001
1000
0000
,
1000
0100
0010
0000
,
1000
0010
0100
0000
,
0001
1000
0001
0100
,
0001
0100
0010
1000
,
0100
0001
1000
0010
,
0100
0001
0100
0010
,
2002
0000
0000
0000
,
0000
0000
0000
3003
,
0020
0000
0000
0030
,
0200
0000
0000
0300
,
0000
0000
0000
0000
;
#NOTES:
     dance-single:
     :
     Medium:
     7:
     :
0000
0000
0000
0000
,
0000
0000
0000
0000
,
0000
0000
0000
0000
,
0000
0000
0000
0000
,
0000
0000
0000
0000
,
1000
0000
0001
0000
0000
0010
1000
0000
,
0100
0000
0010
0000
0000
1000
0001
0000
,
0010
0000
0100
0000
0000
0001
1000
0000
,
1000
0000
0010
0000
0000
0100
0001
0000
,
0100
0000
0001
0000
0000
1000
0010
0000
,
0001
0000
0100
0000
0000
0001
1000
0000
,
1000
0000
0100
0000
0000
0010
1000
0000
,
0001
0000
0100
0000
0000
0001
0100
0000
,
2000
0000
0000
0000
3000
0001
0010
0000
,
0200
0000
0000
0000
0300
0001
0010
0000
,
0020
0000
0000
0000
0030
1000
0100
0000
,
1000
0000
0001
0001
0000
0100
0010
0000
,
2000
0000
0000
0000
3000
0010
0010
0000
,
0200
0000
0000
0000
0300
0001
0001
0000
,
0020
0000
0000
0000
0030
1000
1000
0000
,
0010
0000
0000
2002
0000
0000
3003
0000
,
0100
0001
0100
0010
,
0001
0000
1000
0000
0100
0000
0010
0010
,
1000
0010
0100
0010
,
1000
0000
0100
0000
0010
0000
0100
0100
,
0001
1000
0100
0001
,
1000
0000
0100
0000
0010
0000
1000
1000
,
0100
0010
0001
1000
,
0100
0000
1000
0000
0100
0000
0001
0001
,
1000
0001
0100
1000
,
0010
0000
1000
0000
0100
0000
0001
0001
,
1000
0010
0100
0001
,
0100
0000
0010
0000
1000
0000
0100
0100
,
1000
0100
0010
1000
,
0100
0000
0001
0000
1000
0000
0100
0100
,
1000
0001
0010
1000
,
0100
0000
0010
0000
0001
0000
0100
1001
,
2002
0000
0000
0000
,
0000
0000
0000
3003
,
0020
0000
0000
0030
,
0200
0000
0000
0300
,
0000
0000
0000
0000
;
#NOTES:
     dance-single:
     :
     Hard:
     11:
     :
0000
0000
0000
0000
,
0000
0000
0000
0000
,
0000
0000
0000
0000
,
0000
0000
0000
0000
,
0000
0000
0000
0000
,
1000
0000
0001
0000
1000
0000
0000
0100
0000
0000
1000
0000
0001
0000
1000
0000
,
0010
0000
0100
0000
0010
0000
0000
1000
0000
0001
1000
0000
0001
0000
1000
0000
,
0100
0000
1000
0000
0100
0000
0000
1000
0000
0000
0001
0000
0100
0000
0001
0000
,
0010
0000
0100
0000
1000
0000
0000
0100
0000
1000
0100
0000
1000
0000
0001
0000
,
0100
0000
0001
0000
1000
0000
0000
0100
0000
0000
0010
0000
0001
0000
1000
0000
,
0010
0000
0100
0000
0001
0000
0000
1000
0000
0100
1000
0000
0100
0000
0010
0000
,
0001
0000
1000
0000
0010
0000
0000
0100
0000
0000
0010
0000
1000
0000
0001
0000
,
0100
0000
0001
0000
1000
0000
0000
0010
0000
1000
0010
0000
1000
0000
0001
0000
,
0010
0000
0100
0000
0010
0000
0000
0001
0000
0000
1000
0000
0010
0000
1000
0000
,
0001
0000
0100
0000
0001
0000
0000
1000
0000
0000
0001
0000
0010
0000
0100
0000
,
1000
0000
0001
0000
0100
0000
0000
0010
0000
0000
1000
0000
0001
0000
1000
0000
,
0100
0000
0010
0000
0001
0000
0000
1000
0000
0000
0010
0000
0100
0000
0001
0000
,
1000
0000
0100
0000
0010
0000
0000
0001
0000
0000
1000
0000
0010
0000
0100
0000
,
0001
0000
1000
0000
0100
0000
0000
0010
0000
0001
0010
0000
0001
0000
1000
0000
,
0010
0000
0100
0000
0010
0000
0000
1000
0000
0000
0001
0000
1000
0000
0001
0000
,
1000
0000
0000
0000
0010
0000
0000
0000
0100
0000
0000
0000
1000
0000
0100
1000
,
0100
0000
0000
0000
1000
0000
0001
0000
0010
0001
0000
0000
1000
0000
0001
0000
,
0100
0000
0000
0000
0010
0000
1000
0000
0001
1000
0000
0000
0001
0000
0100
0000
,
0010
0000
0000
0000
1000
0000
0100
0000
0010
0001
0000
0000
1000
0000
0001
0000
,
0100
0000
0000
0000
0010
0000
1000
0000
0001
1000
0000
0000
0100
0000
0010
0100
,
0010
0000
0000
0000
0001
0000
1000
0000
0010
1000
0000
0000
0001
0000
1000
0001
,
1000
0000
0000
0000
0100
0000
0010
0000
0001
1000
0000
0000
0010
0000
1000
0010
,
1000
0000
0000
0000
0100
0000
0010
0000
0001
1000
0000
0000
0010
0000
1000
0010
,
0100
0000
0000
0000
0001
0000
1000
0000
0001
0010
0000
0000
0100
0000
1000
0100
,
1000
0000
0000
0000
0010
0000
0100
0000
0001
1000
0000
0000
0001
0000
0010
0000
,
0100
0000
0000
0000
1000
0000
0001
0000
0100
0010
0000
0000
1000
0000
0001
0000
,
1000
0000
0000
0000
0100
0000
0010
0000
0001
1000
0000
0000
0010
0000
0100
0000
,
0001
0000
0000
0000
1000
0000
0001
0000
1000
0010
0000
0000
0100
0000
0001
0100
,
0001
0000
0000
0000
0010
0000
0001
0000
1000
0001
0000
0000
1000
0000
0010
1000
,
0010
0000
0000
0000
0100
0000
0001
0000
1000
0001
0000
0000
0100
0000
0010
0100
,
0001
0000
0000
0000
1000
0000
0100
0000
0010
0001
0000
0000
0100
0000
0001
0100
,
0001
0000
0000
0000
1000
0000
0001
0000
0100
0010
0000
0000
1000
0000
0010
1000
,
0020
0030
2000
3000
,
0200
0300
0020
0030
,
0002
0003
2000
3000
,
0020
0030
0200
0300
,
0000
0000
0000
0000
;
#NOTES:
     dance-double:
     :
     Easy:
     5:
     :
00000000
00000000
00000000
00000000
,
00000000
00000000
00000000
00000000
,
00000000
00000000
00000000
00000000
,
00000000
00000000
00000000
00000000
,
00000000
00000000
00000000
00000000
,
00100000
00000000
00000000
00000000
,
00010000
00000000
00000000
00000000
,
00001000
00000000
00001000
00000000
,
00000100
00000000
00000100
00000000
,
00000010
00000000
00000100
00000000
,
00001000
00000000
00000010
00000000
,
00010000
00000000
01000000
00000000
,
01000000
00000000
00010000
00000000
,
10000000
01000000
00100000
00000000
,
01000000
00100000
00010000
00000000
,
00001000
00000100
00000010
00000000
,
00000100
00001000
00000010
00000000
,
00000001
00000100
00001000
00000000
,
00000100
00001000
00000010
00000000
,
00010000
01000000
00100000
00000000
,
01000000
00100000
10000000
00000000
,
00010000
00001000
00001000
00000000
,
00001000
00000100
00000100
00000000
,
00000100
00000001
00000001
00000000
,
00000010
00001000
00001000
00000000
,
00010000
10000000
01000000
00000000
,
01000000
00100000
10000000
00000000
,
00010000
10000000
01000000
00000000
,
00001000
00010000
00010000
00000000
,
00001000
00000100
00000010
00000000
,
00000100
00001000
00000010
00000000
,
00000001
00000010
00000100
00000000
,
00001000
00010000
00001000
00000000
,
00010000
01000000
00010000
10000000
,
01000000
00010000
01000000
00010000
,
00001000
00010000
00001000
00000100
,
00001000
00000100
00001000
00010000
,
00022000
00000000
00000000
00000000
,
00000000
00000000
00000000
00033000
,
00002000
00000000
00000000
00003000
,
00020000
00000000
00000000
00030000
,
00000000
00000000
00000000
00000000
;
#NOTES:
     dance-double:
     :
     Medium:
     7:
     :
00000000
00000000
00000000
00000000
,
00000000
00000000
00000000
00000000
,
00000000
00000000
00000000
00000000
,
00000000
00000000
00000000
00000000
,
00000000
00000000
00000000
00000000
,
00100000
00000000
00010000
00000000
00000000
00010000
00010000
00000000
,
00001000
00000000
00000100
00000000
00000000
00001000
00000100
00000000
,
00000010
00000000
00000100
00000000
00000000
00001000
00001000
00000000
,
00010000
00000000
01000000
00000000
00000000
00100000
00010000
00000000
,
01000000
00000000
00010000
00000000
00000000
00001000
00001000
00000000
,
00000100
00000000
00001000
00000000
00000000
00010000
00010000
00000000
,
01000000
00000000
00100000
00000000
00000000
00010000
00010000
00000000
,
00001000
00000000
00000100
00000000
00000000
00000010
00001000
00000000
,
00001000
00000000
00000010
00000000
00000000
00001000
00001000
00000000
,
00010000
00000000
01000000
00000000
00000000
00100000
00010000
00000000
,
00001000
00000000
00000100
00000000
00000000
00000010
00000010
00000000
,
00001000
00000000
00010000
00000000
00000000
00100000
00100000
00000000
,
02000000
00000000
00000000
00000000
03000000
00010000
00010000
00000000
,
00002000
00000000
00000000
00000000
00003000
00000100
00000100
00000000
,
00001000
00010000
01000000
00010000
,
00001000
00000100
00001000
00010000
,
01000000
00010000
01000000
00100000
,
00010000
00000000
00001000
00000000
00000100
00000000
00000010
00000010
,
00001000
00000010
00000100
00001000
,
00010000
00000000
01000000
00000000
00100000
00000000
01000000
01000000
,
10000000
00000000
00100000
00100000
00010000
00000000
01000000
00000000
,
00010000
00000000
00001000
00000000
00000010
00000000
00000001
00000001
,
00000100
00000000
00001000
00001000
00010000
00000000
01000000
00000000
,
10000000
00000000
00100000
00000000
00010000
00000000
00100000
00100000
,
10000000
00000000
00100000
00100000
00010000
00000000
01000000
00000000
,
00010000
00000000
00001000
00000000
00000010
00000000
00000001
00000001
,
00000100
00000000
00001000
00001000
00010000
00000000
01000000
00000000
,
10000000
00000000
00100000
00000000
00010000
00000000
00100000
00100000
,
10000000
00000000
00100000
00100000
00010000
00000000
01000000
00000000
,
00010000
00000000
00001000
00000000
00000010
00000000
00000001
00000001
,
00000100
00000000
00001000
00001000
00010000
00000000
01000000
00000000
,
10000000
00000000
00100000
00000000
00010000
00000000
00100000
10010000
,
20020000
00000000
00000000
00000000
,
00000000
00000000
00000000
30030000
,
00200000
00000000
00000000
00300000
,
02000000
00000000
00000000
03000000
,
00000000
00000000
00000000
00000000
;
#NOTES:
     dance-double:
     :
     Hard:
     11:
     :
00000000
00000000
00000000
00000000
,
00000000
00000000
00000000
00000000
,
00000000
00000000
00000000
00000000
,
00000000
00000000
00000000
00000000
,
00000000
00000000
00000000
00000000
,
10000000
00000000
01000000
00000000
00010000
00000000
00000000
00001000
00000000
00000000
00000100
00000000
00000001
00000000
00001000
00000000
,
00000010
00000000
00000100
00000000
00000001
00000000
00000000
00001000
00000000
00000100
00001000
00000000
00010000
00000000
01000000
00000000
,
00010000
00000000
10000000
00000000
00010000
00000000
00000000
01000000
00000000
00000000
00010000
00000000
00001000
00000000
00000100
00000000
,
00000010
00000000
00000001
00000000
00001000
00000000
00000000
00000100
00000000
00001000
00000100
00000000
00010000
00000000
01000000
00000000
,
10000000
00000000
01000000
00000000
10000000
00000000
00000000
00010000
00000000
00000000
00100000
00000000
00010000
00000000
10000000
00000000
,
01000000
00000000
00010000
00000000
00001000
00000000
00000000
00000100
00000000
00000001
00000010
00000000
00000001
00000000
00001000
00000000
,
00000100
00000000
00001000
00000000
00010000
00000000
00000000
01000000
00000000
00000000
00100000
00000000
10000000
00000000
00010000
00000000
,
01000000
00000000
00010000
00000000
00001000
00000000
00000000
00000100
00000000
00000010
00000001
00000000
00001000
00000000
00000100
00000000
,
00001000
00000000
00000001
00000000
00001000
00000000
00000000
00000100
00000000
00000000
00001000
00000000
00010000
00000000
01000000
00000000
,
00010000
00000000
10000000
00000000
00010000
00000000
00000000
01000000
00000000
00000000
00010000
00000000
00001000
00000000
00000100
00000000
,
00000010
00000000
00000001
00000000
00001000
00000000
00000000
00000100
00000000
00000000
00001000
00000000
00010000
00000000
01000000
00000000
,
00100000
00000000
10000000
00000000
00010000
00000000
00000000
10000000
00000000
00000000
01000000
00000000
00100000
00000000
00010000
00000000
,
01000000
00000000
00010000
00000000
00001000
00000000
00000000
00000100
00000000
00000000
00000010
00000000
00000001
00000000
00001000
00000000
,
00000010
00000000
00000100
00000000
00000001
00000000
00000000
00001000
00000000
00000100
00001000
00000000
00010000
00000000
01000000
00000000
,
00100000
00000000
10000000
00000000
00010000
00000000
00000000
10000000
00000000
00000000
01000000
00000000
00100000
00000000
01000000
00000000
,
00010000
00000000
00000000
00000000
00001000
00000000
00000000
00000000
00000100
00000000
00000000
00000000
00001000
00000000
00000001
00001000
,
00000100
00000000
00000000
00000000
00001000
00000000
00010000
00000000
01000000
00010000
00000000
00000000
10000000
00000000
00010000
00000000
,
00100000
00000000
00000000
00000000
00010000
00000000
00100000
00000000
00010000
10000000
00000000
00000000
01000000
00000000
00010000
00000000
,
00001000
00000000
00000000
00000000
00000100
00000000
00000001
00000000
00000010
00000001
00000000
00000000
00001000
00000000
00000001
00000000
,
00000100
00000000
00000000
00000000
00001000
00000000
00010000
00000000
01000000
00100000
00000000
00000000
00010000
00000000
10000000
00010000
,
01000000
00000000
00000000
00000000
00010000
00000000
00001000
00000000
00000100
00001000
00000000
00000000
00000001
00000000
00001000
00000001
,
00000100
00000000
00000000
00000000
00001000
00000000
00010000
00000000
01000000
10000000
00000000
00000000
00100000
00000000
10000000
00100000
,
10000000
00000000
00000000
00000000
01000000
00000000
00010000
00000000
00001000
00010000
00000000
00000000
00001000
00000000
00000100
00000001
,
00001000
00000000
00000000
00000000
00000010
00000000
00000100
00000000
00001000
00010000
00000000
00000000
01000000
00000000
00100000
01000000
,
10000000
00000000
00000000
00000000
01000000
00000000
00010000
00000000
00001000
00010000
00000000
00000000
00001000
00000000
00000100
00000000
,
00000001
00000000
00000000
00000000
00001000
00000000
00000010
00000000
00000100
00000001
00000000
00000000
00001000
00000000
00000100
00000000
,
00001000
00000000
00000000
00000000
00010000
00000000
01000000
00000000
00010000
10000000
00000000
00000000
01000000
00000000
00100000
00000000
,
01000000
00000000
00000000
00000000
00010000
00000000
00001000
00000000
00000100
00000010
00000000
00000000
00001000
00000000
00000001
00001000
,
00000100
00000000
00000000
00000000
00001000
00000000
00010000
00000000
01000000
00010000
00000000
00000000
10000000
00000000
00100000
10000000
,
01000000
00000000
00000000
00000000
00010000
00000000
00001000
00000000
00000100
00000010
00000000
00000000
00001000
00000000
00000100
00001000
,
00000100
00000000
00000000
00000000
00001000
00000000
00010000
00000000
01000000
00010000
00000000
00000000
10000000
00000000
00010000
10000000
,
01000000
00000000
00000000
00000000
00010000
00000000
00001000
00000000
00000100
00000001
00000000
00000000
00001000
00000000
00000100
00001000
,
00000200
00000300
00002000
00003000
,
00020000
00030000
20000000
30000000
,
02000000
03000000
00020000
00030000
,
00002000
00003000
00020000
00030000
,
00000000
00000000
00000000
00000000
;
