
//----- song ID: sigs -----//
#TITLE:SigSig;
#ARTIST:kors k;
#BANNER:SigSig.png;
#BACKGROUND:SigSig-bg.png;
#CDTITLE:./CDTitles/bm IIDX12 HAPPY SKY.png;
#MUSIC:SigSig.ogg;
#SAMPLESTART:77.78;
#SAMPLELENGTH:15;
#BPMS:0=179;
#NOTES:
     dance-single:
     :
     Beginner:
     3:
     :
0000
0000
0000
0000
,
0000
0000
0000
0000
,
0000
0000
0000
0000
,
0000
0000
0000
0000
,
0000
0000
0000
0000
,
1000
0000
0000
0000
,
0001
0000
0000
0000
,
1000
0000
0000
0000
,
0001
0000
0000
0000
,
0010
0000
0000
0000
,
0000
0000
0000
0000
,
0100
0000
0000
0000
,
0000
0000
0000
0000
,
0010
0000
0000
0000
,
1000
0000
0000
0000
,
0001
0000
0001
0000
,
1000
0000
1000
0000
,
0000
0000
0000
0000
,
0001
0000
0000
0000
,
0010
0000
0010
0000
,
1000
0000
0000
0000
,
0001
0000
0001
0000
,
1000
0000
0000
0000
,
0100
0000
0100
0000
,
0010
0000
0000
0000
,
1000
0000
1000
0000
,
0010
0000
0000
0000
,
0001
0000
1000
0000
,
0100
0000
0000
0000
,
1000
0000
0001
0000
,
0010
0000
0000
0000
,
0001
0000
1000
0000
,
0100
0000
0000
0000
,
1000
0000
0001
0000
,
1000
1000
1000
0000
,
0001
0000
0001
0000
,
0100
0100
0100
0000
,
0010
0000
0010
0000
,
0001
0001
0001
0000
,
1000
0000
1000
0000
,
0010
0010
0010
0000
,
0100
0000
0100
0000
,
0002
0000
0000
0000
,
0003
0000
0000
0000
,
2000
0000
0000
0000
,
3000
0000
0000
0000
,
0020
0000
0000
0000
,
0030
0000
0000
0000
,
0200
0000
0000
0000
,
0300
0000
0000
0000
,
0001
0000
0000
0000
,
0001
0001
0001
0000
,
0010
0000
0000
0000
,
0010
0010
0010
0000
,
1000
0000
1000
0000
,
0001
0000
0001
0000
,
1000
0000
0001
0000
,
1000
1000
1000
0000
,
0010
0000
1000
0000
,
0010
0010
0010
0000
,
1000
0000
0100
0000
,
1000
1000
1000
0000
,
0001
0000
0010
0000
,
0001
0001
0001
0000
,
1000
0000
0001
0000
,
1000
1000
1000
0000
,
0010
0000
0001
0000
,
0010
0010
0010
0000
,
0001
0000
0100
0000
,
0001
0001
0001
0000
,
1000
0000
0010
0000
,
1000
1000
1000
0000
,
0001
0000
1000
0000
,
0001
0001
0001
0000
,
1000
0000
0000
0000
,
0000
0000
0000
0000
,
0100
0000
0000
0000
,
0000
0000
0000
0000
,
0010
0000
0000
0000
,
0000
0000
0000
0000
,
0001
0000
0000
0000
,
0000
0000
0000
0000
,
0001
0000
0000
0000
,
0010
0000
0000
0000
,
1000
0000
0000
0000
,
0100
0000
0000
0000
,
0001
0000
0001
0000
,
0100
0000
0100
0000
,
1000
0000
1000
0000
,
0010
0010
0010
0000
,
1001
0000
0000
0000
,
0000
0000
0000
0000
;
#NOTES:
     dance-single:
     :
     Easy:
     6:
     :
0000
0000
0000
0000
,
0000
0000
0000
0000
,
0000
0000
0000
0000
,
0000
0000
0000
0000
,
0000
0000
0000
0000
,
0001
0000
0000
0000
,
0100
0000
0000
0000
,
1000
0000
0000
0000
,
0001
0000
1001
0000
,
0010
0000
0000
0000
,
0000
0000
0000
1000
,
1000
0000
0000
0000
,
0001
0000
0000
0000
,
0100
0000
0000
0000
,
0010
0000
0000
0000
,
1000
0000
0010
0000
,
0001
1000
0001
1000
,
0200
0000
0000
0300
,
0010
0010
0100
0000
,
0001
0100
0001
0100
,
0010
0010
0100
0000
,
1000
0100
1000
0100
,
0010
0010
0001
0000
,
1000
0001
1000
0001
,
0100
0100
0010
0000
,
1000
0000
0100
0000
,
0010
0010
0100
0000
,
1000
0100
1000
0100
,
0010
0010
0100
0000
,
0001
0100
0001
0100
,
0010
0010
1000
0000
,
0001
1000
0001
1000
,
0100
0100
0010
0000
,
0100
0000
1001
0000
,
0010
0010
1000
1000
,
0100
0001
0100
0001
,
1000
1000
0001
0001
,
0010
0001
0010
0001
,
0100
0100
1000
1000
,
0001
1000
0001
1000
,
0010
0000
0100
0000
,
0001
0100
1000
0100
,
0001
0000
0010
0000
,
0100
1000
0002
0003
,
0100
0000
0010
0000
,
1000
0001
0200
0300
,
0010
0000
1000
0000
,
0001
0010
0100
1000
,
0100
0000
0010
0000
,
1000
0001
2002
3003
,
0010
0000
0010
0000
,
1000
0001
1001
0000
,
0100
0000
0100
0000
,
0010
0100
0110
0000
,
1000
0000
0010
0000
,
1000
0100
0001
0100
,
0010
0000
1000
0000
,
0001
1000
1001
0000
,
0010
0010
1000
0010
,
0100
0001
0100
0000
,
0001
0001
0010
0100
,
1000
0001
1000
0000
,
0010
0010
0100
0001
,
0010
0100
1000
0100
,
0010
0000
0001
0000
,
1000
0001
2002
3003
,
0010
0010
0100
0100
,
0010
0100
0110
0000
,
0001
0001
1000
1000
,
0001
1000
1001
0000
,
0100
0000
0010
0000
,
0001
0010
0100
1000
,
0010
0000
0100
0000
,
1000
0001
2002
3003
,
0002
0000
2003
0000
,
3200
0000
2300
0000
,
3020
0000
2030
0000
,
3002
0000
0023
0000
,
0230
0000
2300
0000
,
3002
0000
0203
0000
,
0320
0000
2030
0000
,
3001
1000
0001
0000
,
0001
0001
0010
0000
,
0010
0010
1000
0000
,
1000
1000
0100
0000
,
0100
0100
0001
0000
,
0001
0001
0010
0000
,
0010
0010
1000
0000
,
1000
1000
0100
0000
,
0001
1000
0001
0000
,
2002
0000
0000
3003
,
0000
0000
0000
0000
;
#NOTES:
     dance-single:
     :
     Medium:
     9:
     :
0000
0000
0000
0000
,
0000
0000
0000
0000
,
0000
0000
0000
0000
,
0000
0000
0000
0000
,
0000
0000
0000
0000
,
2000
0000
3020
0000
,
0230
0000
0302
0000
,
0023
0000
0032
0000
,
1003
0001
1001
0000
,
0110
0000
0000
0000
,
0000
0000
0000
0000
0000
1000
0001
0000
,
0010
0000
0000
0000
0000
0000
0000
0001
,
1000
0000
0000
0100
,
1000
0000
0000
0000
0000
0000
0000
0010
,
0010
0010
0000
0000
0000
0000
0000
0010
,
1000
0000
0000
0001
0010
0000
0000
0100
,
1000
0001
0100
0010
,
0200
0000
0000
0300
,
1010
0000
0100
0000
0010
1000
0100
0000
,
1100
0000
0101
0000
1000
0001
0010
0000
,
1100
0000
0010
0000
0001
1000
0010
0000
,
0110
0000
1001
0000
0010
0001
1000
0000
,
1010
0000
0100
0000
0010
0100
0001
0000
,
1100
0000
0011
0000
0001
1000
0100
0000
,
0110
0000
1001
0000
0100
0001
0010
0000
,
0100
0000
0010
0010
,
0011
0000
0100
0000
0010
0001
0100
0000
,
0101
0000
1100
0000
0001
1000
0010
0000
,
0101
0000
0010
0000
1000
0001
0010
0000
,
0110
0000
1001
0000
0010
1000
0001
0000
,
0011
0000
0100
0000
0010
0100
1000
0000
,
0101
0000
1010
0000
1000
0001
0100
0000
,
0110
0000
1001
0000
0100
1000
0010
0000
,
0100
0010
1001
0000
,
0010
0001
0010
0000
0001
0100
0001
0000
,
0100
1000
0100
0000
0110
0000
1001
0000
,
0100
1000
0100
0000
1000
0010
1000
0000
,
0101
1100
0011
1010
,
0010
1000
0010
0000
1000
0100
1000
0000
,
0100
0001
0100
0000
0110
0000
1001
0000
,
0100
0001
0100
0000
0001
0010
0001
0000
,
1100
0101
1010
0011
,
1000
0000
0010
0000
,
0100
0001
2000
3000
,
0100
0000
0010
0000
,
0001
0000
1000
0000
0200
0000
0300
0010
,
0100
0000
1000
0000
,
0010
1000
0001
0010
,
0100
0100
0010
0010
,
0001
1000
2002
3003
,
0010
0000
0100
0001
0010
0000
0001
0000
,
1100
0101
1001
0000
,
0010
0000
0100
1000
0010
0000
1000
0000
,
0101
1100
0110
0000
,
0001
0000
0100
0010
1000
0000
0100
0000
,
0002
0103
2000
3100
,
0010
0000
0001
0000
0100
0010
0100
0000
,
1010
0101
1100
0000
,
0010
0000
1000
0100
0010
0000
0001
0000
,
1010
0110
0101
0000
,
0010
0000
1000
0001
0010
0000
0100
0000
,
0011
0110
1100
0000
,
1000
0000
0001
1000
0100
0000
1000
0000
,
0010
0101
0010
1100
,
0010
0000
0001
0000
1000
0010
0100
0000
,
0010
0100
2002
3003
,
0010
0000
0001
0010
0001
0000
0100
0000
,
1100
0101
0110
1000
,
0001
0000
0010
0001
0100
0000
0001
0000
,
0011
1001
1100
0010
,
0100
0000
0010
0100
0010
0000
1000
0000
,
1010
0100
0011
0100
,
0010
0000
0100
0000
1000
0001
0100
0000
,
0001
1000
0220
0330
,
2000
0010
3002
0010
,
0203
0010
0302
1000
,
0023
0100
0032
0100
,
2003
0010
3002
0100
,
0023
0100
0032
0100
,
2003
0010
3200
0010
,
2300
0100
3002
0100
,
1003
0001
0110
0000
,
1000
1000
0010
0010
,
0001
0000
0001
0000
0010
0100
0001
0000
,
0100
0100
1000
1000
,
0010
0000
0010
0000
0100
0010
0001
0000
,
0100
0100
0001
0001
,
0010
0000
0010
0000
0001
1000
0100
0000
,
0010
1000
0100
0001
,
1000
0001
0110
0000
,
2002
0000
0000
3003
,
0000
0000
0000
0000
;
#NOTES:
     dance-single:
     :
     Hard:
     12:
     :
0000
0000
0000
0000
,
0000
0000
0000
0000
,
0000
0000
0000
0000
,
0000
0000
0000
0000
,
0000
0000
0000
0000
,
0002
0000
0023
0000
,
0230
0000
2300
0000
,
3020
0000
2030
0000
,
3001
1000
1001
0000
,
0110
0000
0000
0000
,
0000
0000
0000
0000
0000
0001
1000
0100
,
0010
0000
0000
0000
0000
0000
0000
0001
,
1000
0000
0000
0000
0000
0010
0100
0001
,
1000
0000
0000
0000
0000
0000
0000
0100
,
0010
0100
0000
0000
0000
0000
0000
0010
,
0001
0000
0000
1000
0010
0000
0000
0100
,
0001
1000
0100
0010
0100
1000
0100
0010
,
0001
0100
0010
1001
,
1010
0000
0100
0001
0010
0001
0100
0000
,
1100
0000
0010
0001
1000
0001
0010
0100
,
1100
0000
0010
0100
1000
0001
0100
0000
,
0110
0000
0100
0001
0100
0010
1000
0010
,
1010
0000
0001
0010
0100
0010
0001
0000
,
1100
0000
1000
0001
0100
0001
1000
0010
,
0110
0000
0001
0010
0100
1000
0010
0000
,
0100
0000
0000
0010
0100
0010
0100
0000
,
0011
0000
0100
1000
0010
1000
0100
0000
,
0101
0000
0010
1000
0001
1000
0010
0100
,
0101
0000
0010
0100
0001
1000
0100
0000
,
0110
0000
0100
1000
0100
0010
0001
0010
,
0011
0000
1000
0010
0100
0010
1000
0000
,
0101
0000
0001
1000
0100
1000
0001
0010
,
0110
0000
1000
0010
0100
0001
0010
0000
,
0100
0010
1001
0000
,
0010
0000
1000
0000
0000
0010
0100
0000
0010
0000
1000
0000
0100
0000
1000
0000
,
0001
0010
0100
0000
0110
0000
1001
0000
,
0100
0000
0001
0000
0000
1000
0100
0000
0001
0000
0100
0000
1000
0000
0100
0000
,
1100
0101
1010
0011
,
0010
0000
0001
0000
0000
0010
0100
0000
0010
0000
0001
0000
0100
0000
0001
0000
,
1000
0010
0100
0000
0110
0000
1001
0000
,
0100
0000
1000
0000
0000
0001
0100
0000
1000
0000
0100
0000
0001
0000
0100
0000
,
0101
1100
0011
1010
,
0001
0000
0010
0000
,
0100
1000
0002
0003
,
0100
0000
0010
0000
,
1000
0000
0001
0000
0200
0000
0300
0010
,
0100
0001
1000
0100
,
0010
0001
1000
0010
,
0100
0000
0010
0000
,
1000
0001
2002
3003
,
0011
0000
0100
1000
0010
0000
1000
0000
,
0101
0000
1100
0000
1001
0000
0000
0010
,
0100
0000
0010
1000
0001
0000
0010
0000
,
1100
0000
0101
0000
0110
0000
0000
0001
,
1000
0000
0100
0010
0001
0000
0100
0000
,
1100
0000
0101
0000
1010
0000
0011
1000
,
0100
0000
0000
0010
0100
0000
0000
0010
,
0001
0100
0010
1000
0100
0010
0001
0100
,
0010
0000
1001
0001
0100
0010
1000
0000
,
0011
0110
1100
0001
,
0010
0000
0001
1000
0010
0100
0001
0000
,
1010
0000
0110
0000
0101
0000
1000
0100
,
0001
0000
0100
1000
0001
0100
0010
0000
,
1010
0101
0011
1100
,
0010
0000
1000
0001
0010
0100
1000
0100
,
0010
0100
2002
3003
,
0010
1000
0010
1000
0001
1000
0010
0100
,
0101
1100
0110
0001
,
1000
0100
1000
0100
0001
0100
1000
0010
,
1010
0000
1001
0000
0101
0000
0010
0100
,
0010
0000
1000
0100
1000
0000
0001
0000
,
0011
0110
1100
0101
,
0010
0000
0100
0001
1000
0100
0010
0001
,
1000
0010
0220
0330
,
0002
0010
2003
0010
,
3200
0010
2300
0001
,
3020
0100
2030
0100
,
3002
0010
2003
0100
,
3020
0100
2030
0100
,
3002
0010
0203
0010
,
0302
0100
2003
0100
,
3001
1000
0110
0000
,
0001
0010
0001
0000
1000
0100
1000
0000
,
0010
0100
0001
0000
0010
0100
1000
0000
,
0010
0100
0010
0000
1000
0001
1000
0000
,
0100
0010
0001
0000
0100
0010
1000
0000
,
0010
1000
0100
0000
0010
0001
0100
0000
,
0001
1000
0010
0000
1000
0001
0100
0000
,
0010
1000
0100
0010
0001
1000
0010
0100
,
0001
1000
0110
0000
,
2002
0000
0000
3003
,
0000
0000
0000
0000
;
#NOTES:
     dance-single:
     :
     Challenge:
     10:
     :
0000
0000
0000
0000
,
0000
0000
0000
0000
,
0000
0000
0000
0000
,
0000
0000
0000
0000
,
0000
0000
0000
0000
,
0002
0000
0023
0000
,
0230
0000
2300
0000
,
3020
0000
2030
0000
,
3001
1000
1001
MMMM
,
0110
0000
0000
0000
,
MMMM
0000
0000
0000
0000
0001
1000
0000
,
0010
0000
0000
0000
MMMM
0000
0000
1000
,
0001
0000
MMMM
0100
,
0001
0000
0000
0000
MMMM
0000
0000
0010
,
0010
0010
0000
0000
MMMM
0000
0000
0010
,
0001
0000
0000
1000
0010
0000
0000
0100
,
0001
1000
0100
0010
,
0200
0000
0000
0300
,
MMMM
0000
0100
0000
0010
0001
0100
0000
,
MMMM
0000
1100
0000
0001
1000
0010
0000
,
MMMM
0000
0010
0000
1000
0001
0010
0000
,
MMMM
0000
1001
0000
0010
1000
0001
0000
,
MMMM
0000
0100
0000
0010
0100
1000
0000
,
MMMM
0000
1010
0000
1000
0001
0100
0000
,
MMMM
0000
1001
0000
0100
1000
0010
0000
,
0100
0000
0010
0010
,
MMMM
0000
0100
0000
0010
1000
0100
0000
,
MMMM
0000
0101
0000
1000
0001
0010
0000
,
MMMM
0000
0010
0000
0001
1000
0010
0000
,
MMMM
0000
1001
0000
0010
0001
1000
0000
,
MMMM
0000
0100
0000
0010
0100
0001
0000
,
MMMM
0000
0011
0000
0001
1000
0100
0000
,
MMMM
0000
1001
0000
0100
0001
0010
0000
,
0100
0010
1001
MMMM
,
0010
1000
0010
0000
1000
0100
1000
0000
,
0100
0001
0100
0000
0110
0000
MMMM
0000
,
0100
0001
0100
0000
0001
0010
0001
0000
,
1100
0101
1010
MMMM
,
0010
0001
0010
0000
0001
0100
0001
0000
,
0100
1000
0100
0000
0110
0000
MMMM
0000
,
0100
1000
0100
0000
1000
0010
1000
0000
,
0101
1100
0011
MMMM
,
0001
0000
0010
0000
,
0100
1000
0002
0003
,
0100
0000
0010
0000
,
1000
0000
0001
0000
0200
0000
0300
0010
,
0100
0000
0001
0000
,
0010
0001
1000
0010
,
0100
0100
0010
0010
,
1000
0001
2002
3003
,
0010
0000
0100
1000
0010
0000
1000
0000
,
0101
1100
1001
MMMM
,
0010
0000
0100
0001
0010
0000
0001
0000
,
1100
0101
0110
MMMM
,
1000
0000
0100
0010
0001
0000
0100
0000
,
2000
3100
0002
0103
,
0010
0000
1000
0000
0100
0010
0100
0000
,
0011
1100
0101
MMMM
,
0010
0000
0001
0100
0010
0000
1000
0000
,
0011
0110
1100
MMMM
,
0010
0000
0001
1000
0010
0000
0100
0000
,
1010
0110
0101
MMMM
,
0001
0000
1000
0001
0100
0000
0001
0000
,
0010
1100
0010
0101
,
0010
0000
1000
0000
0001
0010
0100
0000
,
0010
0100
2002
3003
,
0010
0000
1000
0010
1000
0000
0100
0000
,
0101
1100
0110
MMMM
,
1000
0000
0010
1000
0100
0000
1000
0000
,
1010
1001
0101
MMMM
,
0100
0000
0010
0100
0010
0000
0001
0000
,
0011
0100
1010
0100
,
0010
0000
0100
0000
0001
1000
0100
0000
,
1000
0001
0220
0330
,
0002
0010
2003
0010
,
3200
0010
2300
0001
,
3020
0100
2030
0100
,
3002
0010
1003
MMMM
,
0020
0100
2030
0100
,
3002
0010
0203
0010
,
0302
0100
2003
0100
,
3001
1000
0110
MMMM
,
0001
0001
0010
0010
,
1000
0000
1000
0000
0010
0100
1000
0000
,
0100
0100
0001
0001
,
0010
0000
0010
0000
0100
0010
1000
0000
,
0100
0100
1000
1000
,
0010
0000
0010
0000
1000
0001
0100
0000
,
0010
0001
0100
1000
,
0001
1000
0110
MMMM
,
2002
0000
0000
3003
,
0000
0000
0000
0000
;
#NOTES:
     dance-double:
     :
     Easy:
     6:
     :
00000000
00000000
00000000
00000000
,
00000000
00000000
00000000
00000000
,
00000000
00000000
00000000
00000000
,
00000000
00000000
00000000
00000000
,
00000000
00000000
00000000
00000000
,
00000001
00000000
00000000
00000000
,
00000100
00000000
00000000
00000000
,
00001000
00000000
00000000
00000000
,
00010000
00000000
00011000
00000000
,
00100000
00000000
00000000
00000000
,
00000000
00000000
00000000
10000000
,
00010000
00000000
00000000
00000000
,
10000000
00000000
00000000
00000000
,
01000000
00000000
00000000
00000000
,
00100000
00000000
00000000
00000000
,
00010000
00000000
00001000
00000000
,
00010000
00001000
00010000
00001000
,
00020000
00000000
00000000
00030000
,
00000010
00000010
00000100
00000000
,
00001000
00000100
00000001
00000100
,
00000010
00000010
00010000
00000000
,
00001000
00010000
00001000
00010000
,
01000000
01000000
00100000
00000000
,
00010000
10000000
00010000
10000000
,
00100000
00100000
01000000
00000000
,
00010000
00000000
00001000
00000000
,
00000100
00000100
00000010
00000000
,
00000001
00000100
00000001
00000100
,
00000010
00000010
00010000
00000000
,
00001000
00010000
00001000
00010000
,
00100000
00100000
10000000
00000000
,
00010000
10000000
00010000
10000000
,
01000000
01000000
00010000
00000000
,
00001000
00000000
00011000
00000000
,
00000010
00000010
00000001
00000001
,
00000100
00001000
00000100
00001000
,
00010000
00010000
01000000
01000000
,
10000000
01000000
10000000
01000000
,
00100000
00100000
00010000
00010000
,
00001000
00010000
00001000
00010000
,
00000010
00000000
00000100
00000000
,
00001000
00000100
00000001
00000100
,
00001000
00000000
00000010
00000000
,
00010000
00001000
00020000
00030000
,
01000000
00000000
00100000
00000000
,
00010000
10000000
02000000
03000000
,
00100000
00000000
00001000
00000000
,
00010000
00000010
00001000
00000001
,
00000100
00000000
00000010
00000000
,
00001000
00000001
00002002
00003003
,
00000010
00000000
00000010
00000000
,
00010000
00001000
00011000
00000000
,
01000000
00000000
01000000
00000000
,
10000000
00010000
10010000
00000000
,
00100000
00000000
00010000
00000000
,
00001000
00000100
00000001
00000100
,
00000010
00000000
00001000
00000000
,
00000001
00001000
00001001
00000000
,
00000010
00000010
00000001
00000010
,
00000100
00001000
00000100
00000000
,
00010000
00010000
00001000
00100000
,
00010000
01000000
00010000
00000000
,
10000000
10000000
00100000
01000000
,
00010000
10000000
01000000
00010000
,
00001000
00000000
00010000
00000000
,
00001000
00010000
00022000
00033000
,
00000010
00000010
00001000
00000100
,
00000010
00000001
00001000
00000000
,
00000001
00000001
00000100
00001000
,
00010000
00001000
00010000
00000000
,
01000000
00000000
00100000
00000000
,
00010000
00100000
01000000
10000000
,
00100000
00000000
00010000
00000000
,
00001000
00010000
00022000
00033000
,
00001000
00000000
00000100
00000000
,
00000001
00000000
00000010
00000000
,
00000001
00000000
00000100
00000000
,
00001000
00000000
00010000
00000000
,
01000000
00000000
10000000
00000000
,
00100000
00000000
10000000
00000000
,
00010000
00000000
01000000
00000000
,
00100000
01000000
00100000
00000000
,
10000000
01000000
10000000
00000000
,
01000000
00010000
00001000
00000000
,
00010000
00001000
00010000
00000000
,
00000010
00001000
00000001
00000000
,
00000100
00000010
00000100
00000000
,
00000010
00001000
00000100
00000000
,
00000010
00001000
00010000
00000000
,
00001000
00010000
00001000
00000000
,
00022000
00000000
00000000
00033000
,
00000000
00000000
00000000
00000000
;
#NOTES:
     dance-double:
     :
     Medium:
     9:
     :
00000000
00000000
00000000
00000000
,
00000000
00000000
00000000
00000000
,
00000000
00000000
00000000
00000000
,
00000000
00000000
00000000
00000000
,
00000000
00000000
00000000
00000000
,
00020000
00000000
00230000
00000000
,
02300000
00000000
23000000
00000000
,
30020000
00000000
02030000
00000000
,
03100000
01000000
10010000
00000000
,
01100000
00000000
00000000
00000000
,
00000000
00000000
00000000
00000000
00000000
00010000
00001000
00000000
,
00010000
00000000
00000000
00000000
00000000
00000000
00000000
00001000
,
00000001
00000000
00000000
00000100
,
00000010
00000000
00000000
00000000
00000000
00000000
00000000
00001000
,
00001000
00001000
00000000
00000000
00000000
00000000
00000000
00000001
,
00000010
00000000
00000000
00000100
00010000
00000000
00000000
00001000
,
01000000
00100000
10000000
01000000
,
00200000
00000000
00000000
00300000
,
00110000
00000000
00001000
00000000
00010000
00000010
00001000
00000000
,
00000101
00000000
00001000
00000000
00000100
00000010
00000001
00000000
,
00001010
00000000
00000100
00000000
00000010
00010000
00001000
00000000
,
00110000
00000000
01000000
00000000
00100000
00010000
01000000
00000000
,
01100000
00000000
00010000
00000000
10000000
00010000
01000000
00000000
,
00011000
00000000
00000100
00000000
00000010
00001000
00000001
00000000
,
00000110
00000000
00001000
00000000
00000001
00000010
00000100
00000000
,
00000010
00000000
00000100
00000100
,
00001010
00000000
00010000
00000000
00001000
00100000
00010000
00000000
,
11000000
00000000
00010000
00000000
01000000
00100000
10000000
00000000
,
00110000
00000000
01000000
00000000
00100000
00001000
00010000
00000000
,
00001010
00000000
00000100
00000000
00000010
00001000
00000100
00000000
,
00000110
00000000
00001000
00000000
00000001
00001000
00000100
00000000
,
00011000
00000000
01000000
00000000
00100000
00010000
10000000
00000000
,
01100000
00000000
00010000
00000000
10000000
00100000
01000000
00000000
,
00100000
01000000
10010000
00000000
,
00100000
10000000
00100000
00000000
10000000
01000000
10000000
00000000
,
01000000
00010000
01000000
00000000
01010000
00000000
00011000
00000000
,
00001000
00000100
00001000
00000000
00000100
00000001
00000100
00000000
,
00001010
00000011
00001010
00000011
,
00000010
00000100
00000010
00000000
00000100
00010000
00000100
00000000
,
00010000
00001000
00010000
00000000
01100000
00000000
10010000
00000000
,
00100000
10000000
00100000
00000000
01000000
00010000
01000000
00000000
,
01100000
10010000
01100000
10010000
,
00100000
00000000
10000000
00000000
,
01000000
00010000
00002000
00003000
,
00000010
00000000
00000001
00000000
,
00001000
00000000
00000010
00000000
00000200
00000000
00000300
00000010
,
00000100
00000000
00001000
00000000
,
00010000
01000000
10000000
00010000
,
01000000
01000000
00100000
00100000
,
10000000
00010000
20020000
30030000
,
00100000
00000000
10000000
01000000
00010000
00000000
00001000
00000000
,
00001010
00000101
00001001
00000000
,
00000100
00000000
00000010
00000001
00000100
00000000
00000010
00000000
,
00001010
00011000
00110000
00000000
,
01000000
00000000
00100000
00010000
10000000
00000000
00100000
00000000
,
20000000
31000000
00020000
01030000
,
00100000
00000000
10000000
00000000
01000000
00100000
01000000
00000000
,
00110000
00011000
00001010
00000000
,
00000100
00000000
00000010
00001000
00000001
00000000
00000010
00000000
,
00010100
00011000
00101000
00000000
,
01000000
00000000
00100000
00010000
10000000
00000000
00100000
00000000
,
01001000
00011000
00010010
00000000
,
00001000
00000000
00000001
00000100
00000010
00000000
00001000
00000000
,
00000010
00011000
00000100
00011000
,
01000000
00000000
10000000
00000000
00010000
00100000
01000000
00000000
,
00100000
01000000
20020000
30030000
,
00100000
00000000
10000000
00010000
01000000
00000000
00100000
00000000
,
01100000
00011000
00000110
00001000
,
00000001
00000000
00000010
00000100
00001000
00000000
00000001
00000000
,
00000110
00011000
01100000
00010000
,
01000000
00000000
00100000
01000000
00100000
00000000
10000000
00000000
,
00100000
01010000
00001000
00011000
,
00000100
00000000
00000001
00000000
00001000
00000100
00000001
00000000
,
00000100
00001000
00002002
00003003
,
00000010
00000010
00001000
00001000
,
00000100
00000010
00001000
00010000
,
01000000
01000000
10000000
10000000
,
00010000
01000000
00100000
10000000
,
01000000
01000000
00010000
00010000
,
00001000
00000010
00000001
00000100
,
00000010
00000010
00000100
00000100
,
00000010
00000100
00001001
00000000
,
00000100
00001000
00010000
00100000
,
01000000
00000000
00010000
00000000
00100000
00010000
10000000
00000000
,
01000000
00010000
00001000
00000010
,
00000100
00000000
00000010
00000000
00000001
00001000
00000100
00000000
,
00000010
00001000
00010000
01000000
,
00100000
00000000
00010000
00000000
10000000
00010000
01000000
00000000
,
00100000
01000000
00001000
00010000
,
00000100
00000010
00001001
00000000
,
00000220
00000000
00000000
00000330
,
00000000
00000000
00000000
00000000
;
#NOTES:
     dance-double:
     :
     Hard:
     12:
     :
00000000
00000000
00000000
00000000
,
00000000
00000000
00000000
00000000
,
00000000
00000000
00000000
00000000
,
00000000
00000000
00000000
00000000
,
00000000
00000000
00000000
00000000
,
00002000
00000000
00003200
00000000
,
00000320
00000000
00000032
00000000
,
00000203
00000000
00002300
00000000
,
00013000
00001000
00011000
00000000
,
01100000
00010000
00000000
00010000
,
00000000
00000000
00010000
00000000
00000000
10000000
00010000
01000000
,
00100000
00000000
10000000
00000000
00000000
00000000
10000000
00010000
,
00010000
00000000
10000000
00000000
00000000
01000000
00100000
00010000
,
00001000
00000000
00000100
00000000
00000000
00000000
00000100
00000100
,
00000010
00000100
00000000
00000000
00000000
00000000
00000010
00000100
,
00000010
00000000
00000000
00000001
00000010
00000000
00000000
00000100
,
00001000
00000010
00010000
00001000
00100000
00010000
01000000
00100000
,
10000000
00010000
10000000
10010000
,
00100000
00000000
01000000
00100000
10000000
00100000
01000000
00000000
,
00100000
00000000
00010000
00001000
00000100
00001000
00010000
00000010
,
00000100
00000000
00000010
00001000
00000001
00000010
00000100
00000000
,
00000010
00000000
00000100
00010000
00001000
00100000
00010000
10000000
,
00100000
00000000
01000000
00010000
10000000
01000000
00010000
00000000
,
01000000
00000000
10000000
00010000
00100000
00001000
00010000
00000100
,
00000010
00000000
00000001
00001000
00000010
00000100
00000001
00000000
,
00001000
00000000
00000000
00000100
00000010
00000100
00000010
00000000
,
00000010
00000000
00000100
00000010
00000001
00000010
00000100
00000000
,
00000010
00000000
00001000
00010000
01000000
00010000
00001000
00100000
,
01000000
00000000
00100000
00010000
10000000
00100000
01000000
00000000
,
00100000
00000000
01000000
00001000
00010000
00000010
00001000
00000001
,
00000010
00000000
00000100
00001000
00000001
00000100
00001000
00000000
,
00000100
00000000
00000001
00001000
00000010
00010000
00001000
01000000
,
00100000
00000000
10000000
00010000
00100000
01000000
10000000
00000000
,
01000000
00100000
10010000
00000000
,
00100000
00000000
10000000
00000000
00000000
01000000
10000000
00000000
00100000
00000000
10000000
00000000
01000000
00000000
00010000
00000000
,
00001000
00000010
00000100
00000000
00000110
00000000
00001001
00000000
,
00000100
00000000
00000001
00000000
00000000
00000010
00000001
00000000
00000100
00000000
00001000
00000000
00010000
00000000
00000000
00000000
,
00001010
00011000
00001010
00011000
,
01000000
00000000
10000000
00000000
00000000
00100000
10000000
00000000
00010000
00000000
00100000
00000000
01000000
00000000
10000000
00000000
,
00010000
01000000
00001000
00000000
00011000
00000000
00001100
00000000
,
00000001
00000000
00001000
00000000
00000000
00000100
00000010
00000000
00000001
00000000
00000100
00000000
00000010
00000000
00000000
00000000
,
00001010
00011000
00001100
00011000
,
00010000
00000000
00100000
00000000
,
01000000
00010000
20000000
30000000
,
01000000
00000000
00010000
00000000
,
00001000
00000000
00010000
00000000
00002000
00000000
00003000
00010000
,
00000100
00001000
00000001
00000010
,
00000100
00000010
00000001
00000100
,
00001000
00000000
00010000
00000000
,
01000000
10000000
20020000
30030000
,
10100000
00000000
01000000
00010000
00100000
00000000
00010000
00000000
,
00011000
00000000
00001100
00000000
00001001
00000000
00000000
00000010
,
00000100
00000000
00000010
00000001
00001000
00000000
00000010
00000000
,
00000101
00000000
00001100
00000000
00011000
00000000
00000000
01000000
,
00010000
00000000
10000000
01000000
00100000
00000000
01000000
00000000
,
10010000
00000000
11000000
00000000
10010000
00000000
01010000
00001000
,
00010000
00000000
00000000
00000100
00000010
00000000
00000000
00000001
,
00001000
00000010
00000100
00000001
00000010
00000100
00010000
00001000
,
00010000
00000000
00110000
00010000
10000000
00000000
00100000
00000000
,
01010000
00011000
01010000
00100000
,
10000000
00000000
01000000
00010000
00001000
00010000
00001000
00000000
,
00001010
00000000
00000110
00000000
00000101
00000000
00001000
00000001
,
00000100
00000000
00000010
00001000
00000100
00000010
00000001
00000000
,
00001100
00011000
00101000
10010000
,
00100000
00000000
10000000
00010000
01000000
10000000
01000000
00010000
,
10000000
01000000
20020000
30030000
,
01000000
00100000
01000000
00100000
00001000
00010000
00001000
00000100
,
00000010
00000100
00001001
00000100
,
00000010
00000001
00000010
00000001
00001000
00000100
00010000
00001000
,
01000000
00000000
00010000
00000000
11000000
00000000
00100000
00010000
,
01000000
00000000
00100000
01000000
00010000
00000000
00100000
00000000
,
11000000
00110000
10100000
01010000
,
00001000
00000000
00010000
00001000
00000100
00000010
00001000
00000100
,
00000010
00000100
00002002
00003003
,
00020000
00000010
00030200
00000010
,
00020300
00000010
00030200
00000010
,
00020300
00001000
02030000
00010000
,
03100000
00100000
00010000
01000000
,
00002000
00100000
02003000
00100000
,
03002000
00100000
02003000
00100000
,
03002000
00010000
00003200
00001000
,
00000301
00001000
00000110
00000000
,
00000001
00000010
00001000
00000000
00010000
01000000
10000000
00000000
,
10000000
00100000
00010000
00000000
00001000
00000100
00000001
00000000
,
00000001
00000010
00001000
00000000
00010000
01000000
10000000
00000000
,
10000000
00100000
00010000
00000000
00001000
00000100
00000001
00000000
,
00000010
00000001
00000100
00000000
00000010
00010000
00001000
00000000
,
00100000
00010000
01000000
00000000
00100000
10000000
01000000
00000000
,
00100000
00010000
10000000
01000000
00010000
00001000
00000010
00000100
,
00001000
00000001
00000110
00000000
,
00002002
00000000
00000000
00003003
,
00000000
00000000
00000000
00000000
;
#NOTES:
     dance-double:
     :
     Challenge:
     10:
     :
00000000
00000000
00000000
00000000
,
00000000
00000000
00000000
00000000
,
00000000
00000000
00000000
00000000
,
00000000
00000000
00000000
00000000
,
00000000
00000000
00000000
00000000
,
00002000
00000000
00003020
00000000
,
00000230
00000000
00000302
00000000
,
00002003
00000000
00003200
00000000
,
00000310
00000100
00001001
MMMMMMMM
,
00000110
00000000
00000000
00000000
,
MMMMMMMM
00000000
00000000
00000000
00000000
00001000
00010000
00000000
,
00001000
00000000
00000000
00000000
MMMMMMMM
00000000
00000000
00010000
,
10000000
00000000
00000000
01000000
,
00100000
00000000
00000000
00000000
MMMMMMMM
00000000
00000000
00010000
,
00010000
00010000
00000000
00000000
00000000
00000000
00000000
10000000
,
00100000
00000000
00000000
01000000
00001000
00000000
00000000
00010000
,
00000100
00000010
00000001
00000100
,
00000020
00000000
00000000
00000030
,
MMMMMMMM
00000000
00010000
00000000
00001000
00100000
00010000
00000000
,
MMMMMMMM
00000000
00010000
00000000
01000000
00100000
10000000
00000000
,
MMMMMMMM
00000000
01000000
00000000
00100000
00001000
00010000
00000000
,
MMMMMMMM
00000000
00000100
00000000
00000010
00001000
00000100
00000000
,
MMMMMMMM
00000000
00001000
00000000
00000001
00001000
00000100
00000000
,
MMMMMMMM
00000000
01000000
00000000
00100000
00010000
10000000
00000000
,
MMMMMMMM
00000000
00010000
00000000
10000000
00100000
01000000
00000000
,
00100000
00000000
01000000
01000000
,
MMMMMMMM
00000000
00001000
00000000
00010000
00000010
00001000
00000000
,
MMMMMMMM
00000000
00001000
00000000
00000100
00000010
00000001
00000000
,
MMMMMMMM
00000000
00000100
00000000
00000010
00010000
00001000
00000000
,
MMMMMMMM
00000000
01000000
00000000
00100000
00010000
01000000
00000000
,
MMMMMMMM
00000000
00010000
00000000
10000000
00010000
01000000
00000000
,
MMMMMMMM
00000000
00000100
00000000
00000010
00001000
00000001
00000000
,
MMMMMMMM
00000000
00001000
00000000
00000001
00000010
00000100
00000000
,
00000010
00000100
00001001
MMMMMMMM
,
00000010
00000001
00000010
00000000
00000001
00000100
00000001
00000000
,
00000100
00001000
00000100
00000000
00001100
00000000
MMMMMMMM
00000000
,
00010000
01000000
00010000
00000000
01000000
10000000
01000000
00000000
,
00110000
10100000
00110000
10100000
,
00100000
01000000
00100000
00000000
01000000
00001000
01000000
00000000
,
00001000
00010000
00001000
00000000
00000110
00000000
MMMMMMMM
00000000
,
00000010
00000001
00000010
00000000
00000100
00001000
00000100
00000000
,
00000110
00001001
00000110
00001001
,
00000010
00000000
00000001
00000000
,
00000100
00001000
00020000
00030000
,
00100000
00000000
10000000
00000000
,
00010000
00000000
00100000
00000000
02000000
00000000
03000000
00100000
,
01000000
00000000
00010000
00000000
,
00001000
00000100
00000001
00001000
,
00000100
00000100
00000010
00000010
,
00000001
00001000
00002002
00003003
,
00000010
00000000
00000001
00000100
00001000
00000000
00010000
00000000
,
00110000
11000000
10010000
MMMMMMMM
,
01000000
00000000
00100000
10000000
01000000
00000000
00100000
00000000
,
00110000
00011000
00001010
MMMMMMMM
,
00000100
00000000
00000010
00001000
00000001
00000000
00000010
00000000
,
00000002
00000103
00002000
00003100
,
00000010
00000000
00000001
00000000
00000100
00000010
00000100
00000000
,
00001010
00011000
00110000
MMMMMMMM
,
01000000
00000000
00100000
00010000
10000000
00000000
00100000
00000000
,
01001000
00011000
00010010
MMMMMMMM
,
00000100
00000000
00000010
00001000
00000001
00000000
00000010
00000000
,
00010100
00011000
00101000
MMMMMMMM
,
00010000
00000000
10000000
01000000
00100000
00000000
00010000
00000000
,
00100000
00011000
01000000
00011000
,
00000100
00000000
00000001
00000000
00001000
00000010
00000100
00000000
,
00000010
00000100
00002002
00003003
,
00000010
00000000
00000001
00001000
00000100
00000000
00000010
00000000
,
00000110
00011000
01100000
MMMMMMMM
,
10000000
00000000
00100000
01000000
00010000
00000000
10000000
00000000
,
01100000
00011000
00000110
MMMMMMMM
,
00000100
00000000
00000010
00000100
00000010
00000000
00000001
00000000
,
00000010
00001100
00010000
00011000
,
01000000
00000000
10000000
00000000
00010000
01000000
10000000
00000000
,
01000000
00010000
20020000
30030000
,
00100000
00100000
00010000
00010000
,
01000000
00100000
00010000
00001000
,
00000100
00000100
00000001
00000001
,
00001000
00000100
00000010
MMMMMMMM
,
00000100
00000100
00001000
00001000
,
00010000
00100000
10000000
01000000
,
00100000
00100000
01000000
01000000
,
00100000
01000000
10010000
MMMMMMMM
,
01000000
00010000
00001000
00000010
,
00000100
00000000
00001000
00000000
00000010
00001000
00000001
00000000
,
00000100
00001000
00010000
00100000
,
01000000
00000000
00100000
00000000
10000000
00010000
01000000
00000000
,
00100000
00010000
00001000
00000100
,
00000010
00000000
00001000
00000000
00000001
00001000
00000100
00000000
,
00000010
00000100
00010000
00001000
,
01000000
00100000
10010000
MMMMMMMM
,
02200000
00000000
00000000
03300000
,
00000000
00000000
00000000
00000000
;
