
//----- song ID: shiz -----//
#TITLE:雫;
#ARTIST:あさき;
#TITLETRANSLIT:Shizuku;
#ARTISTTRANSLIT:Asaki;
#BANNER:Shizuku.png;
#BACKGROUND:Shizuku-bg.png;
#CDTITLE:./CDTitles/pop'n music 12 IROHA.png;
#MUSIC:Shizuku.ogg;
#SAMPLESTART:56.02;
#SAMPLELENGTH:15;
#DISPLAYBPM:210;
#BPMS:0=212,4=210;
#NOTES:
     dance-single:
     :
     Beginner:
     2:
     :
0000
0000
0000
0000
,
0000
0000
0000
0000
,
0000
0000
0000
0000
,
0000
0000
0000
0000
,
0000
0000
0000
0000
,
0000
0000
0000
0000
,
0000
0000
0000
0000
,
0000
0000
0000
0000
,
0000
0000
0000
0000
,
0001
0000
0000
0000
,
1000
0000
0000
0000
,
0010
0000
0000
0000
,
0100
0000
0000
0000
,
0001
0000
0000
0000
,
0010
0000
0000
0000
,
0100
0000
0000
0000
,
1000
0000
0000
0000
,
0001
0000
0001
0000
,
0001
0000
0000
0000
,
1000
0000
1000
0000
,
1000
0000
0000
0000
,
0100
0000
0000
0000
,
0000
0000
0000
0000
,
0001
0000
0000
0000
,
1000
0000
0000
0000
,
0001
0000
0001
0000
,
0001
0000
0000
0000
,
0001
0000
0000
0000
,
1000
0000
1000
0000
,
1000
0000
0000
0000
,
0000
0000
0000
0000
,
0010
0000
0000
0000
,
0100
0000
0000
0000
,
0001
0000
0000
0000
,
0001
0000
0000
0000
,
0001
0000
0001
0000
,
0001
0000
0000
0000
,
1000
0000
0000
0000
,
1000
0000
0000
0000
,
1000
0000
1000
0000
,
1000
0000
0000
0000
,
0100
0000
0000
0000
,
0001
0000
0000
0000
,
0100
0000
0100
0000
,
0100
0000
0000
0000
,
0010
0000
0000
0000
,
0100
0000
0000
0000
,
0010
0000
0010
0000
,
0010
0000
0000
0000
,
1000
0000
0000
0000
,
0100
0000
0000
0000
,
0001
0000
0001
0000
,
0001
0000
0000
0000
,
0100
0000
0100
0000
,
0100
0000
0000
0000
,
1000
0000
1000
0000
,
1000
0000
0000
0000
,
0010
0000
0000
0000
,
0010
0000
0000
0000
,
0001
0000
0001
0000
,
0001
0000
0000
0000
,
1000
0000
1000
0000
,
1000
0000
0000
0000
,
0001
0000
0000
0000
,
0010
0000
0010
0000
,
0010
0000
0000
0000
,
0000
0000
0000
0000
,
0001
0000
0000
0000
,
0100
0000
0000
0000
,
0010
0000
0000
0000
,
0100
0000
0000
0000
,
1000
0000
0000
0000
,
0100
0000
0000
0000
,
0010
0000
0010
0000
,
0010
0000
0000
0000
,
1000
0000
0000
0000
,
0001
0000
0000
0000
,
0100
0000
0000
0000
,
0010
0000
0000
0000
,
1000
0000
0000
0000
,
0001
0000
0001
0000
,
0001
0000
0000
0000
,
0010
0000
0000
0000
,
0100
0000
0100
0000
,
0100
0000
0000
0000
,
1000
0000
0000
0000
,
0001
0000
0000
0000
,
0100
0000
0000
0000
,
0010
0000
0010
0000
,
0100
0000
0000
0000
,
0000
0000
0000
0000
;
#NOTES:
     dance-single:
     :
     Easy:
     5:
     :
0000
0000
0000
0000
,
0000
0000
0000
0000
,
0000
0000
0000
0000
,
0000
0000
0000
0000
,
0000
0000
0000
0000
,
0000
0000
0000
0000
,
0000
0000
0000
0000
,
0000
0000
0000
0000
,
0000
0000
0000
0000
,
0010
0000
0010
0000
,
1000
0000
0000
0000
,
1000
0000
0001
0000
,
0001
0000
0000
0000
,
1000
0000
0001
0000
,
0001
0000
1000
0000
,
1000
0000
0001
0000
,
0100
0000
0000
0000
,
2000
0000
0000
0000
,
3000
0000
1000
0000
,
0002
0000
0000
0000
,
0003
0000
0001
0000
,
0200
0000
0000
0000
,
0300
0000
0000
0000
,
0002
0000
0000
0003
,
2000
0000
0000
3000
,
0010
0000
1000
0000
,
0002
0000
0000
0003
,
0100
0000
0010
0000
,
2000
0000
0000
3000
,
0002
0000
0000
0000
,
0000
0003
0000
0000
,
0010
0000
0000
0000
,
1000
0000
0001
0000
,
0100
0000
0001
0000
,
0001
0000
0000
0000
,
0100
0000
1000
0000
,
1000
0000
0000
0000
,
1000
0000
0001
0000
,
0001
0000
1000
0000
,
0001
0000
1000
0001
,
1000
0000
0000
0000
,
0010
0000
0001
0000
,
0100
0000
0001
0000
,
1000
0000
0010
0000
,
1000
0000
0000
0000
,
0010
0000
0010
0000
,
0100
0000
0100
0000
,
0010
0000
0010
0000
,
0200
0000
0000
0300
,
0010
0000
1000
0000
,
0001
0100
0001
0000
,
0010
0000
0001
0000
,
1000
0100
1000
0000
,
0010
0000
1000
0000
,
0001
0010
0001
0000
,
1000
0000
0100
0000
,
1000
0010
1000
0000
,
0001
0000
0100
0000
,
0010
1000
0010
0000
,
0100
0000
0001
0000
,
0100
0001
0100
0000
,
0010
0000
1000
0000
,
0200
0000
0000
0300
,
0010
0000
0001
0000
,
1000
0000
0010
0100
,
0020
0000
0000
0000
,
0000
0000
0030
0000
,
0100
0000
1000
0000
,
0100
0000
0001
0000
,
1000
0000
0001
0000
,
0100
0000
0001
0000
,
0010
0000
0010
0000
,
1001
0000
0000
0000
,
0200
0000
0000
0000
,
0000
0000
0300
0000
0000
0000
0000
0020
,
0000
0000
0000
0000
,
0000
0000
0030
0000
,
0100
0000
0010
0000
,
1000
0000
0001
0000
,
0100
0000
0010
0000
,
1000
0000
0001
1000
,
0002
0000
0000
0000
,
0000
0000
0003
0000
1000
0000
0000
0020
,
0000
0000
0000
0000
,
0000
0000
0030
0000
,
0100
0000
0010
0000
,
1000
0000
0010
0000
,
0001
0000
0010
0000
,
1000
0000
0001
0010
,
0100
0000
0000
0000
,
0000
0000
0000
0000
;
#NOTES:
     dance-single:
     :
     Medium:
     9:
     :
0000
0000
0000
0000
,
0000
0000
0000
0000
,
0000
0000
0000
0000
,
0000
0000
0000
0000
,
0000
0000
0000
0000
,
0000
0000
0000
0000
,
0000
0000
0000
0000
,
0000
0000
0000
0000
,
0000
0000
0000
0000
,
0010
0001
0100
0001
,
0010
0010
0100
0100
,
1000
0010
0100
0010
,
1000
0010
0100
0001
,
1000
1000
0001
0010
,
0001
0001
1000
0010
,
1000
0100
0010
0001
,
1000
0001
0100
0000
,
0020
0000
1000
1000
,
1030
0000
0001
1000
,
0002
0000
0010
0010
,
0013
0000
0010
0001
,
2000
0000
3002
0000
,
0203
0000
0310
0010
,
2000
0000
0100
0000
,
3002
0000
0100
0003
,
0010
0001
1000
0010
,
0200
0000
0300
0010
,
1000
0100
0010
0001
,
0100
0001
1000
0010
,
0200
0000
0001
0000
,
1000
0000
0301
0000
,
0010
0000
0100
0000
,
0010
0000
1000
0001
1000
0000
0000
0000
,
0100
0100
0001
0010
,
1000
1000
0100
0010
,
0001
0001
0100
0010
,
1000
1000
0001
0001
,
0100
0100
0010
1000
,
0001
0000
1000
0000
0001
0000
1000
0001
,
1000
0001
0100
0010
,
1000
0000
0000
1001
0000
0000
0000
0000
,
0010
1000
0100
1000
,
0010
0001
1000
0100
,
0001
0010
0100
0010
,
0001
0100
1000
0100
,
0010
0100
0001
0100
,
0010
1000
0001
0100
,
0010
1000
0100
0001
,
0020
0100
0130
0000
,
1000
0000
0100
0000
0010
0000
0001
0010
,
0001
0010
0100
1000
,
0001
0000
1000
0100
1000
0000
0010
0000
,
0100
0000
0010
0000
1000
0000
0001
0100
,
0001
0000
0010
0000
0010
0000
0100
1000
,
0100
0010
0001
0100
,
0010
1000
0100
0010
,
0001
0000
0010
0000
0100
0010
0100
0000
,
0001
0000
0010
0000
0100
0000
1000
0010
,
1000
0100
1000
0001
,
1000
0000
0010
1000
0010
0000
0100
0000
,
0001
0000
1000
0000
0001
0000
0010
0100
,
0010
0000
0001
0000
1000
0000
0001
1000
,
0001
1000
0010
0001
,
0100
0000
0010
0000
1000
0000
0010
0100
,
0010
0000
0001
1000
0001
1000
0001
0000
,
2002
0000
0000
0000
,
0000
0000
3003
0000
,
0100
1000
0001
0010
,
0100
0000
0010
0000
0001
0000
1000
0100
,
1000
0000
0010
0000
0010
0000
0010
0100
,
0010
0000
1000
0000
1000
0000
1000
0001
,
1000
0100
0100
0100
,
0110
0000
0000
1010
0000
0000
0101
0000
,
0010
0000
0010
0100
0000
0100
0000
0020
,
0000
0000
1030
0000
0001
0000
1000
0200
,
0000
0000
0310
0000
0001
0000
1000
0200
,
0000
0000
0310
0000
,
0010
0001
0100
0010
,
1000
0001
0100
0010
,
1000
0000
1000
0000
0100
0000
0010
0001
,
0000
0000
0001
1000
0001
1000
0001
0000
,
1001
0000
0001
0100
0000
0010
0000
0200
,
0000
0000
0000
0000
0301
0000
0010
0200
,
0000
0000
1300
0001
0000
0010
0000
2002
,
0000
0000
0000
3003
,
0100
0100
0010
1000
,
0001
0000
1100
0000
0010
0000
0001
1000
,
0001
0000
0100
0000
0010
0000
1000
0001
,
0100
0101
1000
0010
,
1001
0000
0000
0000
,
0000
0000
0000
0000
;
#NOTES:
     dance-single:
     :
     Hard:
     12:
     :
0000
0000
0000
0000
,
0000
0000
0000
0000
,
0000
0000
0000
0000
,
0000
0000
0000
0000
,
0000
0000
0000
0000
,
0000
0000
0000
0000
,
0000
0000
0000
0000
,
0000
0000
0000
0000
,
0000
0000
0000
0000
,
0010
0000
1000
0020
0000
0100
0000
0130
,
0000
0001
1000
0000
1000
0100
0000
0010
,
0000
0010
0001
0000
0002
0100
0000
0103
,
0000
0010
0100
0000
0100
0010
0000
1001
,
0000
0000
1000
0200
0000
0010
0000
0310
,
0000
0001
1000
0000
2000
0100
0000
0100
,
0000
0000
3001
0000
0100
0000
0001
1000
,
0000
0000
0010
0100
0010
0100
0010
0000
,
0101
0000
0010
1000
0100
0000
0010
0000
,
0002
0000
0010
0013
,
0100
0000
0010
1000
0001
0000
0100
0000
,
0020
0000
1000
0130
,
1000
0000
0002
1000
0000
1003
0010
0000
,
0200
0000
0010
0310
,
0100
0000
0001
0100
0001
0000
0010
0000
,
0001
1000
0100
0010
0001
0000
0000
0000
,
1100
0000
0020
0001
0000
0031
1000
0000
,
0100
0000
0010
0000
0001
1000
0001
0000
,
0101
0000
0020
1000
0000
1030
0001
0000
,
0100
0000
0200
0010
0000
0310
1000
0000
,
0002
0100
1000
0103
,
0010
0000
1000
0000
0001
0010
0100
0000
,
0010
0000
0001
0000
1000
0100
0010
0000
,
0200
0010
1000
0310
,
1001
0000
0200
0010
0000
0310
1000
0000
,
0100
0000
0020
0001
0000
0031
0100
0000
,
0010
0000
2000
0100
0000
3100
0010
0000
,
0010
0000
0002
0100
0000
0103
0010
0000
,
1000
0000
2000
0010
0000
3100
0010
0000
,
0001
0000
0020
0100
0000
0031
1000
0010
,
0100
0001
2000
0001
,
3100
0000
0000
0011
0000
0000
0000
0000
,
1100
0000
0010
0001
0010
0000
0100
1000
,
0100
0000
1000
0001
1000
0000
0010
1000
,
0010
0000
0100
0010
0100
0000
0001
0010
,
0001
0000
0100
0001
0000
0000
0010
0000
,
1100
0000
0001
0100
0010
0000
1000
0010
,
0100
0000
0001
1000
0010
0000
0100
0010
,
1000
0000
0010
1000
0001
0100
0010
0000
,
0110
0000
1000
0001
1000
0001
1000
0000
,
1001
0000
2000
0100
0000
3010
0200
0001
,
0000
0310
1000
0000
0001
0010
1000
0010
,
0100
0000
0100
0010
0001
1000
0001
0100
,
0000
0100
0010
0000
0010
1000
0001
0100
,
0000
0010
0000
0200
0000
0000
0010
0310
,
0000
0000
0001
0000
0100
0000
2000
0010
,
0000
3100
0001
0100
1000
0001
1000
0200
,
0000
1000
0001
1300
,
1001
0000
0020
0100
0000
1030
0002
0100
,
0000
1003
0100
0000
0010
0100
1000
0001
,
0100
0000
0010
0100
0000
0010
0000
2001
,
0000
0000
3100
0000
0010
0000
0020
0100
,
0000
0130
1000
0001
0000
0001
0100
0010
,
0000
0100
0001
0000
1000
0100
0001
0200
,
0000
0000
1000
0000
1000
0000
1300
0001
,
0000
1000
0100
0010
0001
0010
0100
1000
,
1100
0000
0010
0200
0000
0010
0000
0310
,
0000
1000
0010
0001
0010
0100
0001
0000
,
1000
0000
2000
0010
0000
0100
0000
3002
,
0000
0000
0010
0000
0100
0000
0013
0100
,
0000
0100
0010
0000
0001
1000
0001
0100
,
0000
0100
0010
0000
0010
1000
0001
2000
,
0000
0000
0010
0000
0100
0000
3010
0100
,
0110
0000
0000
0101
0000
0000
1010
0000
,
1001
0000
0010
1000
0000
0011
0000
2100
,
0000
0000
3001
0000
1000
0100
0010
0200
,
0000
0000
1300
0000
0001
0100
0010
0200
,
0000
0000
0301
0000
1000
0001
1000
0100
,
0010
1000
0100
0001
,
0010
0000
1000
0000
0001
0100
1000
0200
,
0000
0000
0010
0000
1300
0000
0010
0100
,
0000
0000
1000
0100
1000
0100
1000
0100
,
1100
0000
0001
1001
0000
0011
0000
0102
,
0000
0000
0103
0010
1000
0100
0010
0002
,
0000
0000
0100
0103
0000
0110
0000
2001
,
0000
0000
0000
0000
3100
0000
0010
0001
,
0100
0000
0020
0100
0000
0130
0001
1000
,
0000
0020
1000
0000
1030
0001
0100
0020
,
0000
0000
0100
0130
0000
0110
0000
2001
,
0000
3100
0011
1100
,
0101
0000
0000
0000
,
0000
0000
0000
0000
;
#NOTES:
     dance-double:
     :
     Easy:
     5:
     :
00000000
00000000
00000000
00000000
,
00000000
00000000
00000000
00000000
,
00000000
00000000
00000000
00000000
,
00000000
00000000
00000000
00000000
,
00000000
00000000
00000000
00000000
,
00000000
00000000
00000000
00000000
,
00000000
00000000
00000000
00000000
,
00000000
00000000
00000000
00000000
,
00000000
00000000
00000000
00000000
,
00000010
00000000
00000000
00000000
,
00000001
00000000
00000000
00000000
,
00000100
00000000
00000000
00000000
,
00001000
00000000
00010000
00000000
,
00001000
00000000
00000000
00000000
,
01000000
00000000
00000000
00000000
,
00100000
00000000
00000000
00000000
,
10000000
00000000
00010000
00000000
,
02000000
00000000
00000000
00000000
,
03000000
00000000
01000000
00000000
,
00020000
00000000
00000000
00000000
,
00030000
00000000
00100000
00000000
,
00002000
00000000
00000000
00000000
,
00003000
00000000
00010000
00000000
,
00000200
00000000
00000000
00000300
,
00000020
00000000
00000000
00000030
,
00000001
00000000
00000001
00000000
,
00000001
00000000
00000000
00000000
,
00000100
00000000
00000000
00000000
,
00001000
00000000
00010000
00000000
,
00002000
00000000
00000000
00000000
,
00000000
00003000
00000000
00000000
,
00100000
00000000
00000000
00000000
,
00010000
00000000
10000000
00000000
,
00100000
00000000
00100000
00000000
,
01000000
00000000
01000000
00000000
,
00010000
00000000
00100000
00000000
,
00001000
00000000
00000000
00000000
,
00010000
00000000
00001000
00000000
,
00000100
00000000
00000010
00000000
,
00000100
00000000
00000001
00001000
,
00000001
00000000
00000000
00000000
,
00000100
00000000
00000100
00000000
,
00001000
00000000
00010000
00000000
,
00001000
00000000
00010000
00000000
,
01000000
00000000
00000000
00000000
,
10000000
00000000
10000000
00000000
,
00010000
00000000
00010000
00000000
,
00100000
00000000
01000000
00000000
,
00020000
00000000
00000000
00030000
,
00011000
00000000
00010000
00000000
,
00001000
00000000
00000000
00000000
,
00000100
00000000
00000001
00000000
,
00001000
00000000
00000010
00000000
,
00000200
00000000
00000000
00000300
,
00000010
00000000
00000100
00000000
,
00001000
00000000
00010000
00000000
,
00011000
00000000
00000000
00000000
,
00100000
00000000
00010000
00000000
,
10000000
00000000
00010000
00000000
,
01000000
00000000
00000000
00000000
,
00100000
00000000
00010000
00000000
,
00001000
00000000
00000000
00000000
,
00010000
00000000
00000000
00000000
,
00001000
00000000
00000100
00000000
,
00000001
00000000
00001000
00000000
,
00002002
00000000
00000000
00000000
,
00000000
00000000
00003003
00000000
,
00000100
00000000
00010000
00000000
,
00001000
00000000
00010000
00000000
,
00001000
00000000
00001000
00000000
,
00100000
00000000
00100000
00000000
,
00010000
00000000
00010000
00000000
,
10010000
00000000
00000000
00000000
,
02000000
00000000
00000000
00000000
,
00000000
00000000
00000000
00000000
03000000
00000000
00000000
00200000
,
00000000
00000000
00000000
00000000
,
00000000
00000000
00300000
00000000
,
00010000
00000000
00001000
00000000
,
00000100
00000000
00000000
00000000
,
00000010
00000000
00000100
00000000
,
00000001
00000000
00001000
00000001
,
00000200
00000000
00000000
00000000
,
00000000
00000000
00000000
00000000
00000300
00000000
00000000
00002000
,
00000000
00000000
00000000
00000000
00003000
00000000
00000000
00020000
,
00000000
00000000
00030000
00000000
,
00001000
00000000
00100000
00000000
,
00010000
00000000
01000000
00000000
,
00010000
00000000
00100000
00000000
,
00010000
00000000
10000000
00010000
,
10000000
00000000
00000000
00000000
,
00000000
00000000
00000000
00000000
;
#NOTES:
     dance-double:
     :
     Medium:
     9:
     :
00000000
00000000
00000000
00000000
,
00000000
00000000
00000000
00000000
,
00000000
00000000
00000000
00000000
,
00000000
00000000
00000000
00000000
,
00000000
00000000
00000000
00000000
,
00000000
00000000
00000000
00000000
,
00000000
00000000
00000000
00000000
,
00000000
00000000
00000000
00000000
,
00000000
00000000
00000000
00000000
,
00100000
10000000
00010000
01000000
,
00010000
00100000
00001000
00000000
,
00010000
00001000
00010000
00000100
,
00001000
00000100
00000010
00000001
,
00000100
00000010
00001000
00000001
,
00000100
00000010
00001000
00000000
,
00000001
00000010
00000100
00001000
,
00000001
00000100
00001000
00000000
,
00020000
00000000
00001000
00000000
,
00031000
00000000
00100000
00010000
,
02000000
00000000
00100000
00100000
,
03100000
00000000
10000000
00010000
,
20000000
00000000
32000000
00000000
,
03020000
00000000
00031000
00010000
,
00000020
00000000
00000100
00000100
,
00000230
00000000
00000010
00000300
,
00000001
00000100
00000010
00001000
,
00000200
00000000
00001300
00000000
,
00010000
00001000
00010000
00001000
,
00100000
00010000
01000000
10000000
,
02000000
00000000
00010000
00000000
,
10000000
00000000
03100000
00100000
,
10000000
00000000
01000000
00000000
,
00010000
00001000
00010000
00001000
,
00000100
00000100
00000010
00001000
,
00000001
00000001
00000100
00001000
,
00010000
00010000
00001000
00100000
,
01000000
01000000
00100000
00100000
,
00010000
10000000
01000000
00010000
,
00001000
00000000
00010000
00000000
00001000
00000000
00010000
00001000
,
00010000
00000100
00000010
00000001
,
00001000
00000000
00000000
00001001
00000000
00000000
00000000
00000000
,
00000100
00000100
00000010
00001000
,
00000100
00000100
00010000
00001000
,
01000000
00001000
00010000
00001000
,
00100000
00010000
01000000
10000000
,
00100000
01000000
00100000
00100000
,
10000000
00010000
10000000
10000000
,
00100000
01000000
00001000
00010000
,
00002000
00010000
00013000
00000000
,
00011000
00000000
00010000
00000000
00000100
00001000
00000100
00000000
,
00000010
00000001
00000100
00000010
,
00001000
00000000
00000001
00000100
00000001
00000000
00000100
00000000
,
00001000
00000000
00010000
00000000
00100000
00000000
01000000
00100000
,
01000000
00000000
00010000
00000000
10000000
00000000
00010000
10000000
,
00010000
10000000
01000000
00010000
,
00001000
00000100
00000010
00001000
,
00000001
00000000
00000100
00000000
00001000
00010000
00001000
00000000
,
00100000
00000000
01000000
00000000
00100000
00000000
00010000
10000000
,
00010000
00100000
01000000
00010000
,
00001000
00000000
00010000
00001000
00010000
00000000
00000100
00000000
,
00000010
00000000
00000001
00000000
00000100
00000000
00000010
00000100
,
00000010
00001000
00000001
00000100
,
00001000
00000000
00010000
00000000
00001000
00100000
00001000
00000000
,
00010000
00000000
01000000
00000000
10000000
00000000
00100000
01000000
,
00100000
01000000
00001000
00010000
,
00002000
00000000
00000000
00000020
00000000
00000000
00000000
00000000
,
00000000
00000000
00003030
00000000
,
00000100
00000010
00000001
00001000
,
00000001
00000000
00000100
00000000
00000010
00000000
00001000
00000200
,
00000000
00000000
00010000
00000000
00010000
00000300
00010000
00002000
,
00000000
00000000
01000000
00000000
01000000
00003000
01000000
00200000
,
00000000
10000000
10000000
10300000
,
10100000
00000000
00000000
01000000
00000000
00000000
00100000
00000000
,
00101000
00000000
00001000
00010000
00000000
00000100
00000000
00002200
,
00000000
00000000
00000000
00000000
00000000
00003300
00000000
00000002
,
00000000
00001000
00001000
00001003
,
00000010
00000100
00000001
00000010
,
00000100
00001000
00000001
00000100
,
00001000
00010000
00100000
10000000
,
01000000
00000000
00100000
00000000
00010000
00000000
00010000
10000000
,
00000000
00000000
01000000
00100000
01000000
00100000
01000000
00000000
,
01100000
00000000
00000000
00100000
00000000
00100000
00000000
00101000
,
00000000
00000000
00001000
00000000
00010000
00001000
00010000
00001000
,
00000000
00000000
00010000
00000100
00000000
00000010
00000000
00002002
,
00000000
00000000
00000000
00003003
,
00000010
00000001
00000010
00000100
,
00001000
00000000
00000011
00000000
00000100
00000000
00010000
00001000
,
00010000
00000000
00001000
00000000
00100000
00000000
00010000
10000000
,
00100000
01000000
00010000
00100000
,
11000000
00000000
00000000
00000000
,
00000000
00000000
00000000
00000000
;
#NOTES:
     dance-double:
     :
     Hard:
     12:
     :
00000000
00000000
00000000
00000000
,
00000000
00000000
00000000
00000000
,
00000000
00000000
00000000
00000000
,
00000000
00000000
00000000
00000000
,
00000000
00000000
00000000
00000000
,
00000000
00000000
00000000
00000000
,
00000000
00000000
00000000
00000000
,
00000000
00000000
00000000
00000000
,
00000000
00000000
00000000
00000000
,
00000100
00000000
00000001
00000200
00000000
00000010
00000000
00000310
,
00000000
00001000
00000100
00000000
00000100
00010000
00000000
00001000
,
00000000
00100000
00010000
00000000
20000000
01000000
00000000
31000000
,
00000000
10000000
00010000
00000000
00010000
00100000
00000000
10010000
,
00000000
00000000
10000000
02000000
00000000
00100000
00000000
03100000
,
00000000
00100000
00001000
00000000
00002000
00010000
00000000
00013000
,
00000000
00000000
00010000
00000000
00000100
00000000
00001000
00000001
,
00000000
00000000
00000100
00000010
00000100
00000010
00000100
00000000
,
00000101
00000000
00000010
00000100
00001000
00000000
00010000
00000000
,
00002000
00000000
00100000
00103000
,
00010000
00000000
10000000
01000000
00010000
00000000
01000000
00000000
,
00200000
00000000
10000000
01300000
,
00010000
00000000
00002000
00010000
00000000
00013000
00000100
00000000
,
00000020
00000000
00000001
00000031
,
00000100
00000000
00000010
00001000
00000001
00000000
00000010
00000000
,
00000001
00000100
00000010
00001000
00000100
00000000
00000000
00000000
,
00010000
00000000
00002000
00100000
00000000
00103000
00010000
00000000
,
01000000
00100000
10000000
00010000
,
00110000
00000000
00200000
01000000
00000000
01300000
00010000
00000000
,
00001000
00000000
00000020
00000100
00000000
00000130
00001000
00000000
,
00000002
00000000
00000010
00000000
,
00000103
00000000
00001000
00000001
,
00001001
00000000
00000010
00000100
00000000
00000100
00000010
00000000
,
00000001
00000100
00001000
00010000
,
00011000
00000000
00002000
00010000
00000000
00103000
00010000
00000000
,
01000000
00000000
00200000
10000000
00000000
01300000
00010000
00000000
,
10000000
00000000
00020000
01000000
00000000
00130000
00001000
00000000
,
00010000
00000000
00002000
00010000
00000000
00003100
00000010
00000000
,
00001000
00000000
00000002
00000100
00000000
00000013
00000100
00000000
,
00001000
00000000
00000200
00000010
00000000
00010300
00001000
00010000
,
00001000
00010000
00102000
00010000
,
01003000
00000000
00000000
00110000
00000000
00000000
00000000
00000000
,
11000000
00000000
10000000
01000000
00000000
01000000
00010000
00000000
,
00001000
00000000
00010000
00000100
00000000
00000100
00000010
00000000
,
00000001
00000000
00000100
00001000
00000000
00001000
00010000
00000000
,
00001000
00000000
00100000
01000000
00000000
01000000
10000000
00000000
,
10010000
00000000
00100000
00010000
00000000
00010000
00001000
00000000
,
00000010
00000000
00000010
00000001
00000000
00000001
00000010
00000000
,
00000100
00000000
00000100
00001000
00000000
00001000
00010000
00000000
,
00011000
00000000
00001000
00010000
01000000
00100000
01000000
00000000
,
10000000
00000000
20000000
00100000
00000000
30010000
02000000
00100000
,
00000000
03001000
00010000
00000000
00010000
00001000
00000100
00000010
,
00000100
00000000
00000100
00000001
00000000
00000001
00000010
00000100
,
00000000
00000100
00000010
00000000
00000001
00000010
00000100
00001000
,
00000000
00000100
00000000
00020000
00000000
00000000
00001000
00031000
,
00000000
00000000
00100000
00000000
00010000
00000000
02000000
00010000
,
00000000
03100000
10000000
00100000
00010000
00100000
10000000
02000000
,
00000000
10000000
00100000
03010000
,
00001000
00000000
00020000
00001000
00000000
00030100
00002000
00000010
,
00000000
00003001
00000100
00000000
00000100
00000001
00001000
00000100
,
00000010
00000000
00000010
00000001
00000000
00000100
00000000
00000020
,
00000000
00000000
00000130
00000000
00001000
00000000
00020000
00000100
,
00000000
00031000
00200000
00010000
00000000
00310000
01000000
00100000
,
10000000
00000000
00010000
00000000
10000000
00000000
00010000
02000000
,
00000000
00000000
10000000
00000000
00010000
00000000
03100000
10000000
,
00000000
10000000
01000000
00100000
00001000
00010000
00000100
00001000
,
00000010
00000000
00000100
00000002
00000000
00001000
00000000
00000103
,
00000000
00000010
00000100
00000000
00000100
00000001
00001000
00000000
,
00000100
00000000
00020000
00001000
00000000
00000010
00000000
00032000
,
00000000
00000000
00000010
00000000
00010000
00000000
00103000
00010000
,
00000000
00000000
01000000
00000000
00100000
00000000
10000000
01000000
,
00000000
00000000
00100000
00000000
00010000
00000000
01000000
00200000
,
00000000
00000000
10000000
00000000
01000000
00000000
10300000
01000000
,
00010000
00000000
00000000
00001000
00000000
00000000
00011000
00000000
,
00010100
00000000
00001000
00000010
00000000
00000110
00000000
00001002
,
00000000
00000000
00000013
00000000
00000001
00000010
00000100
00002000
,
00000000
00000000
00003010
00000000
00000100
00001000
00010000
00002000
,
00000000
00013000
00001000
00100000
,
00010000
00000000
00100000
00000000
01000000
10000000
00010000
00100000
,
00000000
00100000
00001000
00000000
00001000
00010000
00000100
00000020
,
00000000
00000000
00000001
00000000
00000130
00000000
00000000
00000110
,
00000000
00000000
00000001
00001000
00000001
00001000
00000001
00001000
,
00001001
00000000
00000100
00001100
00000000
00010100
00000000
00012000
,
00000000
00000000
00103000
00010000
10000000
01000000
00100000
00020000
,
00000000
00000000
10000000
10030000
00000000
11000000
00000000
00201000
,
00000000
00000000
00000000
00000000
00310000
00000000
01000000
00100000
,
00010000
00000000
00002000
00010000
00000000
00013000
00000100
00000010
,
00000000
00000020
00000001
00000000
00000130
00001000
00000100
00020000
,
00000000
00000000
00000100
00030100
00000000
00010000
00000000
00102000
,
00000000
00013000
00101000
10010000
,
11000000
00000000
00000000
00000000
,
00000000
00000000
00000000
00000000
;
