
//----- song ID: seul -----//
#TITLE:Seule;
#ARTIST:Preston Powis;
#BANNER:Seule.png;
#BACKGROUND:Seule-bg.png;
#CDTITLE:./CDTitles/DDR X3 VS 2ndMIX.png;
#MUSIC:Seule.ogg;
#SAMPLESTART:77.54;
#SAMPLELENGTH:15;
#BPMS:0=125;
#NOTES:
     dance-single:
     :
     Beginner:
     2:
     :
0000
0000
0000
0000
,
0000
0000
0000
0000
,
0000
0000
0000
0000
,
0000
0000
0000
0000
,
0000
0000
0000
0000
,
0000
0000
0000
0000
,
0001
0000
0000
0000
,
0100
0000
0000
0000
,
1000
0000
0000
0000
,
0010
0000
0000
0000
,
1000
0000
1000
0000
,
0001
0000
0001
0000
,
0100
0000
0100
0000
,
0010
0000
0010
0000
,
1000
0000
0001
0000
,
1000
0000
0001
0000
,
0200
0000
0300
0000
,
0200
0000
0300
0000
,
0001
0001
0000
0000
,
0010
0010
0000
0000
,
0100
0100
0000
0000
,
1000
1000
0000
0000
,
0010
0000
0010
0000
,
0001
0000
0001
0000
,
0100
0000
0100
0000
,
1000
0000
1000
0000
,
0010
0000
0010
0000
,
0001
0000
0001
0000
,
0100
0000
0100
0000
,
1000
0000
1000
0000
,
0010
0000
0010
0000
,
0010
0000
0000
0000
,
0001
0000
1000
0000
,
0001
0000
0001
0000
,
1000
0000
0001
0000
,
1000
0000
1000
0000
,
0001
0000
1000
0000
,
0001
0000
1000
0000
,
0002
0000
0003
0000
,
2000
0000
3000
0000
,
1001
0000
0000
0000
,
0001
0000
0100
0000
,
0001
0000
0000
0000
,
1000
0000
0100
0000
,
1000
0000
0000
0000
,
0010
0010
0010
0000
,
0100
0100
0100
0000
,
1000
0000
0001
0000
,
1000
0000
0000
0000
,
0010
0000
0001
0000
,
0010
0000
0000
0000
,
0010
0000
1000
0000
,
0010
0000
0000
0000
,
0010
0000
0010
0000
,
1000
0000
0001
0000
,
0100
0000
0100
0000
,
1000
0000
0000
0000
,
0000
0000
0000
0000
;
#NOTES:
     dance-single:
     :
     Easy:
     6:
     :
0000
0000
0000
0000
,
0000
0000
0000
0000
,
0000
0000
0000
0000
,
0000
0000
0000
0000
,
0000
0000
0000
0000
,
0000
0000
0000
0000
,
1000
1000
0000
0000
,
0100
0100
0000
0000
,
1000
0000
0100
0000
,
0001
0100
0001
0000
,
2000
0000
0100
3100
,
0200
0300
0001
0100
,
0002
0003
0100
1000
,
0010
0001
0100
0000
,
0010
1000
0010
0000
,
1000
0100
0001
0000
,
0002
0000
0100
0103
,
0020
0000
0031
0100
,
0010
0000
0010
0000
,
0100
0000
0100
0000
,
0010
0001
0010
1000
,
0010
0001
0010
1000
,
0020
0000
2000
3000
,
0200
0300
2000
3030
,
0010
1000
0200
0300
,
0010
0001
0200
0300
,
0100
0001
0100
0000
,
0200
0000
0301
0010
,
0001
0010
0002
0003
,
1000
0010
2000
3000
,
0001
0100
2000
3000
,
0010
0001
0010
1000
,
0020
0000
1000
0130
,
0001
0010
2000
3100
,
0002
0013
0200
1300
,
0002
0103
0010
0000
,
0010
0010
1000
1000
,
0100
0100
0001
0001
,
0200
0300
1000
0100
,
0001
0001
0200
0300
,
1001
0000
0000
0000
,
2000
3100
1000
0000
,
0200
0301
0100
0000
,
0002
0013
0001
0000
,
0010
1000
0100
0001
,
0100
1000
0100
0000
,
0001
0100
0001
0000
,
0010
1000
0100
0001
,
0200
0300
1000
1000
,
0002
0013
0002
0103
,
0010
1000
0010
0100
,
0002
0003
0100
0100
,
0010
0001
0200
1300
,
0010
2000
3010
0000
,
1000
0010
0001
0100
,
2000
0000
3001
0100
,
1001
0000
0000
0000
,
0000
0000
0000
0000
;
#NOTES:
     dance-single:
     :
     Medium:
     10:
     :
0000
0000
0000
0000
,
0000
0000
0000
0000
,
0000
0000
0000
0000
,
0000
0000
0000
0000
,
0000
0000
0000
0000
,
0000
0000
0000
0000
,
0001
0000
0000
1000
0000
0000
0001
0000
0000
0000
0000
0000
1000
0000
0100
0000
,
0010
0000
0000
0001
0000
0000
1000
0000
0000
0000
0000
0000
0001
0000
0100
0000
,
0010
0000
0000
1000
0000
0000
0001
0000
0100
0000
0000
0001
0000
0000
1000
0000
,
0100
0000
0000
0010
0000
0001
1000
0001
,
2000
0000
0000
0000
3000
0100
0010
0001
,
0000
1000
0001
1000
0000
0010
0100
0000
,
0002
0000
0000
0000
0103
0000
0010
1000
,
0001
0000
0000
1000
0000
0000
0001
0000
0000
0000
1000
0000
0100
0000
0010
0000
,
0001
0000
0000
1000
0000
0000
0010
0000
0000
0000
0100
0000
0000
0000
0001
0000
,
1000
0100
0001
0100
,
1000
0000
0000
0001
0000
0000
1000
0000
0000
0000
0000
0000
0000
0000
0100
0000
,
0010
0000
0000
0001
0000
0000
1000
0000
0000
0000
0000
0000
0100
0000
0000
0000
,
1000
0000
0000
0010
0000
0000
0100
0000
0001
0000
0000
0000
1000
0000
0001
0000
,
1000
0000
0000
0100
0000
0000
1000
0000
0001
0000
0000
0000
0010
0000
0001
0000
,
1000
0000
0000
0001
0000
0000
0000
0000
0000
0000
0100
0000
0010
0000
1000
0000
,
0001
0000
0000
0100
0000
0000
0001
0000
0000
0000
1000
0000
0100
0000
1000
0000
,
0100
0000
0000
0010
0000
0000
0001
0000
,
1000
0000
0000
0001
0000
0000
0000
0000
1000
0000
0000
0000
0100
0000
0000
0000
,
0010
0000
0000
0001
0000
0000
0000
0000
1000
0000
0000
0000
0001
0000
0000
0000
,
0100
0000
0000
0010
0000
0000
0000
0000
1000
0000
0000
0000
0100
0000
0000
0000
,
0010
0000
0000
0001
0000
0000
0000
0000
1000
0000
0000
0000
0001
0000
0000
0000
,
1000
0000
0000
0001
0000
0000
0000
0000
0100
0000
0000
0000
0010
0000
0000
0000
,
1000
0000
0000
0100
0000
0000
0000
0000
0010
0000
0000
0000
0001
0000
0000
0000
,
0100
0000
0000
0001
0000
0000
0000
0000
1000
0000
0000
0000
0100
0000
0000
0000
,
0010
0000
0000
0001
0000
0000
0000
0000
1000
0000
0000
0000
0001
0000
0000
0000
,
0100
0000
0001
0000
0000
0100
0000
0000
0001
0000
0000
0000
1000
0000
0000
0000
,
0100
0000
0010
0000
0001
0000
1000
0001
,
1000
0000
0100
0000
0010
0001
1000
0000
,
0001
0000
0000
1000
0000
0000
0000
0000
0010
0000
0000
0000
0100
0000
0001
0000
,
1000
0000
0100
0000
0000
0010
0001
1000
,
0001
0000
0000
1000
0000
0000
0001
0000
0100
0000
0000
0000
0001
0000
0000
0000
,
1000
0000
0000
0100
0000
0000
0010
0000
0001
0000
0000
0000
1000
0000
0000
0000
,
0001
0100
1000
0100
,
0010
0000
0000
0001
0000
0000
1000
0000
0001
0000
0000
0000
0100
0000
0000
0000
,
0010
0000
0000
1000
0000
0100
0010
0001
,
1000
0000
0001
0000
0000
0100
0010
1000
,
0000
0001
1000
0001
0000
0100
0000
0010
,
1000
0000
0001
0000
0000
0010
0100
1000
,
0001
0000
0000
0100
0000
0000
0001
0000
0000
0000
0000
0000
1000
0000
0000
0000
,
0100
0000
0000
0010
0000
0000
0000
0000
0001
0000
0000
0000
1000
0000
0001
0000
,
0100
0000
0000
0010
0000
0000
1000
0000
0001
0000
0000
0000
1000
0000
0000
0000
,
0100
0000
0000
0010
0000
0000
0001
0000
1000
0000
0000
0001
0000
0000
0000
0000
,
1000
0100
0001
0100
,
0002
0000
0000
0000
0003
1000
0001
1000
,
0000
0100
0010
0001
0000
1000
0000
0001
,
1000
0000
0000
0000
0100
0000
0000
0000
0010
0000
0000
0001
0000
0000
1000
0000
,
0001
0000
0000
1000
0000
0000
0001
0000
0000
0000
0100
0000
0010
0000
1000
0000
,
0001
0000
0000
0010
0000
0000
0100
0000
0000
0000
1000
0000
0001
0000
1000
0000
,
0001
0100
0010
1000
,
0001
0000
0000
1000
0000
0000
0001
0000
0000
0000
0000
0000
1000
0000
0000
0000
,
0001
0000
0000
1000
0000
0000
0001
0000
0000
0000
0000
0000
0000
0000
0000
0000
,
0000
0000
0000
0000
;
#NOTES:
     dance-single:
     :
     Hard:
     12:
     :
0000
0000
0000
0000
,
0000
0000
0000
0000
,
0000
0000
0000
0000
,
0000
0000
0000
0000
,
0000
0000
0000
0000
,
0000
0000
0000
0000
,
0010
0000
0000
0100
0001
0000
1000
0000
0001
0000
0100
0000
0001
0000
0010
0000
,
1000
0000
0000
0001
0010
0000
1000
0000
0001
0000
0100
0000
1000
0000
0001
0000
,
0010
0000
0000
0001
0100
0000
1000
0000
0001
0000
0010
0000
1000
0000
0002
0000
,
0000
0000
0000
0000
0003
0000
0000
0000
0100
0000
0000
0001
0010
0000
0100
0000
,
1000
0000
0000
0010
0100
0000
1000
0000
0010
0000
0100
0000
1000
0000
0001
0000
,
0010
0000
0000
0100
0010
0000
1000
0000
0100
0000
0001
0000
0010
0000
1000
0000
,
0100
0000
0000
0010
0100
0000
1000
0000
0001
0000
0010
0000
1000
0000
0001
0000
,
0100
0000
0000
0010
0100
0000
0000
0000
1000
0000
0000
0001
0010
0000
0000
0000
,
1000
0000
0000
0001
0010
0000
0000
0000
0100
0000
0000
0001
1000
0000
0000
0000
,
0010
0100
1000
0100
,
0010
0000
0000
0001
0010
0000
0000
0000
1000
0000
0000
0000
0010
0000
0000
0001
,
0010
0000
0000
1000
0000
0000
0202
0000
0000
0000
0000
0000
0303
0000
0000
0000
,
2000
3200
0320
0032
,
0203
0000
0000
0000
0020
0300
0000
0000
2030
0000
0000
0000
3200
0000
0000
0000
,
0300
0000
0000
0001
0010
0000
0000
0000
1000
0000
0000
0001
0100
0000
0000
0000
,
0010
0000
0000
0001
1000
0000
0000
0000
0010
0000
0000
0001
0100
0000
0000
0000
,
1000
0000
0000
0001
0010
0000
2200
0000
0000
0000
0000
0000
3300
0000
0000
0000
,
0010
0001
0100
1000
,
0010
0000
0000
0001
0100
0000
1000
0000
0010
0000
0000
0000
0100
0000
0000
0000
,
1000
0000
0010
0000
0100
0000
1000
0001
,
0010
0000
1000
0000
0010
0100
1000
0000
,
0010
0000
0000
0000
0100
0000
0000
0000
1000
0000
0000
0001
0010
0000
0000
0000
,
1000
0000
0000
0001
0010
0000
0000
0000
1000
0000
0000
0000
0100
0000
0000
0001
,
0010
1000
0100
0010
,
1000
0001
0100
0010
2200
0000
3300
0000
,
0010
1000
0100
0010
1000
0001
0100
0010
,
1000
0000
0000
0001
0010
0000
0000
1000
0001
0000
0000
0000
0100
0000
0000
0000
,
1000
0000
0010
0000
0100
0001
0010
1000
,
0100
0000
0000
0001
0010
0000
0000
0100
1000
0000
0000
0000
0100
0000
0000
0000
,
1000
0100
0010
0001
,
0100
0001
0010
0000
1000
0001
0010
0000
,
1000
0001
0100
0000
0010
0000
1000
0010
,
0100
1000
0010
0100
,
1000
0000
0000
0000
0010
0000
0000
0001
1000
0000
0000
0000
0100
0000
0000
0000
,
1000
0000
0010
0000
0100
0000
0010
1000
,
0100
0000
0000
0001
0010
0000
1000
0000
0100
0000
0001
0000
1000
0000
0010
0000
,
0100
0000
0000
0001
0010
0000
1000
0000
0100
0000
0010
0000
1000
0000
0000
0000
,
0100
0000
0000
0001
0010
0000
1000
0000
0100
0000
0001
0000
0010
0000
1000
0000
,
0100
0000
0000
0001
0010
0000
1000
0000
0100
0000
0001
0000
0010
0000
0000
0000
,
1000
0000
0000
0001
0010
0000
1000
0000
0100
0000
0010
0000
1000
0000
0100
0000
,
0010
0000
0000
1000
0100
0000
0010
0000
1000
0000
0100
0000
0001
0000
0000
0000
,
1000
0000
0000
0001
0010
0000
0100
0000
0010
0000
1000
0000
0100
0000
0001
0000
,
0010
0000
0000
1000
0001
0000
0100
0000
0010
0000
1000
0000
0100
0000
0000
0000
,
0010
0000
0000
0001
1000
0000
0100
0000
0001
0000
0010
0000
1000
0000
0100
0000
,
0010
0000
0000
1000
0001
0000
0010
0000
0100
0000
0001
0000
1000
0000
0000
0000
,
0100
0000
0000
0001
0010
0000
0100
0000
1000
0000
0010
0000
0001
0000
0100
0000
,
1000
0000
0000
0010
0100
0000
0001
0000
1000
0000
0001
0000
0100
0000
0000
0000
,
0010
0000
0000
0001
0100
0000
0001
0000
1000
0000
0001
0000
0010
0000
1000
0000
,
0100
0000
0000
0001
0010
0000
1000
0000
0100
0000
0001
0000
0010
0000
0000
0000
,
1000
0000
0000
0001
0010
0000
1000
0000
0100
0000
0001
0000
1000
0000
0001
0000
,
0010
0000
0000
0100
0001
0000
2020
0000
0000
0000
0000
0000
3030
0000
0000
0000
,
0000
0000
0000
0000
;
#NOTES:
     dance-double:
     :
     Easy:
     6:
     :
00000000
00000000
00000000
00000000
,
00000000
00000000
00000000
00000000
,
00000000
00000000
00000000
00000000
,
00000000
00000000
00000000
00000000
,
00000000
00000000
00000000
00000000
,
00000000
00000000
00000000
00000000
,
00100000
00100000
00000000
00000000
,
00010000
00010000
00000000
00000000
,
00001000
00000000
00000100
00000000
,
00000001
00000100
00001000
00000000
,
00020000
00000000
01000000
01030000
,
00020000
00030000
00001000
00000010
,
00000002
00000003
00000100
00001000
,
00010000
00100000
10000000
01000000
,
00010000
00001000
00000100
00000000
,
00000001
00000100
00001000
00010000
,
00200000
00000000
10000000
10300000
,
00200000
00000000
00310000
00001000
,
00000010
00000001
00000010
00000001
,
00000010
00001000
00010000
00100000
,
20000000
30100000
00020000
00031000
,
00000020
00000031
00000020
00001030
,
00020000
00000000
00200000
00330000
,
20000000
30000000
02000000
03000000
,
00010000
00001000
00000020
00000030
,
00000001
00000100
00001000
00010000
,
01000000
10000000
01000000
00010000
,
00002000
00000000
00003100
00000001
,
00000100
00001000
00020000
00030000
,
00100000
10000000
01000000
00010000
,
00001000
00000010
00000002
00000003
,
00000020
00001030
00002000
00013000
,
02000000
00000000
13000000
01000000
,
00010000
00001000
00000200
00000301
,
00000200
00001300
00020000
01030000
,
20000000
31000000
00010000
00001000
,
00000010
00000010
00000001
00000001
,
00000100
00000100
00001000
00001000
,
00020000
00030000
00100000
10000000
,
01000000
00010000
00002000
00003000
,
00001100
00000000
00000000
00000000
,
00000002
00000103
00001000
00000000
,
00020000
00130000
10000000
00000000
,
00200000
00310000
00001000
00000000
,
00000010
00000001
00000100
00001000
,
00010000
01000000
00010000
00000000
,
00001000
00000100
00001000
00000000
,
00010000
00100000
10000000
01000000
,
00020000
00030000
00001000
00001000
,
00000020
00000031
00000020
00001030
,
00020000
01030000
20000000
31000000
,
00020000
00030000
00001000
00000100
,
00001000
00000100
00000002
00000103
,
00001000
00020000
00130000
00000000
,
10000000
01000000
00010000
00001000
,
00000200
00000000
00000301
00000100
,
00001100
00000000
00000000
00000000
,
00000000
00000000
00000000
00000000
;
#NOTES:
     dance-double:
     :
     Medium:
     10:
     :
00000000
00000000
00000000
00000000
,
00000000
00000000
00000000
00000000
,
00000000
00000000
00000000
00000000
,
00000000
00000000
00000000
00000000
,
00000000
00000000
00000000
00000000
,
00000000
00000000
00000000
00000000
,
00001000
00000000
00000000
00000100
00000000
00000000
00000001
00000000
00000000
00000000
00000000
00000000
00000100
00000000
00000001
00000000
,
00000100
00000000
00000000
00001000
00000000
00000000
00010000
00000000
00000000
00000000
00000000
00000000
00100000
00000000
10000000
00000000
,
01000000
00000000
00000000
00010000
00000000
00000000
00001000
00000000
00000010
00000000
00000000
00000001
00000000
00000000
00001000
00000000
,
00000010
00000000
00000000
00001000
00000000
00010000
00100000
00010000
,
20000000
00000000
00000000
00000000
30000000
01000000
00010000
00001000
,
00000000
00000010
00000001
00000100
00000000
00000001
00000010
00000000
,
00000200
00000000
00000000
00000000
00001300
00000000
01000000
10000000
,
00010000
00000000
00000000
10000000
00000000
00000000
01000000
00000000
00000000
00000000
00010000
00000000
00001000
00000000
00000100
00000000
,
00000001
00000000
00000000
00001000
00000000
00000000
00000100
00000000
00000000
00000000
00010000
00000000
00000000
00000000
00001000
00000000
,
00100000
00010000
10000000
01000000
,
00010000
00000000
00000000
00001000
00000000
00000000
00000100
00000000
00000000
00000000
00000000
00000000
00000000
00000000
00000001
00000000
,
00001000
00000000
00000000
00000100
00000000
00000000
00010000
00000000
00000000
00000000
00000000
00000000
01000000
00000000
00000000
00000000
,
10000000
00000000
00000000
01000000
00000000
00000000
00010000
00000000
00001000
00000000
00000000
00000000
00000010
00000000
00000001
00000000
,
00000100
00000000
00000000
00000010
00000000
00000000
00001000
00000000
00000100
00000000
00000000
00000000
00010000
00000000
00001000
00000000
,
00100000
00000000
00000000
01000000
00000000
00000000
00000000
00000000
00000000
00000000
10000000
00000000
01000000
00000000
00010000
00000000
,
00001000
00000000
00000000
00000100
00000000
00000000
00000001
00000000
00000000
00000000
00001000
00000000
00000001
00000000
00000100
00000000
,
00001000
00000000
00000000
00010000
00000000
00000000
00100000
00000000
,
10000000
00000000
00000000
01000000
00000000
00000000
00000000
00000000
00010000
00000000
00000000
00000000
00001000
00000000
00000000
00000000
,
00000010
00000000
00000000
00000001
00000000
00000000
00000000
00000000
00000100
00000000
00000000
00000000
00001000
00000000
00000000
00000000
,
00010000
00000000
00000000
01000000
00000000
00000000
00000000
00000000
10000000
00000000
00000000
00000000
01000000
00000000
00000000
00000000
,
00010000
00000000
00000000
00001000
00000000
00000000
00000000
00000000
00000100
00000000
00000000
00000000
00000001
00000000
00000000
00000000
,
00001000
00000000
00000000
00000010
00000000
00000000
00000000
00000000
00000100
00000000
00000000
00000000
00001000
00000000
00000000
00000000
,
00010000
00000000
00000000
00100000
00000000
00000000
00000000
00000000
10000000
00000000
00000000
00000000
01000000
00000000
00000000
00000000
,
00010000
00000000
00000000
00001000
00000000
00000000
00000000
00000000
00000100
00000000
00000000
00000000
00000001
00000000
00000000
00000000
,
00001000
00000000
00000000
00000100
00000000
00000000
00000000
00000000
00010000
00000000
00000000
00000000
00001000
00000000
00000000
00000000
,
01000000
00000000
00010000
00000000
00000000
10000000
00000000
00000000
01000000
00000000
00000000
00000000
00010000
00000000
00000000
00000000
,
00001000
00000000
00000100
00000000
00000001
00000000
00001000
00000001
,
00000010
00000000
00000100
00000000
00001000
00010000
00100000
00000000
,
01000000
00000000
00000000
10000000
00000000
00000000
00000000
00000000
01000000
00000000
00000000
00000000
00010000
00000000
00001000
00000000
,
00000100
00000000
00000001
00000000
00000000
00000100
00001000
00010000
,
01000000
00000000
00000000
10000000
00000000
00000000
00010000
00000000
10000000
00000000
00000000
00000000
01000000
00000000
00000000
00000000
,
00010000
00000000
00000000
00001000
00000000
00000000
00000010
00000000
00000001
00000000
00000000
00000000
00001000
00000000
00000000
00000000
,
00000010
00000100
00001000
00010000
,
00100000
00000000
00000000
10000000
00000000
00000000
01000000
00000000
00010000
00000000
00000000
00000000
00001000
00000000
00000000
00000000
,
00000100
00000000
00000000
00000001
00000000
00000100
00000001
00000100
,
00001000
00000000
00010000
00000000
00000000
00100000
10000000
00100000
,
00000000
10000000
00010000
10000000
00000000
01000000
00000000
00010000
,
00001000
00000000
00000100
00000000
00000000
00000001
00001000
00000100
,
00010000
00000000
00000000
00001000
00000000
00000000
00100000
00000000
00000000
00000000
00000000
00000000
00010000
00000000
00000000
00000000
,
10000000
00000000
00000000
01000000
00000000
00000000
00000000
00000000
00010000
00000000
00000000
00000000
00001000
00000000
00000100
00000000
,
00000001
00000000
00000000
00001000
00000000
00000000
00000001
00000000
00000100
00000000
00000000
00000000
00001000
00000000
00000000
00000000
,
00010000
00000000
00000000
01000000
00000000
00000000
10000000
00000000
00010000
00000000
00000000
10000000
00000000
00000000
00000000
00000000
,
01000000
00010000
00001000
00000100
,
00000002
00000000
00000000
00000000
00000003
00000100
00001000
00010000
,
00000000
01000000
10000000
00010000
00000000
10000000
00000000
01000000
,
00010000
00000000
00000000
00000000
00001000
00000000
00000000
00000000
00000010
00000000
00000000
00000001
00000000
00000000
00000100
00000000
,
00001000
00000000
00000000
00010000
00000000
00000000
01000000
00000000
00000000
00000000
10000000
00000000
00010000
00000000
10000000
00000000
,
01000000
00000000
00000000
00010000
00000000
00000000
00001000
00000000
00000000
00000000
00000100
00000000
00000001
00000000
00000100
00000000
,
00000001
00000100
00001000
00010000
,
00100000
00000000
00000000
10000000
00000000
00000000
00010000
00000000
00000000
00000000
00000000
00000000
10000000
00000000
00000000
00000000
,
01000000
00000000
00000000
00010000
00000000
00000000
00001000
00000000
00000000
00000000
00000000
00000000
00000000
00000000
00000000
00000000
,
00000000
00000000
00000000
00000000
;
#NOTES:
     dance-double:
     :
     Hard:
     12:
     :
00000000
00000000
00000000
00000000
,
00000000
00000000
00000000
00000000
,
00000000
00000000
00000000
00000000
,
00000000
00000000
00000000
00000000
,
00000000
00000000
00000000
00000000
,
00000000
00000000
00000000
00000000
,
00100000
00000000
00000000
01000000
00010000
00000000
00001000
00000000
00010000
00000000
00000100
00000000
00000010
00000000
00000001
00000000
,
00000100
00000000
00000000
00001000
00010000
00000000
01000000
00000000
00010000
00000000
01000000
00000000
10000000
00000000
00010000
00000000
,
00100000
00000000
00000000
00010000
00001000
00000000
00000100
00000000
00000010
00000000
00000100
00000000
00001000
00000000
00020000
00000000
,
00000000
00000000
00000000
00000000
00030000
00000000
00000000
00000000
01000000
00000000
00000000
00010000
00100000
00000000
01000000
00000000
,
00001000
00000000
00000000
00000100
00000010
00000000
00000100
00000000
00001000
00000000
00010000
00000000
01000000
00000000
00010000
00000000
,
00001000
00000000
00000000
00000100
00000010
00000000
00001000
00000000
00000100
00000000
00000010
00000000
00001000
00000000
00010000
00000000
,
01000000
00000000
00000000
00100000
01000000
00000000
10000000
00000000
00010000
00000000
00100000
00000000
10000000
00000000
00010000
00000000
,
00001000
00000000
00000000
00000100
00000010
00000000
00000000
00000000
00000100
00000000
00000000
00001000
00010000
00000000
00000000
00000000
,
01000000
00000000
00000000
00010000
00100000
00000000
00000000
00000000
01000000
00000000
00000000
00010000
00001000
00000000
00000000
00000000
,
00000100
00000010
00000100
00010000
,
01000000
00000000
00000000
00010000
00100000
00000000
00000000
00000000
01000000
00000000
00000000
00000000
00100000
00000000
00000000
00010000
,
00001000
00000000
00000000
00000100
00000000
00000000
00022000
00000000
00000000
00000000
00000000
00000000
00033000
00000000
00000000
00000000
,
00200000
02300000
03200000
00320000
,
00032000
00003200
00000320
00002030
,
00003000
00000000
00000000
00010000
00100000
00000000
00000000
00000000
10000000
00000000
00000000
00010000
01000000
00000000
00000000
00000000
,
00100000
00000000
00000000
00001000
00000100
00000000
00000000
00000000
00000010
00000000
00000000
00000100
00001000
00000000
00000000
00000000
,
00100000
00000000
00000000
01000000
00100000
00000000
00022000
00000000
00000000
00000000
00000000
00000000
00033000
00000000
00000000
00000000
,
00100000
00010000
00000100
00000010
,
00000100
00000000
00000000
00010000
01000000
00000000
00100000
00000000
10000000
00000000
00000000
00000000
01000000
00000000
00000000
00000000
,
00100000
00000000
00001000
00000000
00000100
00000000
00000010
00010000
,
00100000
00000000
10000000
00000000
00100000
01000000
00010000
00000000
,
00001000
00000000
00000000
00000000
00000100
00000000
00000000
00000000
00000010
00000000
00000000
00001000
00100000
00000000
00000000
00000000
,
01000000
00000000
00000000
10000000
01000000
00000000
00000000
00000000
00100000
00000000
00000000
00000000
00010000
00000000
00000000
00001000
,
00000100
00000010
00000100
00001000
,
00010000
01000000
00100000
10000000
02020000
00000000
03030000
00000000
,
00001000
00000100
00000010
00000100
00000001
00001000
00010000
01000000
,
00100000
00000000
00000000
00010000
00100000
00000000
00000000
01000000
00010000
00000000
00000000
00000000
01000000
00000000
00000000
00000000
,
00010000
00000000
00001000
00000000
00000100
00000001
00001000
00010000
,
00001000
00000000
00000000
00010000
00100000
00000000
00000000
01000000
10000000
00000000
00000000
00000000
01000000
00000000
00000000
00000000
,
10000000
01000000
00100000
00010000
,
01000000
00010000
00001000
00000000
00000100
00000010
00001000
00000000
,
00010000
00001000
00100000
00000000
01000000
00000000
10000000
00100000
,
00001000
00000100
00000010
00001000
,
00010000
00000000
00000000
00000000
01000000
00000000
00000000
00010000
10000000
00000000
00000000
00000000
00100000
00000000
00000000
00000000
,
00001000
00000000
00000100
00000000
00000010
00000000
00001000
00010000
,
00001000
00000000
00000000
00010000
00100000
00000000
01000000
00000000
10000000
00000000
00010000
00000000
01000000
00000000
00010000
00000000
,
00001000
00000000
00000000
00010000
00001000
00000000
00000100
00000000
00000010
00000000
00001000
00000000
00010000
00000000
00000000
00000000
,
01000000
00000000
00000000
00010000
00100000
00000000
10000000
00000000
01000000
00000000
00010000
00000000
00100000
00000000
00010000
00000000
,
00001000
00000000
00000000
00000100
00000010
00000000
00001000
00000000
00000100
00000000
00000010
00000000
00001000
00000000
00000000
00000000
,
00010000
00000000
00000000
01000000
00100000
00000000
01000000
00000000
10000000
00000000
00100000
00000000
01000000
00000000
00100000
00000000
,
00010000
00000000
00000000
00001000
00000100
00000000
00000010
00000000
00000100
00000000
00000010
00000000
00001000
00000000
00000000
00000000
,
00010000
00000000
00000000
01000000
00100000
00000000
01000000
00000000
00100000
00000000
10000000
00000000
01000000
00000000
00010000
00000000
,
00001000
00000000
00000000
00000100
00000010
00000000
00000001
00000000
00000100
00000000
00000010
00000000
00000100
00000000
00000000
00000000
,
00001000
00000000
00000000
00010000
00001000
00000000
01000000
00000000
00010000
00000000
00100000
00000000
10000000
00000000
01000000
00000000
,
00100000
00000000
00000000
01000000
00010000
00000000
00001000
00000000
00000100
00000000
00000010
00000000
00000100
00000000
00000000
00000000
,
00001000
00000000
00000000
00010000
00100000
00000000
01000000
00000000
10000000
00000000
00100000
00000000
00010000
00000000
01000000
00000000
,
00010000
00000000
00000000
00001000
00000100
00000000
00000010
00000000
00000100
00000000
00000010
00000000
00001000
00000000
00000000
00000000
,
00100000
00000000
00000000
00010000
01000000
00000000
00010000
00000000
00100000
00000000
00010000
00000000
00001000
00000000
00000100
00000000
,
00000010
00000000
00000000
00000100
00001000
00000000
00010000
00000000
01000000
00000000
00010000
00000000
00100000
00000000
00000000
00000000
,
01000000
00000000
00000000
00010000
00001000
00000000
00000100
00000000
00000010
00000000
00000100
00000000
00001000
00000000
00010000
00000000
,
00100000
00000000
00000000
01000000
00010000
00000000
20200000
00000000
00000000
00000000
00000000
00000000
30300000
00000000
00000000
00000000
,
00000000
00000000
00000000
00000000
;
