
//----- song ID: stra -----//
#TITLE:STRAIGHT JET;
#ARTIST:栗林みな実;
#ARTISTTRANSLIT:Minami Kuribayashi;
#BANNER:STRAIGHT JET.png;
#BACKGROUND:STRAIGHT JET-bg.png;
#CDTITLE:./CDTitles/DDR X3 VS 2ndMIX.png;
#MUSIC:STRAIGHT JET.ogg;
#SAMPLESTART:56.12;
#SAMPLELENGTH:15;
#BPMS:0=154;
#NOTES:
     dance-single:
     :
     Beginner:
     2:
     :
0000
0000
0000
0000
,
0000
0000
0000
0000
,
0000
0000
0000
0000
,
0000
0000
0000
0000
,
0000
0000
0000
0000
,
1000
0000
0000
0000
,
1000
0000
1000
0000
,
1000
0000
0000
0000
,
0001
0000
0000
0000
,
0100
0000
0000
0000
,
0010
0000
0000
0000
,
0001
0000
0001
0000
,
0001
0000
0000
0000
,
1000
0000
1000
0000
,
1000
0000
0000
0000
,
0001
0000
0001
0000
,
0001
0000
0000
0000
,
0100
0000
0000
0000
,
0010
0000
0000
0000
,
0001
0000
0001
0000
,
0001
0000
0000
0000
,
1000
0000
1000
0000
,
1000
0000
0000
0000
,
0001
0000
0001
0000
,
0001
0000
0000
0000
,
0100
0000
0000
0000
,
0010
0000
0000
0000
,
0010
0000
0010
0000
,
0010
0000
0000
0000
,
1000
0000
0000
0000
,
0001
0000
0000
0000
,
0100
0000
0100
0000
,
0100
0000
0000
0000
,
0001
0000
0000
0000
,
1000
0000
0000
0000
,
0000
0000
0000
0000
,
0001
0000
0001
0000
,
0100
0000
0000
0000
,
1000
0000
1000
0000
,
0100
0000
0000
0000
,
0100
0000
0000
0000
,
0010
0000
0000
0000
,
0001
0000
1000
0000
,
0001
0000
0000
0000
,
0001
0000
0001
0001
,
0001
0000
0000
0000
,
0010
0000
0010
0010
,
0010
0000
0000
0000
,
0100
0000
0100
0100
,
0100
0000
0000
0000
,
1000
0000
1000
0000
,
0001
0000
0001
0000
,
1000
0000
1000
0000
,
0001
0000
0001
0000
,
0010
0000
0000
0000
,
0000
0000
0000
0000
,
1000
0000
1000
0000
,
1000
0000
0000
0000
,
0020
0000
0000
0000
,
0030
0000
0000
0000
,
0001
0000
0001
0000
,
0001
0000
0000
0000
,
1000
0000
1000
0000
,
1000
0000
0000
0000
,
0100
0000
0100
0000
,
0100
0000
0000
0000
,
0000
0000
0000
0000
;
#NOTES:
     dance-single:
     :
     Easy:
     4:
     :
0000
0000
0000
0000
,
0000
0000
0000
0000
,
0000
0000
0000
0000
,
0000
0000
0000
0000
,
0000
0000
0000
0000
,
0001
0000
0000
0000
,
1000
0100
1000
0000
,
0100
0000
0100
0000
,
0010
0001
0010
0000
,
0001
0000
0000
0000
,
0020
0000
0000
0030
,
0100
0000
0100
0000
,
0010
1000
0001
0000
,
0100
0000
0100
0000
,
0010
0001
1000
0000
,
0001
0000
0001
0000
,
1000
0000
1000
0000
,
0001
0000
1000
1000
,
0010
0000
0000
0000
,
0001
0001
0100
0000
,
0010
0000
0100
0000
,
1000
1000
0100
0000
,
0010
0000
0001
0000
,
0100
0000
0001
0000
,
0100
0000
1000
0000
,
0100
0000
0001
0000
,
0010
0010
0010
0000
,
0001
0000
0001
0000
,
0010
0100
0010
0000
,
1000
0000
1000
0000
,
0010
0100
0010
0000
,
0001
0001
0100
0000
,
1000
1000
0100
0000
,
0001
1000
0001
0000
,
2002
0000
0000
0000
,
0000
0000
3003
0000
,
1000
1000
0100
1000
,
0001
0000
0100
0000
,
0001
0001
0010
0001
,
1000
0000
0100
0000
,
0001
1000
0001
1000
,
0001
0000
0100
0000
,
0010
0000
0010
0000
,
0010
1000
0001
0000
,
1000
1000
0001
1000
,
0001
0000
0100
0000
,
0010
0010
0010
0100
,
0020
0000
0000
0030
,
0001
0001
0100
0000
,
0010
0000
0100
0000
,
1000
1000
0100
0000
,
0001
0001
0100
0000
,
1000
1000
0100
0010
,
0001
0000
1000
0000
,
0020
0000
0000
0000
,
0000
0000
0030
0000
,
1000
1000
0001
0000
,
1000
1000
0001
0001
,
2002
0000
0000
0000
,
0000
0000
3003
0000
,
1000
0010
1000
0000
,
0001
0010
0001
0000
,
0100
1000
0100
0000
,
0010
0001
0010
0000
,
1000
0100
0001
0000
,
0100
0000
0000
0000
,
0000
0000
0000
0000
;
#NOTES:
     dance-single:
     :
     Medium:
     7:
     :
0000
0000
0000
0000
,
0000
0000
0000
0000
,
0000
0000
0000
0000
,
0000
0000
0000
0000
,
0000
0000
0000
0000
,
0200
0010
0000
0310
,
0001
0010
0001
0100
,
0020
0100
0000
0130
,
0001
0010
0100
1000
,
2000
0000
0001
0000
,
0020
0000
0000
3030
,
0100
0001
0100
0000
0010
0000
0010
0000
,
1000
0001
0100
0000
,
1000
0100
1000
0000
0001
0000
0010
0000
,
0001
1000
0100
0000
,
0002
0103
0010
0010
,
2000
3100
0010
0010
,
0001
0100
1000
0010
,
0002
0000
1000
0003
,
0100
1000
0100
0000
0010
0000
0001
0000
,
0100
0010
0100
0100
,
0010
0001
0010
0000
0100
0000
1000
0000
,
0001
1000
1001
0000
,
0100
0000
1000
0000
0010
0100
0010
0000
,
1000
0000
0001
0000
0100
0010
0100
0000
,
0001
0100
1000
0100
,
0020
0000
0030
0100
0010
0000
0000
0000
,
1000
0110
0001
1000
,
0001
0110
1000
0001
,
1000
1000
0001
0001
,
0020
0000
0100
0030
,
1000
0100
1010
0000
,
0001
0100
0011
0000
,
1000
0010
0001
0100
,
2002
0000
0000
0000
,
0000
0000
3003
0000
,
2001
3100
1002
0103
,
0021
0130
1200
0310
,
0001
0101
1000
1100
,
0010
0000
0100
0001
1000
0000
0000
0000
,
0100
0000
0001
0000
1000
0000
0010
0100
,
0000
0010
0010
0010
,
1000
0100
0001
0100
,
1000
0001
1001
0000
,
0120
2030
3100
0012
,
0103
0120
2030
3100
,
0010
0201
0310
1100
,
0200
0000
0000
0020
0000
0000
0330
0000
,
0001
0000
0100
0000
1000
0000
0100
0010
,
1000
0001
0010
1000
,
0010
0001
1100
0000
,
0010
1000
0101
0000
,
1000
0010
0001
1100
,
0001
0010
1000
0101
,
0020
0000
0000
0000
,
0230
0000
0000
0000
,
0301
0100
0010
1000
,
0100
0000
0000
0100
0000
0000
0010
0000
,
1002
1000
0000
1000
,
0000
0100
0100
0100
,
1003
0100
0000
0100
,
0001
0000
0010
0000
0001
0100
0010
0000
,
1000
1001
0100
0010
,
0001
0100
1000
0001
,
0100
0000
0110
0000
1000
0000
0001
0100
,
0000
0100
0000
0100
0000
0001
1000
0001
,
0000
0000
0000
0000
;
#NOTES:
     dance-single:
     :
     Hard:
     11:
     :
0000
0000
0000
0000
,
0000
0000
0000
0000
,
0000
0000
0000
0000
,
0000
0000
0000
0000
,
0000
0000
0000
0000
,
0100
0000
0011
0000
1000
0100
0010
0001
,
0000
1000
0000
0001
0000
1000
0001
0010
,
0100
0000
1010
0000
0001
0100
0010
1000
,
0000
0001
0000
1000
0000
0001
0010
0100
,
0200
1000
0010
0001
,
0320
0000
0000
0030
,
0001
0010
0001
0000
0100
0000
0001
0000
,
0100
0010
1000
0000
0001
0000
0101
0000
,
1000
0010
1000
0000
0001
0000
0100
0000
,
0010
1000
0001
0000
1000
0000
1100
0000
,
0020
0000
0130
0000
0001
0100
1000
0000
,
0200
0000
0310
0000
1000
0100
0001
0000
,
0002
0100
2003
0010
,
3002
0100
1000
0013
,
0100
1000
0010
0000
0100
0000
0101
0000
,
0010
1000
0100
0000
0010
0000
1001
0000
,
0100
0001
0010
0000
0100
0000
1100
0000
,
0010
0001
0100
0000
1000
0000
0110
0000
,
0100
0000
0001
0000
1000
0001
0100
0001
,
1000
0000
0010
0000
1000
0001
1000
0001
,
0200
1000
0010
0301
,
1000
0000
0000
0001
0000
0000
0010
0000
0010
0000
0000
0000
0000
0000
0000
0000
,
0010
0000
0001
0000
1000
0100
0010
0001
,
2000
0100
0001
3010
,
0100
0000
1000
0000
0001
0010
0100
1000
,
0002
0100
1000
0013
,
0001
0000
0000
0001
1000
0000
1000
0000
0100
0000
0000
0000
1100
0000
0000
0000
,
1000
0000
0000
1000
0001
0000
0001
0000
0100
0000
0000
0000
0101
0000
0000
0000
,
0001
0011
1000
1010
,
0120
0001
0100
1000
,
0200
0000
0000
0330
,
1000
0000
0000
1000
0100
0000
0010
0000
0001
0000
0000
0001
0100
0000
0010
0000
,
1000
0000
0000
1000
0100
0000
0010
0000
0001
0000
0000
0000
1000
0000
0000
0000
,
0001
0000
0000
0001
0010
0000
0100
0000
1000
0000
0000
1000
0010
0000
0100
0000
,
0001
0000
0000
0001
0010
0000
0100
0000
1000
0000
0000
0000
0001
0000
0000
0000
,
0201
0000
0310
0000
1000
0001
0010
0200
,
0000
0010
0010
0310
,
0001
0000
0100
0001
0010
0000
0100
1000
,
0010
0001
1000
0100
0001
0010
0100
0000
,
1000
0000
0000
1000
0100
0000
0010
0000
0001
0000
0000
0001
0100
0000
0010
0000
,
1000
0000
0000
1000
0100
0000
0010
0000
0001
0000
0000
0000
1000
0000
0000
0000
,
0010
0000
0000
0010
0100
0000
0100
0000
0010
0000
0000
0010
0100
0000
0010
0000
,
1000
0000
0000
0001
0000
0000
2002
0000
0000
0000
0000
0000
3003
0000
0000
0000
,
1020
0000
0130
0000
0001
1000
0010
0200
,
0000
0010
0010
0310
,
1000
0000
0000
1000
0000
0000
1000
0000
0001
0000
0000
0001
0000
0000
0001
0000
,
0100
0000
0000
0100
0000
0000
0100
0000
0010
0000
0000
0010
0000
0000
0010
0000
,
2000
3200
0320
0032
,
0103
0000
0010
0100
0000
0010
1000
0001
,
2002
0000
0000
3003
,
0120
0000
0100
0000
0100
0000
0130
0001
,
2000
3200
0320
0032
,
1003
0000
0000
0110
0000
0010
0001
1000
,
0020
0000
1000
0000
0100
0100
0000
1000
,
0000
0100
0000
0001
0000
0130
0001
1000
,
0100
0000
0010
0000
0001
0001
0000
0100
,
0001
0100
0010
0100
0000
0001
1000
0001
,
0100
0000
0101
0000
0010
0001
0010
0100
,
0000
0010
0100
1000
0000
1000
0100
0010
,
0001
0000
0101
0000
0100
0010
0000
1100
,
0000
0101
0000
1001
0000
0100
0100
0100
,
0000
0000
0000
0000
;
#NOTES:
     dance-double:
     :
     Easy:
     4:
     :
00000000
00000000
00000000
00000000
,
00000000
00000000
00000000
00000000
,
00000000
00000000
00000000
00000000
,
00000000
00000000
00000000
00000000
,
00000000
00000000
00000000
00000000
,
00000010
00000000
00000010
00000000
,
00000010
00000000
00000000
00000000
,
00000100
00000000
00000100
00000000
,
00000100
00000000
00000000
00000000
,
00002000
00000000
00003000
00000000
,
00020000
00000000
00030000
00000000
,
00100000
00000000
00100000
00000000
,
00100000
00100000
00100000
00000000
,
10000000
00000000
10000000
00000000
,
10000000
10000000
10000000
00000000
,
01000000
00000000
00100000
00000000
,
01000000
00000000
00010000
00000000
,
00002000
00000000
00003000
00000000
,
00010000
00000000
00000000
00000000
,
00000010
00000000
00000010
00000000
,
00000010
00000010
00000010
00000000
,
00000001
00000000
00000001
00000000
,
00000001
00000001
00000001
00000000
,
00000100
00000000
00000010
00000000
,
00000100
00000000
00001000
00000000
,
00020000
00000000
00030000
00000000
,
00011000
00000000
00000000
00000000
,
00100000
00010000
00100000
00000000
,
00010000
00000000
10000000
00000000
,
01000000
10000000
01000000
00000000
,
00010000
00000000
00000000
00000000
,
00001000
00001000
00001000
00000000
,
00010000
00010000
00010000
00000000
,
00001000
00000000
00000100
00000000
,
00000020
00000000
00000000
00000000
,
00000000
00000000
00000030
00000000
,
00000001
00000100
00000001
00000100
,
00000001
00000001
00000001
00000000
,
00001000
00000100
00001000
00000100
,
00001000
00001000
00001000
00000000
,
00000100
00000000
00010000
00000000
,
00001000
00000000
00000000
00000000
,
00010000
00001000
00010000
00000000
,
01000000
00000000
00100000
00000000
,
10000000
01000000
10000000
01000000
,
10000000
10000000
10000000
00000000
,
00100000
00100000
00010000
00010000
,
00001000
00000000
00000010
00000000
,
00000100
00000000
00000010
00000000
,
00000100
00000000
00000000
00000000
,
00000001
00000001
00000100
00000000
,
00000010
00000010
00001000
00000000
,
00010000
00010000
00001000
00000000
,
00100000
00000000
01000000
00000000
,
00200000
00000000
00000000
00000000
,
00000000
00000000
00300000
00000000
,
00010000
00010000
00010000
00000000
,
00001000
00000000
00000100
00000000
,
00000020
00000000
00000000
00000000
,
00000000
00000000
00000030
00000000
,
00000001
00000001
00000001
00000000
,
00001000
00000000
00000100
00000000
,
00010000
00010000
00010000
00000000
,
00001000
00000000
00100000
00000000
,
00010000
00010000
00010000
00000000
,
10010000
00000000
00000000
00000000
,
00000000
00000000
00000000
00000000
;
#NOTES:
     dance-double:
     :
     Medium:
     7:
     :
00000000
00000000
00000000
00000000
,
00000000
00000000
00000000
00000000
,
00000000
00000000
00000000
00000000
,
00000000
00000000
00000000
00000000
,
00000000
00000000
00000000
00000000
,
00000200
00000010
00000000
00000310
,
00000001
00000001
00000100
00001000
,
00020000
00001000
00000000
00031000
,
01000000
00100000
00100000
01000000
,
20000000
00000000
00000000
00000000
,
00200000
00000000
00000000
30300000
,
10000000
01000000
10000000
00000000
01000000
00000000
01000000
00000000
,
00100000
00010000
00001000
00000000
,
00001000
00000100
00001000
00000000
00000100
00000000
00000100
00000000
,
00000001
00000100
00001000
00000000
,
00020000
00000000
00001000
00100000
,
00031000
00010000
01000000
00100000
,
01000000
10000000
00100000
00010000
,
02000000
00000000
00000000
03000000
,
10000000
01000000
00010000
00000000
00001000
00000000
00010000
00000000
,
00001000
00000100
00000100
00000000
,
00000001
00000100
00001000
00000000
00010000
00000000
00001000
00000000
,
00010000
00100000
00100000
00000000
,
00002000
00000000
00010000
00000010
,
00013000
00001000
00010000
01000000
,
00200000
00000000
01000000
00300000
,
00100000
00000000
00100000
01000000
00100000
00000000
00000000
00000000
,
10000000
01100000
00010000
10000000
,
00100000
00010000
00001000
00000100
,
00000001
00000110
00001000
00000001
,
00000200
00000000
00001300
00000000
,
00010000
00001000
00011000
00000000
,
01000000
00100000
01100000
00000000
,
10000000
01000000
00010000
00001000
,
00022000
00000000
00000000
00000000
,
00000000
00000000
00033000
00000000
,
00012000
00000010
00000010
00013000
,
00021000
00100000
00100000
00031000
,
00011000
00001000
00000010
00000001
,
00000100
00000000
00000010
00000100
00000010
00000000
00000000
00000000
,
00000001
00000000
00000100
00000000
00000010
00000000
00001000
00010000
,
00000000
00001000
00010000
00001000
,
01000000
00010000
00100000
10000000
,
00100000
00010000
00011000
00000000
,
00012000
00000010
00000010
00013000
,
00021000
00100000
00100000
00031000
,
00011000
00000010
00000001
00000100
,
00000010
00000000
00000000
00000010
00000000
00000000
00000020
00000000
00000000
00000000
00000000
00000000
00000030
00000000
00000000
00000000
,
00001000
00000000
00000001
00000000
00000100
00000010
00000100
00000010
,
00000100
00000001
00000100
00001000
,
00010000
00001000
00011000
00000000
,
01000000
00100000
01100000
00000000
,
10000000
00010000
10000000
10010000
,
01000000
00010000
00001000
00000010
,
00000020
00000000
00000000
00000000
,
00000230
00000000
00000000
00000000
,
00000310
00000001
00000100
00001000
,
00010000
00000000
00001000
00010000
00000000
00010000
00001000
00000000
,
00200000
00001000
00001000
00010000
,
00000000
00001000
00010000
01000000
,
00310000
10000000
01000000
00100000
,
00000000
00000000
00100000
00000000
00001000
00010000
00001000
00000000
,
00010000
00010100
00000100
00000010
,
00000001
00000101
00000100
00000010
,
00010000
00000000
00011000
00000000
00001000
00000000
00100000
00010000
,
00000000
00010000
00000000
00010000
00000000
01000000
00100000
01000000
,
00000000
00000000
00000000
00000000
;
#NOTES:
     dance-double:
     :
     Hard:
     11:
     :
00000000
00000000
00000000
00000000
,
00000000
00000000
00000000
00000000
,
00000000
00000000
00000000
00000000
,
00000000
00000000
00000000
00000000
,
00000000
00000000
00000000
00000000
,
00000100
00000000
00000011
00000000
00001000
00000001
00000100
00001000
,
00000000
00010000
00000000
00001000
00000000
00010000
00001000
00100000
,
01000000
00000000
10100000
00000000
00010000
10000000
01000000
00010000
,
00000000
00001000
00000000
00010000
00000000
00001000
00000010
00000100
,
00002000
00000001
00000010
00000000
,
00203000
00000000
00000000
00300000
,
01000000
00100000
01000000
00000000
00010000
00000000
10000000
00000000
,
01000000
00100000
00110000
00000000
,
00001000
00100000
00001000
00000000
00010000
00000000
00000100
00000000
,
00000010
00000001
00000101
00000000
,
00000020
00000000
00000130
00000000
00000001
00000100
00001000
00000000
,
00010000
01000000
10000000
00000000
00200000
00000000
01300000
00000000
,
00010000
00100000
10000000
01000000
,
00020000
00100000
10000000
01030000
,
00100000
10000000
01000000
00000000
00100000
00000000
00101000
00000000
,
00010000
00001000
00000100
00000001
,
00000010
00000001
00000100
00000000
00000010
00000000
00010010
00000000
,
00001000
00010000
00100000
10000000
,
01000000
00000000
00100000
00000000
00010000
01000000
00100000
01000000
,
00001000
00000000
00010000
00000000
00001000
00010000
00000010
00000000
,
00000100
00000001
00000010
00001000
,
00011000
00000000
00000000
00001000
00000000
00000000
00010000
00000000
00200000
00000000
00000000
00000000
00000000
00000000
00000000
00000000
,
01300000
00000000
10010000
00000000
10000000
01000000
00100000
00000000
,
00001000
00010100
00001000
00000010
,
00000100
00000000
00001001
00000000
00000001
00000010
00000100
00000000
,
00001000
00001010
00000100
00001000
,
00010000
00000000
00000000
00010000
00000000
00000000
00001000
00000000
00100000
00000000
00000000
00000000
01010000
00000000
00000000
00000000
,
00100000
11000000
00100000
01010000
,
00100000
10000000
01000000
00010000
,
00012000
00000000
00100000
00010000
,
00000020
00000000
00000000
00003030
,
00000010
00000000
00000000
00000010
00000000
00000000
00000001
00000000
00000100
00000000
00000000
00000100
00000000
00000000
00001000
00000000
,
00010000
00000000
00000000
00010000
00000000
00000000
00100000
00000000
01000000
00000000
00000000
00000000
00100000
00000000
00000000
00000000
,
10000000
00000000
00000000
10000000
00000000
00000000
01000000
00000000
00010000
00000000
00000000
00010000
00000000
00000000
00001000
00000000
,
00000010
00000000
00000001
00001000
00000001
00000000
00001000
00000000
,
00001002
00000000
00000013
00000000
00000001
00000100
00000010
00002000
,
00000000
00000000
00000100
00003001
,
00000010
00000000
00000100
00000001
00000010
00000000
00000001
00000100
,
00000010
00001010
00011000
00110000
,
00100000
00000000
00000000
00100000
00000000
00000000
00010000
00000000
01000000
00000000
00000000
01000000
00000000
00000000
00100000
00000000
,
10000000
00000000
00000000
10000000
00000000
00000000
01000000
00000000
00010000
00000000
00000000
00000000
00001000
00000000
00000000
00000000
,
00000110
00000000
00000000
00000001
00000000
00000000
00000001
00000000
00000110
00000000
00000000
00001000
00000000
00000000
00001000
00000000
,
00010000
00000000
00000000
00001000
00000000
00000000
00022000
00000000
00000000
00000000
00000000
00000000
00033000
00000000
00000000
00000000
,
01000000
00000000
01010000
00000000
00010000
10000000
00100000
02000000
,
00000000
00000000
00010000
03100000
,
10000000
00000000
00000000
10000000
00000000
00000000
10000000
00000000
01000000
00000000
00000000
00000000
00110000
00000000
00000000
00000000
,
00001000
00000000
00000000
00001000
00000000
00000000
00001000
00000000
00010000
00000000
00000000
00000000
00011000
00000000
00000000
00000000
,
00000020
00000032
00000203
00002300
,
00013000
00000000
00001000
00010000
00000000
00010000
00001000
00000010
,
00000002
00000000
00000000
00000000
,
00000203
00000000
00000000
00000000
00000000
00000000
00000300
00001000
,
00020000
00230000
20300000
32000000
,
03010000
00000000
00000000
00011000
00000000
00001000
00010000
01000000
,
00200000
00000000
00010000
00000000
01000000
01000000
00000000
00010000
,
00000000
01000000
00000000
00010000
00000000
01000000
01300000
00010000
,
00001000
00000000
00010000
00000000
00001000
00001000
00000000
00010000
,
00000100
00000010
00000001
00000010
00000000
00000001
00001000
00000001
,
00000100
00000000
00001010
00000000
00000010
00000100
00001000
00000000
,
00010000
00000000
00010100
00000000
00001000
00010000
00100000
00000000
,
01000000
00000000
00110000
00000000
00100000
01000000
10000000
01000000
,
00000000
01100000
00000000
10010000
00000000
00100000
00100000
00100000
,
00000000
00000000
00000000
00000000
;
