#TITLE:繚乱ヒットチャート;
#ARTIST:ギラギラメガネ団;
#TITLETRANSLIT:Ryouran Hit Chart;
#ARTISTTRANSLIT:Gira Gira Megane-dan;
#BANNER:Ryouran Hit Chart.png;
#BACKGROUND:Ryouran Hit Chart-bg.png;
#CDTITLE:./CDTITLES/pop'n music 16 PARTY.png;
#MUSIC:Ryouran Hit Chart.ogg;
#SAMPLESTART:77.52;
#SAMPLELENGTH:15;
#BPMS:0=192;

//---------------dance-single - ----------------
#NOTES:
     dance-single:
     :
     Beginner:
     2:
     :
0000
0000
0000
0000
,
0000
0000
0000
0000
,
0000
0000
0000
0000
,
0000
0000
0000
0000
,
0000
0000
0000
0000
,
0000
0000
0000
0000
,
0001
0000
0000
0000
,
0001
0000
0000
0000
,
1000
0000
0000
0000
,
1000
0000
0000
0000
,
0010
0000
0000
0000
,
1000
0000
0000
0000
,
0001
0000
0000
0000
,
0100
0000
0000
0000
,
0001
0000
0001
0000
,
0001
0000
0000
0000
,
0001
0000
0000
0000
,
0100
0000
0000
0000
,
1000
0000
1000
0000
,
1000
0000
0000
0000
,
1000
0000
0000
0000
,
0100
0000
0000
0000
,
0020
0000
0000
0000
,
0000
0000
0000
0000
,
0000
0000
0000
0000
,
0030
0000
0000
0000
,
0001
0000
0000
0000
,
0000
0000
0000
0000
,
1000
0000
0000
0000
,
0000
0000
0000
0000
,
0001
0000
0000
0000
,
0001
0000
0000
0000
,
0100
0000
0000
0000
,
0000
0000
0000
0000
,
1000
0000
0000
0000
,
1000
0000
0000
0000
,
0100
0000
0000
0000
,
0000
0000
0000
0000
,
1000
0000
1000
0000
,
1000
0000
0000
0000
,
0001
0000
0000
0000
,
1000
0000
0000
0000
,
0001
0000
0000
0000
,
1000
0000
0000
0000
,
0020
0000
0000
0000
,
0030
0000
0000
0000
,
1000
0000
1000
0000
,
1000
0000
0000
0000
,
0100
0000
0100
0000
,
0100
0000
0000
0000
,
0001
0000
0001
0000
,
0001
0000
0000
0000
,
0100
0000
0100
0000
,
0100
0000
0000
0000
,
0010
0000
0010
0000
,
0010
0000
0000
0000
,
0010
0000
0000
0000
,
0100
0000
0000
0000
,
0001
0000
1000
0000
,
0001
0000
0000
0000
,
0100
0000
0000
0000
,
0010
0000
0000
0000
,
1000
0000
1000
0000
,
1000
0000
1000
0000
,
1000
0000
0000
0000
,
0100
0000
0000
0000
,
0001
0000
0001
0000
,
0001
0000
0001
0000
,
0001
0000
0000
0000
,
0100
0000
0000
0000
,
0010
0000
0010
0000
,
0010
0000
0010
0000
,
0010
0000
0000
0000
,
0100
0000
0000
0000
,
0001
0000
0001
0000
,
1000
0000
1000
0000
,
0001
0000
0000
0000
,
1001
0000
0000
0000
,
0100
0000
0000
0000
,
0100
0000
0000
0000
,
0010
0000
0000
0000
,
0000
0000
0000
0000
,
0001
0000
0001
0000
,
1000
0000
1000
0000
,
0001
0000
0000
0000
,
0010
0000
0000
0000
,
0001
0000
0001
0000
,
0100
0000
0100
0000
,
1000
0000
1000
0000
,
0100
0000
0100
0000
,
0000
0020
0000
0000
,
0000
0000
0030
0000
,
0000
0000
0000
0000
,
1001
0000
0000
0000
;

//---------------dance-single - ----------------
#NOTES:
     dance-single:
     :
     Easy:
     5:
     :
0000
0000
0000
0000
,
0000
0000
0000
0000
,
0000
0000
0000
0000
,
0000
0000
0000
0000
,
0000
0000
0000
0000
,
0000
0000
0000
0000
,
0010
0010
0010
0000
,
1000
1000
1000
0000
,
0001
0001
0001
0000
,
0100
0100
0100
0000
,
0010
0010
0010
0000
,
1000
1000
1000
0000
,
0100
0100
0100
0000
,
0001
0000
1000
0000
,
0010
0000
0010
0000
,
0100
0000
1000
0000
,
0001
0000
0100
0000
,
0001
1000
0001
1000
,
0010
0000
0100
0000
,
0001
0000
1000
0000
,
0010
0000
0001
0000
,
0100
0000
0010
0000
,
2000
0000
0000
0000
,
0000
0000
0000
0000
,
0000
0000
0000
0000
,
3000
0000
0000
0000
,
0020
0000
0000
0030
,
2000
0000
0000
3000
,
0200
0000
0000
0000
,
0300
0000
0000
0000
,
1000
0000
1000
0000
,
0001
0000
0000
0000
,
0010
0000
0000
0000
,
0100
0000
0000
0000
,
1000
0000
1000
0000
,
0001
0000
0001
0000
,
0100
0000
1000
0000
,
0001
0000
1000
0001
,
1000
0000
0100
0000
,
1000
1000
0100
0000
,
0010
0000
0001
0000
,
0010
0001
0010
0000
,
0001
0000
1000
0000
,
0010
0000
0001
0000
,
1000
1000
0001
0001
,
0010
0010
0010
0000
,
1001
0000
0001
0001
,
1000
0000
0010
0010
,
0100
0000
0010
0000
,
0100
0100
0100
0000
,
0110
0000
0001
1000
,
1000
0000
0010
0010
,
0100
0000
0001
0000
,
1000
1000
0001
0001
,
2000
3000
0200
0300
,
0020
0000
0000
0030
,
0002
0000
0000
0003
,
0200
0000
0000
0300
,
0001
0000
1000
0000
,
1001
1001
0000
0000
,
1000
0000
0001
0000
,
2002
0000
0000
3003
,
0001
0001
1000
0001
,
0001
0010
0001
0001
,
2000
3000
0002
0003
,
1000
0010
0010
0000
,
1000
1000
0001
1000
,
1000
0010
1000
1000
,
0002
0003
2000
3000
,
0001
0010
0010
0000
,
0100
0100
0001
0100
,
0100
1000
0100
0010
,
0002
0003
2000
3000
,
0010
0010
0100
0000
,
0001
0001
0001
1000
,
1000
1000
0010
0000
,
0200
0000
0000
0000
,
0020
0000
0000
0330
,
2000
0000
0000
3000
,
0002
0000
0000
0003
,
0020
0000
0000
0000
,
0000
0000
0030
0000
,
0001
0001
0001
1000
,
1000
1000
0001
0000
,
0100
0100
0100
0010
,
0100
0100
0100
0000
,
0001
0001
0001
1000
,
0010
0010
0010
1000
,
0100
0100
0100
1000
,
0100
0100
0010
0100
,
0000
2002
0000
0000
,
0000
0000
0000
0000
,
3003
0000
0010
0010
,
0010
0000
0000
0000
;

//---------------dance-single - ----------------
#NOTES:
     dance-single:
     :
     Medium:
     8:
     :
0000
0000
0000
0000
,
0000
0000
0000
0000
,
0000
0000
0000
0000
,
0000
0000
0000
0000
,
0000
0000
0000
0000
,
0000
0000
0000
0000
,
0001
0001
0001
0011
,
1000
1000
1000
1100
,
0010
0010
0010
0101
,
0010
0010
0110
0110
,
0001
0010
0100
1100
,
1000
0010
0100
0101
,
0010
1000
0001
1001
,
0010
0100
0110
1001
,
0020
0000
0000
1030
0100
0000
1000
0000
,
0020
0000
0000
0130
0001
0000
0100
0000
,
0020
0000
0000
1030
0001
0000
1000
0000
,
0001
0100
1000
0010
,
0200
0000
0000
0310
0001
0000
1000
0000
,
0200
0000
0000
0310
1000
0000
0001
0000
,
2000
0000
0000
3010
0100
0000
0010
0000
,
0002
0000
0000
0013
0100
0000
0010
0000
,
0002
0000
0000
0000
,
0000
0000
0000
0000
,
0200
0000
0000
0000
,
0003
0000
0000
0300
,
0020
0000
1000
0000
,
2030
0000
0100
0000
,
3002
0000
0000
0000
0100
0000
0000
0023
,
0000
0000
0000
0030
,
0002
0000
0103
0000
,
0010
0000
0010
0000
,
0200
0000
0301
0000
,
1000
0100
0001
0000
,
0100
1000
0100
0001
,
1000
0100
0001
0010
,
0001
0001
1000
1000
,
0010
0100
0010
0000
0100
0000
0010
0000
,
1100
0000
0000
0000
0010
0000
0000
1000
,
0100
0001
1000
0010
,
0100
0100
0010
0001
,
1000
0001
1001
0000
,
0010
1000
0001
0010
,
1000
0001
0100
1000
,
0010
0010
0010
0010
,
0010
0100
0010
0000
0010
0100
0010
0000
,
0101
0000
0000
0010
1000
0000
0010
0000
,
0100
0000
0000
0010
0100
0000
0010
0000
,
0001
0000
0000
1000
0001
0000
0010
0000
,
0100
0010
0100
1001
,
0010
0000
0000
1000
0010
0000
0001
0000
,
1000
0000
0000
0010
0001
0000
0100
0000
,
0010
0000
0000
0001
1000
0000
0010
0000
,
1000
0001
0100
1000
,
0020
0000
0100
0000
,
2030
0000
0001
0000
,
3002
0000
0100
0000
,
0023
0000
0100
0000
,
0031
0000
1000
0000
,
0010
0010
0010
0000
0000
0000
0000
0000
,
1000
0000
0000
0001
0000
0000
0010
0000
,
2002
0000
0000
3003
,
1000
0100
0001
1000
,
0100
0001
1000
0001
,
0100
0000
1000
0100
1000
0000
0001
0100
,
0001
1000
1001
0000
,
0001
0100
1000
0001
,
0100
1000
0001
1000
,
0100
0000
0010
1000
0010
0000
0010
0001
,
0010
0010
0110
0000
,
0100
1000
0010
0001
,
0100
1000
0010
0010
,
1000
0000
0001
1000
0001
0000
1000
0001
,
1000
0000
0001
0000
0100
0010
0100
0000
,
0001
0010
1001
1000
,
0010
1001
0100
0100
,
0010
0000
0000
1000
0000
0000
0001
0000
,
1000
0001
1000
0000
0010
0000
0010
0000
,
0200
0001
0001
0000
,
0302
0000
0100
1000
,
0023
0000
0000
0000
,
0000
0000
0000
0000
0130
0100
0100
0000
,
1000
1000
1100
0001
,
0001
0101
0010
0010
,
0001
0001
0001
1100
,
1000
1000
1000
0101
,
0010
0000
1000
0000
0001
0100
0001
0000
,
1000
0000
0010
0000
1000
0100
1000
0000
,
0001
0000
0100
0000
0010
0100
0010
0000
,
0001
0000
1000
0000
0001
0100
1000
0000
,
0100
2020
0000
0000
,
0000
0000
0000
0000
,
0000
3030
0001
0100
,
1001
0000
0000
0000
;

//---------------dance-single - ----------------
#NOTES:
     dance-single:
     :
     Hard:
     13:
     :
0000
0000
0000
0000
,
0000
0000
0000
0000
,
0000
0000
0000
0000
,
0000
0000
0000
0000
,
0000
0000
0000
0000
,
0000
0000
0000
0000
,
0010
0010
1000
1000
0001
0000
0101
0000
,
0010
0010
0100
0100
1000
0000
1010
0000
,
0100
0100
0001
0001
1000
0000
1100
0000
,
0010
0010
0001
0001
1000
0000
0011
0000
,
1000
1000
0010
0010
0001
0000
0110
0000
,
0001
0001
0100
0100
1000
0000
0110
0000
,
0001
0001
1000
1000
0001
0000
1001
0000
,
0100
0100
0000
0110
0000
0100
0010
0000
,
1000
1000
0000
0100
0010
0001
0000
0010
,
0100
1000
0000
0100
1000
0010
0000
1000
,
0001
0100
0000
0001
0100
0010
0000
0100
,
0001
1000
0000
0010
0000
0100
0100
0000
,
0001
0001
0000
1000
0100
0010
0000
0100
,
1000
0001
0000
1000
0001
1000
0000
0001
,
0100
0010
0000
0100
0010
1000
0000
0010
,
0100
0001
0000
1000
0000
0100
0100
0000
,
2001
0010
0000
0010
,
0000
0010
0000
0010
,
3002
0010
0000
0010
,
0003
0010
0000
0010
,
1001
0100
0001
0100
,
0010
1000
0001
0100
,
1000
0000
0010
0000
0001
0000
0100
0020
,
0000
0000
0000
0030
,
0100
0000
0000
0000
0100
0000
0100
0001
,
0000
0010
0000
0010
,
0001
0000
0000
0000
0001
0000
0001
0100
,
0000
0010
0100
0010
,
0001
0001
0100
0100
,
1000
1000
0010
0010
,
0001
0000
1001
0000
0100
0010
1000
0100
,
0000
0010
0100
0000
0100
0010
0010
0000
,
0002
0000
0000
0000
0100
0000
0000
1000
,
0003
0100
0010
0000
1000
0010
1000
0010
,
0100
0000
0001
0000
1000
0001
0010
0000
,
0002
2003
3200
0310
,
0001
0001
0100
0010
0000
1000
0100
0000
,
0010
0010
0001
1000
0000
0010
0100
0000
,
1000
1000
0100
0100
0010
0010
0001
0001
,
1000
0100
0010
0001
1000
0100
0010
0000
,
0001
0001
0000
0010
0001
0001
0000
0100
,
0001
0001
0000
0010
0100
0100
0000
1000
,
0100
0100
0000
0001
0100
0100
0000
0010
,
0001
1000
0001
1000
0001
1000
0001
0000
,
1000
1000
0000
0010
1000
1000
0000
0001
,
1000
1000
0000
0010
0100
0100
0000
1000
,
0100
0100
0000
0001
0100
0100
0000
0010
,
0100
0100
0000
0110
0000
0010
1000
0000
,
0001
0000
0001
0000
1001
0000
0001
0010
,
0001
1000
0001
0000
0101
0000
0001
0000
,
1001
0000
0001
0010
0001
0000
0101
0000
,
0001
0000
1001
0000
0001
1000
0001
1000
,
0200
0000
0320
0000
,
0100
0130
1001
0000
0000
0000
0010
0000
,
1100
0000
0010
0101
0000
0010
0010
0000
,
1000
1000
0100
0010
0000
0001
1001
0000
,
1000
0100
0001
0100
1000
1000
0010
0001
,
0010
1000
1000
0001
1000
0100
0010
0000
,
0100
0000
0001
0100
1000
0000
1000
0010
,
0001
0000
0010
0000
1000
0001
1001
0000
,
0001
0100
1000
0100
0001
0001
0010
1000
,
0010
0001
0001
1000
0001
0010
0100
0000
,
0010
0000
1000
0010
0001
0000
0001
0100
,
1000
0000
0100
0000
0001
1000
1001
0000
,
1000
0001
0010
0100
2000
0000
3001
0001
,
0010
0100
2000
0000
3001
0010
2000
0000
,
3010
0000
0100
1000
0100
0000
0010
0001
,
0010
0000
0001
0000
0100
0010
0110
0000
,
0001
0001
1000
1000
0010
0000
1000
1000
,
0001
0001
0010
0000
0002
0000
2003
0000
,
3010
0010
0100
0010
0010
0100
0010
0100
,
0001
1000
0001
0000
1100
0000
0101
0000
,
0120
0100
0100
0100
,
1000
1000
0001
0001
,
0200
0000
0000
0000
,
0300
0000
0000
0000
0100
0100
0130
0000
,
0001
0001
0100
0100
0010
0000
1000
1000
,
0100
0100
0010
0000
0002
0000
2003
0000
,
3010
0010
1000
1000
0001
0000
0101
0000
,
0010
0010
0100
0100
1000
0000
1010
0000
,
0001
0001
0001
0001
0100
0000
1100
0000
,
0010
0010
0010
0010
0100
0000
0101
0000
,
1000
1000
1000
1000
0100
0000
1001
0000
,
0100
0100
0000
1001
0000
0100
0010
0000
,
0100
2020
0000
0000
,
0000
0000
0000
0000
,
0000
3030
0101
0011
,
1100
0000
0000
0000
;

//---------------dance-double - ----------------
#NOTES:
     dance-double:
     :
     Easy:
     5:
     :
00000000
00000000
00000000
00000000
,
00000000
00000000
00000000
00000000
,
00000000
00000000
00000000
00000000
,
00000000
00000000
00000000
00000000
,
00000000
00000000
00000000
00000000
,
00000000
00000000
00000000
00000000
,
00000010
00000000
00000010
00000000
,
00000001
00000000
00000001
00000000
,
00001000
00000000
00001000
00000000
,
00010000
00000000
00010000
00000000
,
00100000
00000000
00100000
00000000
,
10000000
00000000
10000000
00000000
,
00010000
00000000
00010000
00000000
,
00001000
00000000
00001000
00000000
,
00020000
00000000
00000000
00030000
,
00001000
00000000
00001000
00000000
,
00010000
00000000
00000100
00000000
,
00000010
00000010
00000010
00000000
,
00000002
00000000
00000000
00000003
,
00000100
00000000
00001000
00000000
,
00010000
00000000
00000000
00000000
,
00100000
00100000
00100000
00000000
,
02000000
00000000
00000000
00000000
,
00000000
00000000
00000000
00000000
,
00000000
00000000
00000000
00000000
,
03000000
00000000
00000000
00000000
,
00100000
00000000
00000000
00000000
,
10000000
00000000
00000000
00000000
,
00010000
00000000
00000000
00000000
,
00001000
00000000
00000000
00000000
,
00000020
00000000
00000000
00000000
,
00000030
00000000
00000000
00000000
,
00000200
00000000
00000000
00000000
,
00000300
00000000
00000000
00000000
,
00000001
00000000
00000001
00000000
,
00000100
00000000
00001000
00000000
,
00010000
00000000
00001000
00000000
,
00010000
00000000
00000000
00000000
,
01000000
00000000
00100000
00000000
,
10000000
10000000
01000000
00000000
,
00010000
00000000
00001000
00000000
,
00010000
00001000
00010000
00000000
,
00001000
00000000
00000100
00000000
,
00000001
00000000
00000100
00000000
,
00001000
00001000
00010000
00010000
,
00001000
00010000
00001000
00000000
,
00100000
00000000
10000000
00000000
,
01000000
00000000
00010000
00000000
,
00100000
00000000
00100000
00000000
,
01000000
10000000
01000000
00010000
,
00001000
00000000
00000100
00000000
,
00000001
00000000
00000010
00000000
,
00000100
00000000
00000010
00000000
,
00000100
00000001
00000100
00001000
,
00020000
00000000
00000000
00030000
,
00000200
00000000
00000000
00000300
,
00002000
00000000
00000000
00003000
,
00200000
00000000
00000000
00300000
,
02000000
00000000
00000000
03000000
,
10010000
10010000
00000000
00000000
,
00100000
00000000
01000000
00000000
,
01100000
00000000
00000000
00000000
,
10000000
01000000
00010000
00000000
,
00001000
00000000
00010000
00001000
,
00010000
00000000
00100000
00000000
,
00010000
00001000
00000100
00000000
,
00000001
00000100
00001000
00000000
,
00010000
00000000
00001000
00010000
,
00001000
00000000
00000100
00000000
,
00001000
00010000
00100000
00000000
,
00100000
00100000
10000000
01000000
,
00010000
00000000
00001000
00010000
,
00001000
00000000
00000100
00000000
,
00000001
00000010
00000100
00000000
,
00000010
00000010
00000001
00000100
,
00001000
00000000
00010000
00000000
,
00022000
00000000
00000000
00033000
,
00022000
00000000
00000000
00033000
,
00001000
00000000
00000000
00000000
,
00100000
00000000
00000000
00000000
,
02000000
00000000
00000000
00000000
,
00000000
00000000
03000000
00000000
,
10000000
10000000
00000000
00010000
,
00010000
00000000
00100000
00000000
,
00001000
00001000
00010000
00000000
,
00010000
00010000
00001000
00000000
,
00000100
00000100
00000010
00000000
,
00001000
00001000
00000001
00000000
,
00000100
00000100
00001000
00001000
,
00000001
00000100
00001000
00010000
,
00000000
00022000
00000000
00000000
,
00000000
00000000
00000000
00000000
,
00033000
00000000
00100000
00010000
,
01000000
00000000
00000000
00000000
;

//---------------dance-double - ----------------
#NOTES:
     dance-double:
     :
     Medium:
     8:
     :
00000000
00000000
00000000
00000000
,
00000000
00000000
00000000
00000000
,
00000000
00000000
00000000
00000000
,
00000000
00000000
00000000
00000000
,
00000000
00000000
00000000
00000000
,
00000000
00000000
00000000
00000000
,
10000000
01000000
11000000
00000000
,
00010000
10000000
10010000
00000000
,
00100000
00001000
00101000
00000000
,
00000100
00010000
00010100
00000000
,
00000010
00000100
00000110
00000100
,
00000001
00000010
00000011
00000010
,
00000100
00010000
00010100
00010000
,
00001000
01000000
01001000
01100000
,
00200000
00000000
00000000
10300000
01000000
00000000
00100000
00000000
,
00020000
00000000
00000000
01030000
00010000
00000000
00100000
00000000
,
00002000
00000000
00000000
00013000
00001000
00000000
00010000
00000000
,
00000010
00001000
00000001
00000000
,
00000200
00000000
00000000
00000310
00000001
00000000
00000100
00000000
,
00000020
00000000
00000000
00001030
00000100
00000000
00010000
00000000
,
00002000
00000000
00000000
00103000
00010000
00000000
10000000
00000000
,
02000000
00000000
00000000
03100000
00010000
00000000
10000000
00000000
,
20020000
00000000
00000000
00000000
,
00000000
00000000
00000000
30000000
,
00200000
00000000
00000000
00000000
,
00030000
00000000
00000000
00300000
,
00002000
00000000
00010000
00000000
,
00003200
00000000
00000010
00000000
,
00000302
00000000
00000000
00000000
00001000
00000000
00000000
00000203
,
00000000
00000000
00000000
00000300
,
00000001
00000000
00000001
00000000
,
00000100
00000000
00000000
00000000
,
00001000
00000000
00001000
00000000
,
00010000
00000000
00000000
00000000
,
00010000
01000000
10000000
01000000
,
00100000
00100000
01000000
00100000
,
00010000
00010000
00001000
00001000
,
00010000
00000100
00001000
00000000
00000010
00000000
00000000
00000000
,
00000101
00000000
00001000
00000000
,
00010000
00001000
00000100
00000000
,
00001000
00010000
00001000
00100000
,
00100000
01000000
00100000
00000000
,
00100000
00000000
01000000
00000000
,
10000000
00010000
10000000
00000000
,
10000000
10000000
00010000
00010000
,
00100000
00000000
00001000
00000000
00010000
00001000
00010000
00000000
,
00011000
00000000
00000000
00010000
00000100
00000000
00000010
00000000
,
00000001
00000000
00000000
00000100
00000010
00000000
00000100
00000000
,
00001000
00000000
00000000
00100000
00010000
00000000
00100000
00000000
,
01000000
01000000
01100000
10010000
,
00100000
00000000
00000000
10000000
01000000
00000000
00010000
00000000
,
00001000
00000000
00000000
00010000
00001000
00000000
00000100
00000000
,
00000010
00000000
00000000
00000100
00000001
00000000
00001000
00000000
,
00000001
00000010
00000100
00001000
,
00002100
00000000
00000001
00000000
,
00003020
00000000
00000100
00000000
,
00020030
00000000
00001000
00000000
,
02030000
00000000
00010000
00000000
,
13000000
00000000
00010000
00000000
,
00100000
00100000
00100000
00000000
00000000
00000000
10010000
00000000
,
00100000
00000000
00000000
00001000
00000000
00000000
00010000
00000000
,
00022000
00000000
00000000
00033000
,
00001000
00000100
00000001
00001000
,
00000100
00000001
00000100
00001000
,
00000001
00000000
00000100
00000000
00001000
00000000
00010000
00001000
,
00010000
01000000
00100000
00011000
,
00010000
01000000
10000000
00010000
,
01000000
10000000
01000000
00010000
,
10000000
00000000
01000000
00000000
00010000
00000000
00001000
00010000
,
00001000
00000100
00000010
00001001
,
00000001
00000100
00000001
00000000
00000100
00000000
00001000
00000000
,
00010000
00000000
00001000
00000000
00100000
00010000
00100000
00000000
,
00010000
00100000
10000000
00010000
,
00001000
00000000
00010000
00000000
00001000
00010000
00001000
00000000
,
00100000
00010000
00011000
00000010
,
00001000
00011000
00100000
01000000
,
10000000
00000000
00000000
00010000
00000000
00000000
00001000
00000000
,
00000220
00000000
00000000
00000330
,
00000002
00000100
00000100
00000000
,
00002003
00000100
00000100
00000000
,
00023000
00000000
00000000
00000000
,
00000000
00000000
00000000
00000000
00130000
00100000
00100000
00000000
,
01000000
10000000
11000000
00100000
,
00010000
00110000
00001000
00010000
,
00000100
00001000
00001100
00000100
,
00000010
00000001
00000011
00000000
,
00000001
00000000
00001000
00000000
00000010
00000100
00000010
00000000
,
00010000
00000000
00000100
00000000
00010000
00001000
00010000
00000000
,
00001000
00000000
00100000
00000000
00001000
00010000
00001000
00000000
,
00100000
00000000
01000000
00000000
10000000
00010000
10000000
00000000
,
00000000
00202000
00000000
00000000
,
00000000
00000000
00000000
00000000
,
00000000
00303000
00010000
00000010
,
00001100
00000000
00000000
00000000
;

//---------------dance-double - ----------------
#NOTES:
     dance-double:
     :
     Hard:
     13:
     :
00000000
00000000
00000000
00000000
,
00000000
00000000
00000000
00000000
,
00000000
00000000
00000000
00000000
,
00000000
00000000
00000000
00000000
,
00000000
00000000
00000000
00000000
,
00000000
00000000
00000000
00000000
,
00000010
00000010
00010000
00000000
00011000
00000000
01001000
00000000
,
00100000
00100000
10000000
00000000
11000000
00000000
00110000
00000000
,
01000000
01000000
00001000
00000000
00010010
00000000
00001100
00000000
,
00000010
00000010
00000001
00000000
00001001
00000000
00000110
00000000
,
00000001
00000010
00000100
00000000
00010010
00000000
00011000
00000000
,
00001000
00010000
00100000
00000000
10100000
00000000
01100000
00000000
,
00100000
00010000
00001000
00000000
00010100
00000000
00001010
00000000
,
00000001
00000100
00000000
00001000
00000000
00010000
00001000
00000000
,
00011000
00000000
00000000
00100000
00010000
01000000
00000000
00100000
,
10000000
01000000
00000000
00100000
00000000
01000000
00100000
00000000
,
11000000
00000000
00000000
00100000
00010000
01000000
00000000
00001000
,
00010000
00000100
00001000
00000010
,
00001001
00000000
00000000
00000010
00000001
00000100
00000000
00000010
,
00001000
00000100
00000000
00000010
00000000
00000100
00000010
00000000
,
00000101
00000000
00000000
00000010
00001000
00000100
00000000
00010000
,
00001000
00010000
00000000
00011000
00000000
00010000
00100000
00000000
,
02000000
00010000
00000000
00010000
,
00000000
00010000
00000000
03010000
,
20000000
00010000
00000000
00010000
,
30000000
00010000
00000000
00010000
,
00000100
00010000
00000010
00001000
,
00000001
00000100
00001000
00010000
,
00001000
00000000
00000100
00000000
00000001
00000000
00000010
00000200
,
00000000
00000000
00000000
00000300
,
00000100
00000010
00000000
00000010
,
00000001
00000100
00000000
00000010
,
00001000
00001000
00000000
00010000
,
00000000
00001000
00010000
00001000
,
00100000
00010000
10000000
01000000
,
00100000
00001000
00010000
00000010
,
00001000
00000100
00010000
00001000
,
00000100
00000000
00000001
00000000
00001000
00000001
00001000
00000000
,
00001002
00000000
00000013
00000000
,
00000100
00001000
00000001
00000000
00000100
00000000
00000010
00000000
,
00001000
00000000
00000100
00000000
00010000
00001000
00100000
00000000
,
01000000
00100000
01000000
00000000
10000000
00000000
00010000
00000000
,
10000000
01000000
00100000
00010000
00000000
01000000
00100000
00000000
,
01000000
00100000
00010000
00001000
00000000
00010000
00001000
00000000
,
00100000
00010000
00100000
00010000
10000000
01000000
10000000
01000000
,
00100000
00001000
00010000
00000100
00001000
00000100
00000010
00000000
,
00000001
00000001
00000000
00000100
00000001
00000001
00000000
00001000
,
00000001
00000001
00000000
00000010
00000001
00000001
00000000
00001000
,
00000100
00000100
00000000
00001000
00000001
00000001
00000000
00001000
,
00000010
00000100
00000010
00000001
00000010
00000100
00001000
00000000
,
00010000
00010000
00000000
00001000
00100000
00100000
00000000
00001000
,
01000000
01000000
00000000
00010000
10000000
10000000
00000000
00010000
,
00100000
00100000
00000000
01000000
10000000
10000000
00000000
00010000
,
00100000
01000000
00100000
01000000
00000000
00000000
10010000
00000000
,
20000000
01000000
30020000
01000000
,
00230000
01000000
00302000
01000000
,
00023000
00000100
00030020
00000100
,
00002030
00000100
00003002
00000100
,
00001003
00000000
00000001
00000000
,
00000010
00000010
00001001
00000000
00000000
00000000
00001001
00000000
,
00000101
00000000
00000010
00000100
00000000
00001000
00010000
00000000
,
00000100
00001000
00010000
00100000
00000000
01000000
01100000
00000000
,
10000000
00100000
00010000
10000000
01000000
00010000
10000000
00100000
,
00010000
00001000
00010000
00000000
00100000
01000000
00010000
00000000
,
00100000
00000000
00001000
00010000
00000100
00000000
00001000
00000010
,
00000001
00000010
00001000
00000100
00000001
00000000
00000110
00000000
,
00000001
00000010
00001000
00000001
00000100
00001000
00000001
00000010
,
00001000
00010000
00001000
00000000
00000010
00000100
00001000
00000000
,
00000100
00000000
00010000
00001000
00100000
00000000
00010000
00100000
,
10000000
00100000
00010000
01000000
10000000
00000000
01100000
00000000
,
10000000
01000000
00100000
00010000
01000000
00000000
00100000
10000000
,
01000000
00100000
00010000
00000000
01000000
00001000
00010000
00000000
,
00000010
00000000
00000100
00000010
00001000
00000000
00000001
00000100
,
00000010
00000000
00001000
00000000
00000010
00000100
00000110
00000000
,
00001000
00000100
00000001
00000010
00001000
00000000
00010000
01000000
,
10000000
00100000
00010000
00000000
00001000
00000000
00010000
00000000
,
00011000
00000000
00000000
00101000
00000000
00000000
00011000
00000000
,
00020020
00000000
00000000
00030030
,
00000100
00000000
00000100
00000000
,
00000001
00000000
00000100
00000000
,
00002000
00000000
00000000
00000000
,
00000000
00000000
00000000
00000000
00010000
00010000
00013000
00000000
,
00010000
00100000
10000000
01000000
00010000
00000000
00001000
00000010
,
00000001
00000100
00001000
00000000
00010000
00000000
00001000
00000000
,
00010000
01000000
10000000
01000000
00010000
00000000
01010000
00000000
,
00010000
00001000
00000100
00000001
00000100
00000000
00000110
00000000
,
00000001
00000010
00000100
00001000
00010000
00000000
00011000
00000000
,
00000100
00001000
00010000
00100000
01000000
00000000
01100000
00000000
,
00100000
00010000
00001000
00000100
00000010
00000000
00000110
00000000
,
00000001
00000100
00000000
00001000
00000000
00010000
00001000
00000000
,
00011000
00202000
00000000
00000000
,
00000000
00000000
00000000
00000000
,
00000000
00303000
00000100
00010000
,
01100000
00000000
00000000
00000000
;
