
//----- song ID: prog -----//
#TITLE:Programmed Universe;
#ARTIST:kors k;
#BANNER:Programmed Universe.png;
#BACKGROUND:Programmed Universe-bg.png;
#CDTITLE:./CDTitles/DDR X3 VS 2ndMIX.png;
#MUSIC:Programmed Universe.ogg;
#SAMPLESTART:80.04;
#SAMPLELENGTH:15;
#DISPLAYBPM:37:147;
#BPMS:0=147,123=73.5,124=36.75,125=73.5,141=147;
#STOPS:32=1.224,172=0.408;
#STAGE:15;
#NOTES:
     dance-single:
     :
     Beginner:
     2:
     :
0000
0000
0000
0000
,
0000
0000
0000
0000
,
0000
0000
0000
0000
,
0000
0000
0000
0000
,
0000
0000
0000
0000
,
0001
0000
0001
0000
,
0001
0000
0000
0000
,
1000
0000
1000
0000
,
1000
0001
0000
0001
,
0000
0001
0000
0000
,
0000
1000
0000
1000
,
0000
1000
0000
0000
,
0000
0001
0000
0001
,
0000
0001
0000
0000
,
0000
1000
0000
1000
,
0000
1000
0000
0000
,
0000
0001
0000
0001
,
0000
1000
0000
0000
,
0000
0001
0000
0001
,
0000
0100
0000
0000
,
0000
1000
0000
1000
,
0000
0001
0000
0000
,
0000
1000
0000
1000
,
0000
0100
0000
0000
,
0000
0001
0000
0001
,
0000
0001
0000
0001
,
0000
1000
0000
1000
,
0000
1000
0000
1000
,
0000
0010
0000
0000
,
0000
0100
0000
0000
,
0000
0010
0000
0000
,
0000
0100
0100
0000
,
0000
0100
0100
0000
,
0000
0001
0001
0000
,
0000
1000
1000
0000
,
0000
0100
0000
0000
,
0000
0000
0000
0000
,
0000
0100
0000
0000
,
0000
0000
0000
0000
,
0000
0100
0000
0000
,
0000
0100
0000
0100
,
0000
0100
0000
0100
,
0000
0100
0100
0100
,
0000
1000
0000
1000
,
0000
0001
0000
0001
,
0000
1000
0000
1000
,
0100
0100
0100
0000
,
0000
0001
0000
0001
,
0000
1000
0000
1000
,
0000
0001
0000
0001
,
0100
0100
0000
0000
,
1000
0000
1000
0000
,
0001
0000
0001
0000
,
1000
0000
1000
0000
,
0010
0010
0010
0000
,
0001
0000
0001
0000
,
1000
0000
1000
0000
,
0001
0000
0001
0000
,
1000
0000
0001
0000
,
1001
0000
0000
0000
,
0000
0000
0000
0000
;
#NOTES:
     dance-single:
     :
     Easy:
     5:
     :
0000
0000
0000
0000
,
0000
0000
0000
0000
,
0000
0000
0000
0000
,
0000
0000
0000
0000
,
0000
0000
0000
0000
,
0001
0000
0100
0000
,
1000
0000
0100
0000
,
0001
0000
1000
0000
,
0100
0001
0000
0001
,
0100
0010
0000
0100
,
0000
1000
0000
1000
,
0100
0010
0000
0010
,
0000
1000
0000
1000
,
0100
0001
0000
0100
,
0000
0001
0000
0001
,
0100
1000
0000
1001
,
0000
0010
1000
0010
,
0001
0010
1000
0010
,
0000
0010
0001
0010
,
0100
0001
1000
0001
,
0000
0010
0001
0010
,
1000
0010
0001
0010
,
0000
0100
1000
0010
,
0001
0100
0100
0110
,
0000
0001
0001
0001
,
0000
0100
0100
0100
,
0000
1000
1000
1000
,
0000
0100
0100
0100
,
0000
0020
0000
0000
,
0000
0000
0000
0000
,
0030
0200
0000
0000
,
0300
0000
1000
1000
0010
0000
0000
0100
,
0010
0000
0001
0001
0010
0000
0000
0100
,
0010
0000
1000
1000
0010
0000
0001
0001
,
0010
0100
0000
0000
2002
0000
0000
0000
,
3003
0200
0000
0000
,
0000
0000
0000
0000
,
0000
0000
0000
0000
,
0000
0000
0000
0000
,
0300
1001
0000
0000
,
0000
1001
0000
0010
,
0100
1001
1000
0001
,
0001
2000
3002
2003
,
3001
0010
0100
0010
,
0001
0010
0100
1000
,
0010
0100
0010
0100
,
0001
0010
0100
0010
,
0001
1000
0001
1000
,
0001
0100
0010
1000
,
0100
0010
0100
0010
,
0001
1002
0100
0013
,
0100
1000
0100
1000
,
0001
0010
0100
1000
,
0001
1000
0001
1000
,
0001
0100
0010
1000
,
0100
0001
0010
1000
,
0100
0001
0010
1000
,
0001
0001
0100
0100
,
1000
1000
0010
0010
,
1001
0000
0000
0000
,
0000
0000
0000
0000
;
#NOTES:
     dance-single:
     :
     Medium:
     9:
     :
0000
0000
0000
0000
,
0000
0000
0000
0000
,
0000
0000
0000
0000
,
0000
0000
0000
0000
,
0000
0000
0000
0000
,
0001
1000
0010
0001
,
0100
0010
1000
0100
,
0001
0010
1000
0001
,
1001
0000
0110
0000
0100
0010
0100
0000
,
0001
0000
0100
0000
0010
0000
0100
0010
,
0100
0000
0110
0000
0100
0010
0100
0000
,
1000
0000
0100
0000
0010
0000
0100
0100
,
0010
0000
0110
0000
0010
1000
0100
0000
,
0010
0000
0100
0000
0001
0000
0100
0010
,
0100
0000
0110
0000
0010
0001
0100
0000
,
0010
0100
0010
1020
,
0130
0000
0110
0000
0010
0001
1000
0000
,
0020
0100
1000
0200
,
0330
0000
0110
0000
0010
1000
0001
0000
,
0020
0000
0100
0000
0001
0000
0100
0130
,
0000
0000
0110
0000
0100
0010
0100
0000
,
0020
0001
1000
0100
,
0130
0110
0010
0100
,
0100
0000
0001
0010
0100
1000
0020
0000
,
0000
0130
0100
0100
,
0100
0010
0010
0010
,
0010
0100
0001
0100
,
0100
0010
1000
0010
,
0010
0200
0000
0000
,
0000
0000
0000
0000
,
0000
0020
0000
0000
,
0000
0000
0330
0000
0001
0000
0010
1000
1010
0000
0000
0000
0000
0000
1000
0000
,
1001
0000
0000
0000
0010
0000
0100
0001
0101
0000
0000
0000
1000
0001
1000
0000
,
0100
0000
0010
0000
1000
0000
0100
0010
0110
0000
0000
0000
0001
0000
0101
0000
,
1001
0000
0100
0100
0000
0010
0010
0000
2002
0000
0000
0000
0000
0000
0000
0000
,
0000
3003
0200
0000
0000
0000
1000
0000
,
0000
0001
0000
1000
,
0000
0001
0000
1000
,
0000
0001
0000
1000
,
0300
0110
0000
0001
,
1000
1100
0000
0011
,
1100
0000
0010
0001
0010
0001
1000
0100
,
1000
0100
1000
0000
0001
0000
1001
0000
,
0100
0000
0010
0000
0100
0001
0010
0000
,
0012
1000
0100
1003
,
0010
1000
0010
1000
0001
1000
0100
0000
,
0102
1000
0010
1003
,
0100
0010
1000
0001
0100
0010
1000
0000
,
2001
3100
0012
1003
,
0010
1000
0001
0100
0010
1000
0001
0000
,
1001
0000
0001
0001
2000
0000
3010
0100
,
0010
1000
0001
0000
0100
0001
0010
0000
,
0100
0110
0010
1100
,
0010
0001
1000
0100
0010
0001
0010
0000
,
0100
0110
0010
0101
,
0100
0001
1000
0100
0010
0100
1000
0001
,
0200
0010
0001
1300
,
0001
0100
1000
0000
0100
0001
1000
0000
,
0010
1000
0100
1000
0001
0010
0100
0000
,
1001
0000
0000
0000
,
0000
0000
0000
0000
;
#NOTES:
     dance-single:
     :
     Hard:
     12:
     :
0000
0000
0000
0000
,
0000
0000
0000
0000
,
0000
0000
0000
0000
,
0000
0000
0000
0000
,
0000
0000
0000
0000
,
1001
0000
1000
0010
1000
0000
1000
0000
,
0100
0001
0010
1000
,
0001
0000
0001
0010
0001
0000
1000
0000
,
2002
3003
0000
0000
0000
0000
0000
0000
0000
0000
0000
0000
0000
0000
0000
0000
1100
0000
0000
0000
0000
0000
0000
0000
0000
0000
0000
0000
0000
0000
0000
0000
1000
0000
0000
0000
0000
0000
0000
0000
0010
0000
0000
0000
0000
0000
0000
0000
1000
0000
0000
0000
0000
0000
0000
0000
0001
0000
0000
0000
0000
0000
0000
0000
,
0100
0010
1000
0000
0010
0000
0100
0000
,
0100
0010
0001
0000
0001
0010
0001
1000
,
0100
0010
0001
0000
0010
0000
0100
0000
,
0100
0010
0100
0000
0100
0010
0001
1000
,
0100
0010
0100
0000
0010
0000
0100
0000
,
0100
0010
0001
1000
0001
1000
0010
1000
,
0010
0000
1000
0000
0001
0000
0100
0000
0001
0000
0100
0000
0010
0000
0000
0010
,
0200
0000
0301
0000
0001
0010
0001
0100
,
1000
0010
0100
0000
0010
0000
0110
0000
,
0000
0100
0010
0000
1000
0000
0000
0000
1000
0000
0010
0000
1000
0000
0100
0000
,
0001
0010
0100
0000
0010
0000
0100
0110
,
0000
0000
0101
0000
0100
0010
0100
0001
,
0010
0000
1000
0000
0100
0000
0000
0000
0010
0000
0000
0000
0100
0000
0001
1000
,
0001
1000
1100
0000
0010
0000
1100
1000
,
1001
0000
0000
0000
0010
0000
0100
0000
0001
0010
0000
0100
1000
0000
0010
0000
,
0001
0010
0120
0000
0100
0000
0100
0000
,
0100
1000
1000
1000
,
1000
0001
0001
0001
,
0001
0100
0100
0100
,
0130
0000
1000
0000
0000
0001
0000
0000
,
0200
0000
0000
0000
,
0000
0020
0000
0000
,
0000
0000
0000
0000
0000
0000
0330
0000
1000
0000
0000
0000
0001
0000
1000
0000
2002
0000
0000
0000
0000
0000
3003
0000
0000
0000
0100
1000
0100
0000
1000
0000
,
1010
0000
0200
0000
0000
0000
0000
0000
0301
0000
0000
0000
1100
0000
0000
0000
0011
0000
1000
0000
0000
0000
0010
0000
0100
0001
0100
0000
0000
0000
0100
0000
,
1001
0000
0000
0000
0010
0000
1000
1000
1010
0000
0000
0000
0101
0000
1001
0000
,
1010
0000
0000
0010
0100
0000
0010
0000
0000
0000
1000
0001
1000
0000
0100
0000
0020
0000
0000
0000
0000
0000
0000
0000
0030
0000
0001
1000
0001
0000
0100
0000
,
0010
0200
0000
0000
0301
0000
0000
0000
0001
0000
0000
0000
0010
0000
0000
0000
,
0010
1000
1000
0100
,
0100
0001
0010
1000
,
0100
0001
0010
1000
,
0100
1001
0010
1000
,
0100
0011
0010
1010
,
1100
0000
0000
0000
0100
0000
0001
0000
0010
0100
0000
0100
1000
0000
0010
0000
,
0100
0010
0000
0010
0200
0000
0000
0000
0302
0000
0000
0000
2003
0000
0000
0000
,
3010
0100
0001
0010
0001
1000
0100
0010
,
0001
0010
0000
0010
0100
0000
0100
1000
0000
1000
0001
0000
0100
0000
0010
0000
,
1000
0100
0001
0100
0010
0100
0010
0010
,
0001
1000
0000
1000
0001
0000
0100
0000
0010
0000
1000
0000
0100
0000
0001
0000
,
0010
1000
0010
0001
0010
0100
0010
0010
,
1000
0010
0000
0010
0100
0000
0100
0000
0001
0010
0000
0010
0100
0000
0100
0000
,
1000
0001
0010
0100
1000
0001
0100
0010
,
1000
0000
0001
0000
0100
0010
0100
0010
0100
0000
0000
0000
0010
0000
0100
0000
,
0001
0100
1000
0010
1000
0001
0100
0010
,
1000
0010
0000
0010
0100
0000
0100
0001
0000
0001
1000
0000
0010
0000
0100
0000
,
0001
0100
1000
0100
0010
0100
0010
0010
,
1000
0001
0000
0001
1000
0000
0100
0000
0010
0000
0001
0000
0100
0000
1000
0000
,
0010
0001
0010
1000
0010
0100
0010
0010
,
0001
0010
0000
0010
0100
0000
0100
0000
1000
0010
0000
0010
0100
0000
0100
0000
,
0001
1000
0010
0100
0001
1000
0100
0010
,
0001
0000
1000
0000
0100
0010
0100
0000
1000
0001
1000
0000
0010
0100
0010
0000
,
1001
0000
0000
0000
,
0000
0000
0000
0000
;
#NOTES:
     dance-single:
     :
     Challenge:
     16:
     :
0000
0000
0000
0000
,
0000
0000
0000
0000
,
0000
0000
0000
0000
,
0000
0000
0000
0000
,
0000
0000
0000
0000
,
1001
0000
0001
1000
0001
0010
0100
1000
,
1010
0000
1000
0001
0100
0010
0100
0001
,
1000
0100
0010
0001
1000
0010
0100
0001
,
2002
3003
0000
0000
0000
0000
0000
0000
0000
0000
0000
0000
0000
0000
0000
0000
0001
0000
0000
0000
0000
0000
0000
0000
0010
0000
0000
0000
0000
0000
0000
0000
0100
0000
0000
0000
0000
0000
0000
0000
1000
0000
0000
0000
0100
0000
0000
0000
0000
0000
0000
0000
0100
0000
0000
0000
1000
0000
0000
0000
0000
0000
0000
0000
,
0100
0000
0110
0000
1000
0000
0010
0000
0100
0000
0001
1000
0000
1000
0001
0100
,
0001
0000
0101
0000
0100
0000
0001
0000
1000
0000
0001
0010
0000
0010
0001
0000
,
0100
0000
1001
0000
1000
0000
0001
0000
1000
0000
0010
1000
0000
1000
0100
0010
,
0100
0000
0110
0000
1000
0000
0001
0000
1000
0000
0010
0100
0000
0100
0010
0000
,
0100
0000
0101
0000
0001
0000
1000
0000
0010
0000
0010
0100
0000
0100
0001
0010
,
0001
0000
1001
0000
1000
0100
1000
0000
0010
1000
0010
0000
0100
0001
0010
0000
,
0100
1000
0010
0000
1000
0001
0100
0000
0001
1000
0001
1000
0100
0001
0100
1000
,
0020
0000
0000
0030
1000
0200
0000
0000
0310
0000
0001
0100
0000
0100
0001
0000
,
0100
0000
0110
0000
1000
0100
0010
0000
0001
0100
0010
0000
1000
0001
0100
0000
,
0001
1000
0001
0000
1000
0200
0000
0000
0310
0000
0100
0010
0000
0010
0100
0000
,
1000
0001
0100
0000
0001
0010
1000
0000
0001
0100
1000
0000
0001
0100
0010
0000
,
1000
0000
0001
0000
1000
0002
0000
0000
1003
0000
0010
0100
0000
0001
1000
0001
,
0010
0000
0100
0000
1000
0010
0001
0000
1000
0100
0001
0000
1000
0010
0100
0000
,
0110
0000
1001
0000
1000
0100
1000
0000
0010
0100
0010
0000
0100
0001
0100
0001
,
1000
0100
1000
0100
0010
0000
0001
0000
0010
0100
0000
1000
0010
0100
1000
0100
,
0001
0010
0100
1000
0200
0000
0000
0000
0310
0000
0002
0000
0000
0000
1003
0000
,
0200
0001
0010
0001
,
0320
1000
1000
0100
,
0100
0001
1000
0001
,
0130
0000
0002
0000
0013
0100
0000
1000
,
2020
0000
0000
0000
0000
0000
0000
0000
0000
0000
0000
0000
0000
0000
0000
3000
,
0000
0200
0000
0000
,
0000
0000
0000
0000
0000
0000
0330
0000
1001
0000
0000
0000
0011
0000
1000
0001
0220
0000
0000
0000
0000
0000
0330
0000
0000
0000
0001
0100
1000
0000
0100
0000
,
0010
0000
0220
0000
0000
0000
0330
0000
1100
0000
1100
0000
0101
0000
1010
0000
0001
0100
0001
0010
0002
0000
0003
1000
0100
1000
0020
0000
0000
0000
1030
0000
,
0101
0000
0001
0010
0001
0100
0001
0010
0110
0000
0100
0000
1100
0000
1000
0000
2020
0000
0000
0000
0000
0000
3030
0000
0001
0000
0010
0000
1000
0000
0010
0000
,
0001
0000
1000
0010
0100
0000
0110
0000
0000
0000
0001
0100
1000
0000
0100
0000
0220
0000
0000
0000
0000
0000
0000
0000
0330
0000
1000
0100
0010
0000
0100
0000
,
0001
2000
0000
0000
3010
0000
0000
0000
0001
0000
0010
0000
1000
0000
0010
0000
,
0001
0010
1001
0000
1000
0010
0001
0010
,
1000
0001
0101
0000
0001
0010
0100
1000
,
0010
0100
0110
0000
1000
0100
0010
0001
,
0100
0010
0100
0010
0100
0000
0001
1000
0000
0010
1000
0000
1000
0010
0100
0010
,
1000
0000
0010
0000
0110
0000
1000
0100
0000
1000
0001
0000
0010
0001
1000
0001
,
0010
0000
0011
0000
1000
0001
0100
0001
1000
0010
0100
0001
1000
0010
0001
0010
,
1000
0100
0010
0001
0200
0000
0300
0000
2020
0000
3030
0000
0202
0000
0000
0000
,
0303
0000
1000
0010
0000
0010
0100
0000
0100
0010
0000
0010
0100
0000
0110
0000
,
0001
0010
0001
0010
0100
1000
0010
1000
0001
0100
0010
0100
0001
0010
0100
0000
,
1001
0000
0001
0010
0000
0010
0100
0000
0100
0010
0000
0010
0100
0000
1100
0000
,
0001
0100
0001
0010
0100
1000
0100
0010
0001
0010
0001
1000
0010
0100
0010
0000
,
1010
0000
0010
1000
0000
1000
0100
0000
0100
0001
0000
0001
0100
0000
1001
0000
,
0001
1000
0010
1000
0001
0100
0001
0100
0010
1000
0001
0100
1000
0100
0001
0000
,
1000
0100
0001
0100
2000
0000
0000
0000
3001
0100
1000
0100
0001
0000
1001
0000
,
1000
0001
1000
0100
0001
0100
1000
0002
0000
0000
0003
0000
1100
0000
0101
0000
,
1100
0000
0100
0010
0000
0010
0001
0000
0001
1000
0000
1000
0010
0000
1010
0000
,
0010
1000
0001
0100
0010
0100
0001
1000
0010
1000
0100
0010
0001
0100
0001
0000
,
0011
0000
0010
0100
0000
0100
1000
0000
1000
0001
0000
0001
1000
0000
1010
0000
,
1000
0001
0010
0100
1000
0010
0001
0010
1000
0001
0010
0100
1000
0010
1000
0000
,
0011
0000
0001
0010
0000
0001
1000
0000
0100
0010
0000
0001
1000
0000
1001
0000
,
1000
0001
0010
0100
0010
0100
1000
0010
0100
0001
0010
0001
1000
0100
0010
0000
,
0001
0100
1000
0100
0002
0000
0000
0000
1003
0010
0001
0010
2000
0000
0000
0000
,
3001
0100
1000
0100
0010
0100
0001
1000
0100
0001
1000
0010
0001
0100
0010
1000
,
0001
0000
0000
0000
,
0000
0000
0000
0000
;
#NOTES:
     dance-double:
     :
     Easy:
     5:
     :
00000000
00000000
00000000
00000000
,
00000000
00000000
00000000
00000000
,
00000000
00000000
00000000
00000000
,
00000000
00000000
00000000
00000000
,
00000000
00000000
00000000
00000000
,
00010000
00000000
01000000
00000000
,
00010000
00000000
00001000
00000000
,
00000100
00000000
00001000
00000000
,
00011000
00010000
00000000
00010000
,
00000000
01000000
00000000
10000000
,
10000000
00100000
00000000
00100000
,
00000000
00010000
00000000
00001000
,
00001000
00010000
00000000
00001000
,
00000000
00000100
00000000
00000001
,
00000001
00001000
00000000
00000001
,
00000000
00000010
00000010
00001001
,
00000000
00000100
00000000
00001000
,
00000000
00010000
00001000
00010000
,
00000000
00100000
00000000
01000000
,
00000000
00010000
10000000
00010000
,
00000000
01000000
00000000
01000000
,
00000000
00010000
00001000
00010000
,
00000000
00000100
00000000
00000010
,
00000000
00000001
00000001
00001001
,
00000000
00000100
00000000
00001000
,
00000000
00010000
00000000
00001000
,
00000000
00100000
00000000
01000000
,
00000000
10000000
00000000
01000000
,
00000000
00020000
00000000
00000000
,
00000000
00000000
00000000
00000000
,
00030000
00000200
00000000
00000000
,
00000300
00000000
00000010
00000010
00000100
00000000
00000000
00000001
,
00000100
00000000
00001000
00001000
00010000
00000000
00000000
01000000
,
00100000
00000000
00010000
00010000
10000000
00000000
00010000
00000000
,
00100000
01000000
00000000
00000000
00200000
00000000
00000000
00000000
,
00300000
00020000
00000000
00000000
,
00000000
00000000
00000000
00000000
,
00000000
00000000
00000000
00000000
,
00000000
00000000
00000000
00000000
,
00030000
00011000
00000000
00000000
,
00000000
00011000
00000000
00010000
,
00001000
00000010
00000100
00000001
,
00001000
00000001
00000100
00001000
,
00010000
00001000
00000000
00001000
,
00100000
00010000
01000000
00100000
,
10000000
01000000
00000000
01000000
,
00010000
00100000
00001000
00010000
,
00000100
00001000
00000000
00001000
,
00000001
00000010
00000100
00001000
,
00000001
00000100
00000000
00000100
,
00001000
00020000
00000100
00031000
,
00010000
00001000
00010000
00001000
,
01000000
00010000
00100000
01000000
,
10000000
00100000
00100000
01000000
,
00010000
00100000
00001000
00010000
,
00000010
00001000
00000100
00001000
,
00000001
00000100
00000010
00001000
,
00000001
00000100
00001000
00010000
,
00001000
00001000
00010000
00010000
,
00011000
00000000
00000000
00000000
,
00000000
00000000
00000000
00000000
;
#NOTES:
     dance-double:
     :
     Medium:
     9:
     :
00000000
00000000
00000000
00000000
,
00000000
00000000
00000000
00000000
,
00000000
00000000
00000000
00000000
,
00000000
00000000
00000000
00000000
,
00000000
00000000
00000000
00000000
,
00001000
00010000
00000010
00000100
,
00000010
00010000
00001000
00100000
,
01000000
00100000
00001000
00010000
,
00011000
00000000
00000110
00000000
00000010
00000100
00000000
00000010
,
00000100
00000000
00000001
00000000
00000100
00000000
00000010
00000010
,
00000100
00000000
00000110
00000000
00000010
00000100
00000000
00000100
,
00000010
00010000
00001000
00010000
,
00100000
00000000
01100000
00000000
00100000
01000000
00000000
00100000
,
01000000
00000000
00100000
00000000
10000000
00000000
01000000
01000000
,
00100000
00000000
01100000
00000000
00100000
01000000
00000000
01000000
,
00100000
00001000
00010000
00011000
,
00000000
00000000
00000110
00000000
00000010
00000100
00000000
00000010
,
00000200
00000001
00000010
00001300
,
00000000
00000000
00011000
00000000
00010000
00001000
00000000
00001000
,
00020000
00000000
00100000
00000000
00001000
00000000
00001000
00031000
,
00000000
00000000
01100000
00000000
00100000
01000000
00000000
00100000
,
02000000
00001000
00010000
00100000
,
13000000
10010000
00100000
11000000
,
00110000
00000000
10000000
01000000
00100000
00010000
00200000
00000000
,
00000000
10300000
10000000
10000000
,
10000000
00100000
00100000
00100000
,
00100000
00001000
00001000
00001000
,
00001000
00000010
00000010
00000010
,
00000010
00000200
00000000
00000000
,
00000000
00000000
00000000
00000000
,
00000000
00002000
00000000
00000000
,
00000000
00000000
00003300
00000000
00010000
00000000
00001000
00010000
00011000
00000000
00000000
00000000
00000000
00100000
00010000
00000000
,
01010000
00000000
00000000
00000000
00100000
00000000
10000000
00100000
10100000
00000000
00000000
00000000
10000000
00000000
00010000
00000000
,
01000000
00000000
00100000
00000000
10000000
00000000
01000000
00100000
01100000
00000000
00000000
00000000
00010000
00000000
00010000
00000000
,
00011000
00000000
00000100
00000100
00000000
00000010
00000010
00000000
00002002
00000000
00000000
00000000
00000000
00000000
00000000
00000000
,
00000000
00003003
00000100
00000000
00000000
00000000
00000001
00000000
,
00000000
00000010
00000000
00001000
,
00000000
00010000
00000000
01000000
,
00000000
10000000
00000000
00100000
,
00000000
01100000
00000000
00000000
,
00000000
00011000
00000000
00000110
,
00001001
00000000
00000100
00000010
00000100
00000000
00001000
00010000
,
00001000
00010000
00001000
00200000
,
01300000
00000000
10000000
00000000
00010000
01000000
00100000
00000000
,
00020000
00100000
10000000
01030000
,
00001000
01000000
00001000
00000000
00001000
00010000
00000010
00000000
,
00002000
00000001
00000100
00003010
,
00000100
00000001
00001000
00000001
00000100
00000001
00000010
00000000
,
00000100
00000001
00001000
00000000
00000100
00010000
00001000
00000000
,
00010000
00001000
00100000
00000000
00010000
01000000
00100000
00000000
,
10010000
00000000
00100000
00100000
20000000
00000000
30010000
00100000
,
01000000
00000000
10000000
00000000
00100000
00010000
00001000
00000000
,
00000020
00000100
00001000
00000130
,
00000100
00001000
00000001
00000000
00000010
00001000
00010000
00000000
,
00200000
01000000
00010000
01300000
,
00010000
00000000
11000000
00000000
00100000
00010000
00001000
00000000
,
00000200
00001000
00000010
00000301
,
00001000
00000000
00000101
00000000
00000010
00001000
00010000
00000000
,
01000000
00010000
00100000
01000000
10000000
00100000
01100000
00000000
,
10010000
00000000
00000000
00000000
,
00000000
00000000
00000000
00000000
;
#NOTES:
     dance-double:
     :
     Hard:
     13:
     :
00000000
00000000
00000000
00000000
,
00000000
00000000
00000000
00000000
,
00000000
00000000
00000000
00000000
,
00000000
00000000
00000000
00000000
,
00000000
00000000
00000000
00000000
,
10010000
00000000
10000000
00100000
01000000
00000000
00100000
00000000
,
00010000
00001000
00000100
00000001
,
00001001
00000000
00000001
00000010
00000100
00000000
00000010
00000000
,
00000110
00000000
00011000
00000000
00010000
00001000
00000100
00000010
,
00000100
00000000
00001000
00000000
00010100
00000000
00001000
00010000
,
01000000
00000000
01100000
00000000
00010000
00100000
00010000
10000000
,
01000000
00000000
00010000
00000000
00101000
00000000
00010000
00001000
,
00000100
00000000
00000110
00000000
00001000
00000001
00000010
00000100
,
00001000
00000000
00000010
00000000
00001100
00000000
00000010
00010000
,
00001000
00000000
00010000
00001000
00100000
00010000
00100000
00001000
,
00010000
00000000
00000100
00000000
00001000
00000000
00000010
00000000
00010000
00000000
00001000
00000000
00010000
00000000
00000000
01000000
,
00200000
00000000
00310000
00000000
00010000
10000000
01000000
00010000
,
00001000
00000100
00000001
00000010
,
00000000
00000100
00000010
00000000
00000001
00000000
00000000
00000000
00001000
00000000
00000001
00000000
00000010
00000000
00001000
00000000
,
00010000
00000000
01000000
00000000
10000000
00000000
00100000
01100000
,
00000000
00000000
10010000
00000000
00010000
10000000
00100000
00010000
,
00001000
00000000
00000000
00000000
00000100
00000000
00000000
00000000
00000001
00000000
00000000
00000000
00000010
00000000
00000100
00000010
,
00000100
00000010
00001000
00000000
00010000
00000000
00010100
00000000
,
00101000
00000000
00000000
00000000
00010000
00000000
00000010
00000000
00010000
00001000
00000000
00010000
00001000
00000000
01000000
00000000
,
00001000
00100000
00020000
00000000
01000000
00000000
01000000
00000000
,
01000000
10000000
10000000
10000000
,
10000000
00100000
00100000
00100000
,
00100000
00001000
00001000
00001000
,
00031000
00000000
00000100
00000000
00000000
00000010
00000000
00000000
,
00000002
00000000
00000000
00000000
,
00000000
00000200
00000000
00000000
,
00000000
00000000
00000000
00000000
00000000
00000000
00000303
00000000
00000010
00000000
00000000
00000000
00001000
00000000
00000100
00000000
00002200
00000000
00000000
00000000
00000000
00000000
00003300
00000000
00000000
00000000
00010000
00000100
00010000
00000000
00001000
00000000
,
00011000
00000000
02000000
00000000
00000000
00000000
00000000
00000000
03010000
00000000
00000000
00000000
11000000
00000000
00000000
00000000
00010000
00000000
10000000
00000000
00000000
00000000
00100000
00000000
01000000
00010000
01000000
00000000
00000000
00000000
00001000
00000000
,
00011000
00000000
00000000
00000000
00000110
00000000
00000001
00000100
00000110
00000000
00000000
00000000
00001000
00000000
00010000
00000000
,
00011000
00000000
00000000
00010000
00001000
00000000
00100000
00000000
00000000
00000000
00010000
10000000
00010000
00000000
01000000
00000000
00200000
00000000
00000000
00000000
00000000
00000000
00000000
00000000
00300000
00000000
10000000
01000000
10000000
00000000
01000000
00000000
,
00010000
00002000
00000000
00000000
00013000
00000000
00000000
00000000
00010000
00000000
00000000
00000000
00001000
00000000
00000000
00000000
,
00001000
00000100
00000100
00000001
,
00000001
00001000
00001000
00010000
,
00010000
01000000
01000000
10000000
,
10000000
10010000
00100000
00010000
,
00001000
00000110
00000001
00001001
,
00000110
00000000
00000000
00000000
00001000
00000000
00010000
00000000
01000000
00100000
00000000
01000000
00010000
00000000
00001000
00000000
,
00000100
00000010
00000000
00000100
00002000
00000000
00000000
00000000
00023000
00000000
00000000
00000000
02030000
00000000
00000000
00000000
,
13000000
01000000
00100000
00010000
01000000
10000000
01000000
00100000
,
10000000
01000000
00000000
01000000
00100000
00000000
00100000
00001000
00000000
00001000
00010000
00000000
00000100
00000000
00000000
00000000
,
00000010
00000001
00000010
00001000
00000010
00000001
00000100
00000010
,
00001000
00000001
00000000
00001000
00000001
00000000
00000100
00000000
00000010
00000000
00001000
00000000
00000100
00000000
00010000
00000000
,
00001000
00100000
00001000
00010000
00000100
00010000
00001000
00100000
,
00010000
00100000
00000000
00100000
01000000
00000000
01000000
00000000
10000000
00100000
00000000
00100000
01000000
00000000
01000000
00000000
,
00010000
00100000
01000000
10000000
01000000
00010000
00001000
00000100
,
00000010
00000000
00000100
00000000
00000001
00001000
00000001
00001000
00000001
00000000
00000000
00000000
00001001
00000000
00000000
00000000
,
00000001
00000010
00000100
00001000
00000010
00000001
00000010
00000100
,
00000001
00000010
00000000
00000010
00000100
00000000
00000100
00001000
00000000
00001000
00010000
00000000
00100000
00000000
01000000
00000000
,
00100000
00010000
01000000
10000000
01000000
00010000
00100000
01000000
,
10000000
00010000
00000000
01000000
00100000
00000000
10000000
00000000
01000000
00000000
00100000
00000000
00010000
00000000
10000000
00000000
,
01000000
00010000
00001000
00010000
00000010
00001000
00000001
00000100
,
00001000
00000100
00000000
00000100
00000010
00000000
00001000
00000000
00000001
00000010
00000000
00000010
00000100
00000000
00000010
00000000
,
00000001
00000100
00000010
00001000
00000001
00000100
00001000
00010000
,
00001000
00100000
01000000
10000000
00010000
00100000
00001000
00010000
,
00011000
00000000
00000000
00000000
,
00000000
00000000
00000000
00000000
;
#NOTES:
     dance-double:
     :
     Challenge:
     16:
     :
00000000
00000000
00000000
00000000
,
00000000
00000000
00000000
00000000
,
00000000
00000000
00000000
00000000
,
00000000
00000000
00000000
00000000
,
00000000
00000000
00000000
00000000
,
10100000
00000000
10000000
01000000
10000000
00100000
01000000
00010000
,
01010000
00000000
00010000
01000000
00100000
01000000
00001000
00011000
,
00010000
00001000
00010000
00001000
00000100
00000010
00001000
00000010
,
00000110
00000000
00000000
00000000
00000100
00000000
00000010
00000000
00001000
00000000
00000010
00001000
00000000
00001000
00000100
00000000
,
00000100
00000000
00000101
00000000
00000001
00000000
00000100
00000000
00000010
00000000
00000100
00001000
00000000
00000100
00001000
00000100
,
00010000
00000000
00000100
00000000
00001000
00000000
00000100
00000000
00000010
00000000
00001000
00010000
00000000
00010000
00000100
00000000
,
00010000
00000000
00011000
00000000
00001000
00000000
00010000
00000000
01000000
00000000
01000000
00100000
00000000
00100000
00010000
00100000
,
01000000
00000000
01010000
00000000
00010000
00000000
01000000
00000000
10000000
00000000
00100000
01000000
00000000
01000000
00010000
00000000
,
10000000
00000000
10100000
00000000
10000000
00000000
01000000
00000000
00100000
00000000
00001000
00100000
00000000
00001000
00010000
00001000
,
00100000
00000000
00101000
00000000
01000000
00010000
01000000
00000000
00001000
00010000
00001000
00000000
00010000
00000100
00010000
00000000
,
00000100
00010000
00001000
00000000
00010000
00001000
00000100
00000000
00000001
00000100
00000001
00000100
00000010
00000100
00000010
00000000
,
00002000
00000000
00000000
00003000
00000010
00000200
00000000
00000000
00000310
00000000
00001000
00000100
00000000
00000100
00010000
00000000
,
00001000
00000000
00011000
00000000
00010000
00001000
00010000
00000000
00001000
00010000
01000000
00000000
00100000
00010000
00100000
00000000
,
00010000
00100000
10000000
00000000
00010000
02000000
00000000
00000000
13000000
00000000
01000000
10000000
00000000
10000000
00010000
00000000
,
10000000
00100000
01000000
00000000
00010000
00100000
00001000
00000000
00010000
00001000
00010000
00000000
00011000
00000000
00202000
00000000
,
00000000
00303000
00000000
00000000
00100000
00002000
00000000
00000000
00013000
00000000
00001000
00010000
00000000
00000100
00010000
00000100
,
00001000
00000000
00000010
00000000
00001000
00000001
00000100
00000000
00000010
00001000
00000100
00000000
00001000
00000100
00000010
00000000
,
00000011
00000000
00000110
00000000
00001000
00000100
00001000
00000000
00000100
00010000
00001000
00000000
00010000
00001000
00100000
00000000
,
00001000
00010000
00100000
00000000
10000000
00000000
01000000
00000000
00100000
00010000
00000000
10000000
01000000
10000000
00010000
00100000
,
00001000
00010000
00001000
00010000
00000200
00000000
00000000
00000000
00001300
00000000
00000001
00000000
00000000
00000000
00000010
00000000
,
00000100
00001000
00000001
00000100
,
00001000
00010000
00100000
10000000
,
01000000
00010000
00001000
00010000
,
01000000
00000000
20000000
00000000
31000000
00010000
00000000
00001000
,
00020000
00000000
00000000
00000000
,
00000000
00002000
00000000
00000000
,
00000000
00000000
00000000
00000000
00000000
00000000
00033000
00000000
00011000
00000000
00000000
00000000
00010000
00000000
00001000
00010000
00002000
00000000
00100000
00000000
00100000
00000000
00003000
00000000
00000000
00000000
00010000
01000000
00100000
10000000
00100000
00000000
,
10000000
00000000
02000000
00000000
00000000
00000000
03000000
00000000
10010000
00000000
10010000
00000000
01010000
00000000
01010000
00000000
10000000
01000000
00100000
01000000
00200000
00000000
00300000
00001000
00100000
00001000
00010000
00000000
00000000
00000000
00000100
00000000
,
00010100
00000000
00010000
00000010
00001000
00000010
00010000
00000010
00001000
00000000
00000100
00000000
00000001
00000000
00000100
00000000
00000110
00000000
00002002
00000000
00000000
00000000
00003003
00000000
00000001
00000000
00000100
00000000
00000010
00000000
00001010
00000000
,
00000110
00000000
00000001
00000100
00001000
00000000
00010000
00000000
00000000
00000000
00001000
00010000
00100000
00000000
10000000
00000000
00010000
00000000
20020000
00000000
00000000
00000000
00000000
00000000
30030000
00000000
10000000
00100000
01000000
00010000
01000000
00000000
,
00001000
00020000
00000000
00000000
00031000
00000000
00000000
00000000
00010000
00000000
01000000
00000000
10000000
00000000
10000000
00000000
,
00100000
01000000
00010000
00000000
10000000
00100000
01000000
01000000
,
00010000
01000000
00001000
00000000
01000000
00001000
00010000
00000100
,
00001000
00000010
00000100
00000000
00000010
00001000
00000001
00000100
,
00000001
00000000
00000010
00000000
00000011
00000000
00000001
00001000
00000000
00001000
00000010
00000000
00000010
00010000
00000000
00010000
,
00001000
00000000
00010000
00000000
00011000
00000000
00001000
00100000
00000000
00100000
00010000
00000000
00010000
01000000
00000000
01000000
,
00100000
00000000
10000000
00000000
00010000
00000000
00010000
00000000
00100000
00001000
00000000
00001000
00010000
00000000
00010000
00000000
,
00001000
00000100
00000000
00000100
00000020
00000000
00000030
00000000
00020000
00000000
00030000
00000000
00022000
00000000
00000000
00000000
,
00033000
00000000
00001000
00010000
00000000
00010000
00001000
00000000
00001000
00100000
00000000
00100000
00010000
00000000
10000000
00000000
,
01000000
00100000
00010000
00000000
00100000
00001000
00100000
00000000
00001000
00010000
00000100
00000000
00001000
00000010
00000100
00000000
,
00000001
00000000
00000100
00000010
00000000
00000010
00001000
00000000
00001000
00000100
00000000
00000100
00001000
00000000
00000001
00000000
,
00000010
00000100
00001000
00000000
00000010
00010000
00000010
00000000
00010000
00001000
00100000
00000000
00010000
01000000
00100000
00000000
,
10000000
00000000
01000000
00100000
00000000
00100000
00010000
00000000
00010000
01000000
00000000
01000000
00001000
00000000
00010000
00000000
,
00001000
00010000
00000100
00000000
00001000
00000010
00001000
00000000
00000001
00000100
00001000
00000000
00010000
00100000
10000000
00000000
,
10000000
01000000
00010000
00001000
00000020
00000000
00000000
00000030
00000001
00000100
00001000
00010000
00100000
00000000
10000000
00000000
,
00010000
01000000
00010000
01000000
00002000
00000000
00000000
00000000
00000000
00000000
00003000
00000000
00011000
00000000
00000000
00000000
,
00010000
00000000
00000010
00010000
00000000
00010000
00001000
00000000
00001000
00100000
00000000
00100000
00010000
00000000
00010000
00000000
,
10000000
00100000
00010000
00000000
10000000
01000000
00010000
00000000
00100000
00001000
00010000
00000000
00000010
00010000
00001000
00000000
,
00010000
00000000
00000100
00001000
00000000
00001000
00000001
00000000
00000001
00000100
00000000
00000100
00000010
00000000
00001000
00000000
,
00000001
00000010
00001000
00000000
00000001
00000100
00001000
00000000
00000010
00010000
00001000
00000000
00100000
00001000
00010000
00000000
,
00001000
00000000
00010000
01000000
00000000
01000000
10000000
00000000
10000000
00100000
00000000
00100000
00010000
00000000
00001000
00000000
,
00010000
00001000
00000100
00000000
00001000
00000100
00000001
00000000
00000010
00001000
00010000
00000000
00001000
00010000
01000000
00000000
,
10000000
01000000
00100000
00010000
00002000
00000000
00000000
00000000
00003001
00000100
00000010
00001000
00020000
00000000
00000000
00000000
,
10030000
01000000
00010000
01000000
10000000
00100000
01000000
00010000
00100000
00001000
00010000
00001000
00000100
00000001
00000010
00000100
,
00001000
00000000
00000000
00000000
,
00000000
00000000
00000000
00000000
;
