
//----- song ID: puda -----//
#TITLE:PUT YOUR FAITH IN ME (DA's Twinkly Disco Remix);
#ARTIST:UZI-LAY;
#BANNER:PUT YOUR FAITH IN ME (DA's Twinkly Disco Remix).png;
#BACKGROUND:PUT YOUR FAITH IN ME (DA's Twinkly Disco Remix)-bg.png;
#CDTITLE:./CDTitles/DDR X3 VS 2ndMIX.png;
#MUSIC:PUT YOUR FAITH IN ME (DA's Twinkly Disco Remix).ogg;
#SAMPLESTART:34.96;
#SAMPLELENGTH:15;
#BPMS:0=115;
#NOTES:
     dance-single:
     :
     Beginner:
     2:
     :
0000
0000
0000
0000
,
0000
0000
0000
0000
,
0000
0000
0000
0000
,
0000
0000
0000
0000
,
0000
0000
0000
0000
,
0001
0000
0000
0000
,
0001
0000
0000
0000
,
1000
0000
0000
0000
,
1000
0000
0000
0000
,
0001
0000
0000
0000
,
0001
0000
0000
0000
,
1000
0000
0000
0000
,
1000
0000
0000
0000
,
0100
0000
0000
0000
,
0010
0000
0000
0000
,
0100
0000
0000
0000
,
0010
0000
0000
0000
,
0001
0000
0001
0000
,
0001
0000
0000
0000
,
1000
0000
1000
0000
,
1000
0000
0000
0000
,
0010
0000
0010
0000
,
0010
0000
0000
0000
,
0100
0000
0000
0000
,
1001
0000
0000
0000
,
0200
0000
0000
0000
,
0000
0000
0000
0000
,
0300
0000
0000
0000
,
0000
0000
0000
0000
,
0001
0000
0001
0000
,
0001
0000
0000
0000
,
0100
0000
0100
0000
,
0100
0000
0000
0000
,
1000
0000
1000
0000
,
1000
0000
0000
0000
,
0100
0000
0100
0000
,
0100
0000
0000
0000
,
0001
0000
0001
0000
,
0100
0000
0000
0000
,
1000
0000
1000
0000
,
0100
0000
0000
0000
,
0010
0000
0010
0000
,
0100
0000
0000
0000
,
0001
0000
0001
0000
,
1000
0000
0000
0000
,
1001
0000
0000
0000
,
0000
0000
0000
0000
;
#NOTES:
     dance-single:
     :
     Easy:
     5:
     :
0000
0000
0000
0000
,
0000
0000
0000
0000
,
0000
0000
0000
0000
,
0000
0000
0000
0000
,
0000
0000
0000
0000
,
1000
0100
0001
0000
,
1000
0100
0010
0000
,
0001
0100
1000
0010
,
0001
0010
0100
0100
,
0001
0010
1000
0000
,
1000
0010
0100
0000
,
2002
3003
0010
0000
,
2000
0000
3001
0000
,
0100
0100
0010
0001
,
0100
0010
1000
1000
,
0100
0001
0100
0010
,
0100
0100
1100
0000
,
0020
0001
0100
1030
,
0010
0001
0100
1000
,
0001
0110
1000
0110
,
0001
0010
1000
0100
,
0002
0023
0230
2300
,
3001
0001
1001
0000
,
0010
1001
0100
1001
,
0010
0000
1000
0000
0001
0000
0010
0010
,
0200
0000
0000
0000
,
0000
0000
0000
0300
,
0020
0000
0000
0000
,
0000
0000
0000
0030
,
1000
0100
0010
1000
,
0100
0010
0010
0000
,
0001
0010
0100
0001
,
0010
0100
0110
0000
,
0001
1000
0001
0100
,
0001
0010
1000
0001
,
0100
1000
0100
0010
,
0001
0010
1000
0110
,
0002
0010
1000
0103
,
0001
0010
1000
0100
,
0001
0101
1000
1100
,
0200
0010
1000
0310
,
0002
0023
0230
2300
,
3100
0000
0011
0000
,
1000
1001
0100
0110
,
1000
0000
0001
0000
0100
0000
0010
0010
,
0100
0000
0000
0000
,
0000
0000
0000
0000
;
#NOTES:
     dance-single:
     :
     Medium:
     8:
     :
0000
0000
0000
0000
,
0000
0000
0000
0000
,
0000
0000
0000
0000
,
0000
0000
0000
0000
,
0000
0000
0000
0000
,
0010
0000
1000
0000
0100
1000
0010
0000
,
0001
0000
1000
0000
0010
0100
0100
0000
,
1000
0000
0010
0000
1000
0001
0100
0000
,
1000
0000
0010
0000
0001
0100
1000
0000
,
0100
2010
0001
3100
,
1000
0210
0001
1300
,
0101
0000
0000
0010
0001
0100
0010
0000
,
1100
0000
0000
0100
1000
0010
0100
0000
,
0001
0000
0010
0000
0000
0100
1000
0100
,
0001
0000
0100
0000
0000
0010
1000
0010
,
0100
0000
1000
0000
0000
0001
0100
0010
,
1000
0100
0010
0001
0100
0000
0000
0000
,
1100
0101
0011
0101
,
0100
1000
0010
0100
0001
0010
0100
0000
,
0001
0100
1000
0000
0010
0001
0010
0000
,
1000
0000
0100
0000
0001
0000
0010
0100
,
1001
1100
0101
0110
,
1000
0100
0001
0100
0020
0000
0130
0000
,
0001
1000
0100
0000
0001
0100
0010
1000
,
0100
0000
0001
0000
0010
0000
1000
0001
,
0200
1000
1000
1300
,
0002
0100
0100
0013
,
2000
0001
0001
3001
,
0020
0000
0100
0000
0100
0100
0130
0000
,
1000
0001
1000
0001
0100
0000
0100
0000
,
0010
1000
0010
1000
0100
0000
0100
0000
,
0010
0001
0010
0001
1000
0000
1000
0000
,
0100
1000
0001
0100
,
0001
1000
0010
0000
0001
0000
1000
0000
,
0010
0001
1000
0000
0010
0000
0100
0000
,
0001
1000
0100
0000
0001
0100
1000
0000
,
0100
0000
0001
0000
0010
0000
0100
0010
,
0110
1010
1100
0101
,
0010
0001
0010
0100
0010
1000
0010
0000
,
2100
0000
3010
0000
0100
0001
0010
0000
,
2000
0000
3100
0000
0002
0000
0013
0010
,
1100
0011
0101
1010
,
0001
0100
1000
0100
0001
0100
1000
0000
,
0001
0000
0110
0000
0001
1000
0100
0000
,
0020
0000
0001
0000
1000
0000
0100
0100
,
0130
0000
0000
0000
,
0000
0000
0000
0000
;
#NOTES:
     dance-single:
     :
     Hard:
     13:
     :
0000
0000
0000
0000
,
0000
0000
0000
0000
,
0000
0000
0000
0000
,
0000
0000
0000
0000
,
0000
0000
0000
0000
,
1000
0000
0001
0100
0001
0000
1000
0100
0001
0000
0100
1000
0001
0000
0100
0000
,
0010
0000
1000
0100
1000
0000
0001
0100
1000
0000
0100
0001
1000
0000
0100
0000
,
1000
0000
0001
0010
0001
0000
1000
0010
0001
0000
0010
1000
0001
0000
0010
0000
,
0100
0000
1000
0010
1000
0000
0001
0010
1000
0000
0010
0001
0010
0100
1000
0000
,
0001
0000
0010
0001
0100
0000
0010
1000
0100
0000
0001
0100
0010
0000
0100
0000
,
1000
0000
0010
1000
0100
0000
0001
0100
1000
0000
0010
0100
0010
0000
0100
0000
,
0001
1000
0001
0000
0000
0000
0001
1000
0100
0000
0010
0100
1000
0000
0001
0000
,
1001
0000
0100
0010
0001
0000
0100
0010
1000
0000
0100
0000
0011
0000
1001
0000
,
0100
0000
0001
0010
0000
0010
0001
0010
0200
0000
0000
1000
0000
0000
0310
0001
,
0100
0000
0100
0010
0000
0010
1000
0010
0200
0000
0001
0000
0010
0000
0301
1000
,
0100
0000
0010
0100
0000
0100
0010
0100
2000
0000
0000
0010
0000
0000
3100
0010
,
0001
0000
0000
0001
0100
0000
0010
0000
1000
0001
1000
0001
0010
0000
0100
0000
,
0011
0000
1000
0000
0101
0000
1000
0000
0011
0000
0100
0000
0010
0100
0001
0020
,
1000
1000
0001
0001
0130
1000
0101
1000
,
0010
1000
0001
0010
1000
0000
0010
0000
0001
0000
1000
0000
0010
0000
0001
0000
,
0200
0000
1000
0000
0010
0000
0301
0010
,
1100
0000
0001
0000
1010
0000
0001
0000
1100
0000
0010
0000
0100
1000
0001
0020
,
1000
0000
1000
0000
0031
0000
0100
0000
0220
0000
0330
1000
0100
0000
0011
0000
,
0001
1000
0100
0001
1000
0000
0010
0000
0101
0000
0010
0000
1000
0000
0100
0000
,
0020
0000
0000
0000
0001
0000
0000
0000
0100
0000
0000
0000
1030
0000
0001
0010
,
0002
0000
0000
0000
0100
0000
0000
0100
0000
0000
0100
0000
0000
0000
0010
0000
,
0000
0000
0100
0000
0100
0000
0000
1000
0000
0000
1000
0000
0003
0000
0010
0000
,
2000
0000
0000
0000
0100
0000
0000
0100
0000
0000
0100
0000
0000
0000
0010
0000
,
0000
0000
0100
0000
0100
0000
0000
0001
0000
0000
0100
0000
3001
0000
0010
0000
,
0100
0000
1000
0010
1000
0000
1000
0001
0000
1000
0010
0000
1100
0000
0010
0100
,
0010
0000
0001
0100
0001
1000
0000
0001
0010
0000
0100
0000
1100
0000
0011
0000
,
0100
0000
0001
0010
0001
0000
0001
1000
0000
0001
0010
0000
0101
0000
0010
0100
,
0010
0000
1000
0100
1000
0001
0000
1000
0010
0000
0100
0001
0010
0000
0100
1000
,
0010
0000
0100
0010
0100
0000
0001
0010
0000
0100
1000
0000
1100
0000
0001
0100
,
0010
0000
0100
0010
0100
1000
0000
0001
0010
0000
1000
0000
1100
0000
1001
0000
,
0010
0000
0100
0010
0100
0000
1000
0010
0000
0100
0001
0000
0101
0000
1000
0100
,
0010
0000
0100
0010
0100
0001
0000
1000
0010
0000
0001
0000
0101
0000
1001
0000
,
2010
0000
3001
0000
2100
0000
3001
0000
2010
0000
3100
0000
0010
0100
1000
0020
,
0001
0100
1000
0100
0031
1000
0210
0301
,
0010
0001
1000
0010
0001
0000
0010
0000
1000
0000
0001
0000
0010
0000
1000
0000
,
0200
0000
0001
0000
0310
0001
1100
0010
,
0201
0000
1300
0000
0021
0000
1030
0000
0201
0000
1300
0000
0100
0001
1000
0020
,
0001
0000
1000
0000
0031
0000
0100
0000
0220
0000
0330
0001
0100
0000
1010
0000
,
1000
0001
0100
1000
0001
0000
0010
0000
1100
0000
0010
0001
0100
0000
1000
0000
,
0020
0000
0000
0000
0001
0000
0000
0000
0100
0000
0000
0000
1030
0000
0001
0010
,
1000
0000
0000
0000
,
0000
0000
0000
0000
;
#NOTES:
     dance-double:
     :
     Easy:
     5:
     :
00000000
00000000
00000000
00000000
,
00000000
00000000
00000000
00000000
,
00000000
00000000
00000000
00000000
,
00000000
00000000
00000000
00000000
,
00000000
00000000
00000000
00000000
,
00010000
01000000
00010000
10000000
,
00100000
10000000
01000000
00010000
,
00001000
00010000
00000010
00001000
,
00000100
00001000
00000001
00000100
,
00000010
00001000
00010000
00001000
,
00100000
00010000
10000000
00010000
,
20020000
30030000
00100000
10000000
,
00100000
00010000
01000000
00000000
,
00010000
00010000
00001000
00000100
,
00000001
00000001
00000010
00000100
,
00000010
00000010
00000100
00001000
,
00010000
00001000
00011000
00000000
,
00020000
00000010
00000100
00001000
,
00130000
10000000
01000000
00010000
,
00001000
00100000
00001000
01000000
,
00010000
10000000
01000000
00100000
,
00002000
00100000
01000000
00010000
,
00003010
00000001
00000010
00001001
,
00000010
00010000
00000100
00010000
,
00001000
00010000
01000000
00100000
,
20000000
00000000
00000000
00000000
,
00000000
00000000
30000000
00000000
,
00002000
00000000
00000000
00000000
,
00000000
00000000
00003000
00000000
,
00000001
00001000
00000100
00001000
,
00000001
00000100
00001000
00001000
,
00010000
00000100
00001000
00000100
,
00010000
00001000
00100000
00100000
,
00010000
10000000
01000000
01000000
,
00100000
00001000
00010000
00001000
,
00010000
00000100
00001000
00001000
,
00000001
00001000
00000001
00000010
,
00000210
00000001
00000010
00001000
,
00010300
00001000
00010000
00001000
,
00011000
00100000
00010000
01000000
,
10000000
01000000
00100000
01000000
,
02100000
10000000
00100000
00010000
,
03002000
00023000
00030020
00020030
,
00031000
00000100
00000001
00000010
,
00000001
00000100
00001000
00010000
,
00011000
00000000
00000000
00000000
,
00000000
00000000
00000000
00000000
;
#NOTES:
     dance-double:
     :
     Medium:
     9:
     :
00000000
00000000
00000000
00000000
,
00000000
00000000
00000000
00000000
,
00000000
00000000
00000000
00000000
,
00000000
00000000
00000000
00000000
,
00000000
00000000
00000000
00000000
,
00100000
10000000
01000000
00000000
00010000
00000000
00011000
00000000
,
00000010
00000001
00000100
00000000
00001000
00000000
00000010
00000000
,
00000001
00000100
00001000
00000000
00000100
00000010
00010000
00000000
,
00001000
00010000
00001000
00000000
00100000
00000000
10000000
00000000
,
00100000
10000000
00100000
00000000
00010000
00000000
00001000
00000000
,
00000100
00000001
00000100
00000000
00001000
00000000
00000100
00000000
,
00000110
00000000
00000000
00000010
00001000
00010000
01000000
00000000
,
01100000
00000000
00000000
00100000
00010000
00001000
00000100
00000000
,
00002001
00010000
00000100
00013000
,
00000100
00010000
00101000
00010000
,
10020000
00001000
01000000
00031000
,
00011000
00000000
00010000
00001000
00000100
00000000
00000000
00000000
,
00000011
00001000
00010100
00100000
,
00010000
10000000
01000000
00010000
00001000
00000100
00000001
00001000
,
00000010
00000000
00000101
00000000
00000010
00010000
00000100
00010000
,
00002000
00000000
01000000
00000000
00010000
00000000
00103000
00010000
,
10100000
00010000
01001000
00000010
,
00001000
00000001
00000100
00001000
00020000
00000000
00001000
00000000
,
01030000
10000000
00100000
01000000
00010000
00000000
00100000
00000000
,
00021000
00000000
00000100
00000000
00030010
00000000
00001000
00000010
,
00002020
00000000
00000000
00003030
,
00000202
00000000
00000000
00000303
,
00022000
00000000
00000000
00033000
,
00200000
00000000
00010000
00000000
01000000
01000000
01300000
00000000
,
00010000
00100000
00010000
10000000
01000000
00010000
00001000
00000000
,
00001000
00000100
00000001
00000010
00000001
00000000
00000100
00000000
,
00001000
00010000
01000000
10000000
00010000
10000000
00010000
00000000
,
00110000
00000000
00000000
00001000
00000100
00000000
00000011
00000000
,
00000001
00000100
00001000
00010000
00001000
00000000
00100000
00000000
,
00010000
10000000
01000000
00010000
00001000
00000000
00010000
00000000
,
00000010
00000100
00000001
00000010
00001000
00000000
00010000
00000000
,
00011000
00000000
01000000
00000000
10000000
00000000
00100000
00100000
,
11000000
00110000
01001000
00010100
,
00001000
00000001
00000010
00001000
00010000
00100000
10000000
00010000
,
10000000
00010000
00000000
10000000
00010000
00000000
01000000
00000000
00010000
00000000
10000000
00000000
00100000
00000000
00010000
00000000
,
00002000
00000000
00010000
00000000
00003010
00000000
00000100
00000100
,
00000011
00001100
00010010
00101000
,
00010000
10000000
00100000
00010000
00002000
00000000
00010000
00000000
,
00003100
00000001
00000000
00000100
00000001
00000000
00001000
00000000
00000010
00000000
00000100
00000000
00001000
00000000
00000000
00000000
,
00020000
00000000
00001000
00000000
01030000
00000000
00100000
01000000
,
11000000
00000000
00000000
00000000
,
00000000
00000000
00000000
00000000
;
#NOTES:
     dance-double:
     :
     Hard:
     13:
     :
00000000
00000000
00000000
00000000
,
00000000
00000000
00000000
00000000
,
00000000
00000000
00000000
00000000
,
00000000
00000000
00000000
00000000
,
00000000
00000000
00000000
00000000
,
00000010
00000000
00001000
00000100
00001000
00000000
00000001
00000000
00000100
00000000
00001000
00010000
00001000
00000000
00100000
00000000
,
00010000
00000000
10000000
01000000
10000000
00000000
00100000
00000000
00010000
00000000
00001000
00010000
00001000
00000100
00000010
00000000
,
00001000
00000000
00000001
00000100
00000001
00000000
00000010
00000000
00000001
00000000
00000100
00000010
00000100
00000000
00001000
00000000
,
00100000
00000000
01000000
10000000
01000000
00000000
00010000
00000000
00001000
00000000
00000010
00000001
00001000
00000001
00000010
00000000
,
00000001
00000000
00000100
00001000
00010000
00000000
00000100
00000000
00010000
00000000
00001000
00100000
01000000
00000000
10000000
00000000
,
00010000
00000000
10000000
01000000
00100000
00000000
00010000
00000000
10000000
00000000
00100000
00010000
00001000
00010000
00000100
00000000
,
00001000
00000001
00000010
00000000
00000011
00000000
00000001
00000000
00000100
00000000
00001000
00100000
00010000
00000000
01000000
00000000
,
00010000
00100000
00010000
00000000
10000000
00000000
01000000
00010000
00000100
00001000
00000010
00000000
00000100
00000000
00000001
00000000
,
00000110
00000000
00001000
00000100
00000001
00000100
00000000
00001000
00010000
00000000
00000000
00010100
00000000
00000000
00101000
00000000
,
01100000
00000000
00010000
01000000
10000000
01000000
00000000
00010000
00001000
00000000
00101000
00000000
00000010
00000000
00010100
00000000
,
00000110
00000000
00001000
00000010
00000001
00000010
00000000
00001000
00010000
00000000
00000000
00011000
00000000
00000000
00001000
00010000
,
00000010
00000000
00000000
00000010
00000100
00000000
00000001
00000000
00000100
00001000
00010000
00100000
01000000
00000000
00100000
00000000
,
01200000
00000000
10300000
00000000
01200000
00000000
00310000
00000000
01200000
00000000
10300000
00000000
01000000
00100000
00000000
00010000
,
00001000
00000010
00000001
00000100
00001000
00010000
00100000
10000000
,
01000000
00010000
00000000
00001000
00000010
00000000
00000001
00000000
00000001
00000000
00000100
00000000
00001000
00000000
00010000
00000000
,
01000000
00000000
10010000
00000000
00101000
00000000
00010100
00000010
,
00000210
00000000
00000301
00000000
00000210
00000000
00001300
00000000
00000210
00000000
00000301
00000000
00000010
00000100
00000000
00001000
,
00010000
00000000
00000010
00000000
00000100
00000000
00001000
00000000
00011000
00000000
00000000
00110000
00000000
00000000
01010000
00000000
,
00100000
10000000
00000000
00010000
00100000
00000000
01000000
00000000
10000000
00000000
01000000
00000000
00010000
00000000
00001000
00000000
,
00000200
00000000
00000000
00000000
00000001
00000000
00000000
00000000
00000010
00000000
00000000
00000000
00001300
00000000
00001000
00010000
,
00002000
00000000
00000000
00000000
01000000
00000000
00000000
01000000
00000000
00000000
01000000
00000000
00000000
00000000
00100000
00000000
,
00000000
00000000
01000000
00000000
01000000
00000000
00000000
00010000
00000000
00000000
00010000
00000000
00000000
00000000
00100000
00000000
,
00023000
00000000
00000000
00000000
00000100
00000000
00000000
00000100
00000000
00000000
00000100
00000000
00000000
00000000
00000010
00000000
,
00000000
00000000
00000100
00000000
00000100
00000000
00000000
00001000
00000000
00000000
00000010
00000000
00031000
00000000
00001000
00000000
,
00100000
00000000
00010000
01000000
00010000
00000000
10000000
01000000
00000000
00010000
01000000
00000000
00100000
00000000
00001000
00000000
,
00010000
00000000
00001000
00100000
00001000
01000000
00000000
00100000
10000000
00000000
01000000
00000000
00110000
00000000
00011000
00000000
,
00000010
00000000
00001000
00000100
00001000
00000000
00000001
00000100
00000000
00001000
00000100
00000000
00000010
00000000
00010000
00000000
,
00001000
00000000
00010000
00000010
00010000
00000100
00000000
00000010
00000001
00000000
00000100
00000000
00001010
00000000
00011000
00000000
,
00001000
00000000
00100000
00010000
00100000
00000000
00010000
10000000
00000000
01000000
00010000
00000000
00001000
00000000
00010000
00000010
,
00000100
00000000
00000010
00001000
00000010
00000001
00000000
00001000
00000100
00000000
00000001
00000000
00000011
00000000
00000110
00000000
,
00010000
00000000
00000010
00001000
00000010
00000000
00001000
00000001
00000000
00000100
00001000
00000000
00010000
00000000
00001000
00100000
,
01000000
00000000
00100000
00010000
00100000
10000000
00000000
00010000
01000000
00000000
10000000
00000000
10010000
00000000
10100000
00000000
,
01200000
00000000
10300000
00000000
01200000
00000000
00301000
00000000
01200000
00000000
10300000
00000000
01000000
00010000
00000000
00001000
,
00000100
00000001
00000010
00000001
00000100
00001000
00010000
01000000
,
10000000
00100000
10000000
01000000
00010000
00000000
00001000
00000000
00000100
00000000
00001000
00010000
00100000
00000000
01000000
00000000
,
00020000
00000000
10000000
00000000
00100000
00000000
00031000
00000100
,
00000120
00000000
00000031
00000000
00000120
00000000
00010030
00000000
00000120
00000000
00000031
00000000
00000100
00001000
00000000
00010000
,
01000000
00000000
10000000
00000000
00100000
00000000
00010000
00000000
00001020
00000000
00000000
00000001
00000000
00000000
00001030
00000000
,
00000001
00000010
00001000
00000010
00000001
00000000
00000100
00000000
00001000
00000000
00010000
00001000
00100000
00000000
00101000
00000000
,
00020000
00000000
00000000
00000000
01000000
00000000
00000000
00000000
10000000
00000000
00000000
00000000
00130000
00000000
00001000
00010000
,
00100000
00000000
00000000
00000000
,
00000000
00000000
00000000
00000000
;
