
//----- song ID: meme -----//
#TITLE:女々しくて;
#ARTIST:ゴールデンボンバー;
#TITLETRANSLIT:Memeshikute;
#ARTISTTRANSLIT:Golden Bomber;
#BANNER:Memeshikute.png;
#BACKGROUND:Memeshikute-bg.png;
#CDTITLE:./CDTitles/DDR X3 VS 2ndMIX.png;
#MUSIC:Memeshikute.ogg;
#SAMPLESTART:60.42;
#SAMPLELENGTH:15;
#DISPLAYBPM:143;
#BPMS:0=142,4=143;
#NOTES:
     dance-single:
     :
     Beginner:
     1:
     :
0000
0000
0000
0000
,
0000
0000
0000
0000
,
0000
0000
0000
0000
,
0001
0000
0000
0000
,
1000
0000
0000
0000
,
0001
0000
0000
0000
,
1000
0000
0000
0000
,
0010
0000
0000
0000
,
0100
0000
0000
0000
,
0010
0000
0000
0000
,
0100
0000
0000
0000
,
0001
0000
0000
0000
,
0001
0000
0000
0000
,
1000
0000
0000
0000
,
1000
0000
0000
0000
,
0001
0000
0000
0000
,
0001
0000
0000
0000
,
1000
0000
0000
0000
,
1000
0000
0000
0000
,
0010
0000
0010
0000
,
0010
0000
0000
0000
,
0001
0000
0001
0000
,
0001
0000
0000
0000
,
0100
0000
0100
0000
,
0100
0000
0000
0000
,
1000
0000
1000
0000
,
1000
0000
0000
0000
,
0001
0000
0001
0000
,
1000
0000
1000
0000
,
0001
0000
0001
0000
,
1000
0000
1000
0000
,
0001
0000
0001
0000
,
1000
0000
1000
0000
,
0001
0000
0001
0000
,
1000
0000
1000
0000
,
0001
0000
0000
0000
,
1001
0000
0000
0000
,
0010
0000
0010
0000
,
1001
0000
0000
0000
,
0010
0000
0010
0000
,
1001
0000
0000
0000
,
0010
0000
0010
0000
,
0001
0000
0001
0000
,
1000
0000
0000
0000
,
1001
0000
0000
0000
,
1001
0000
0000
0000
,
0010
0000
0010
0000
,
0001
0000
0001
0000
,
1000
0000
1000
0000
,
0100
0000
0100
0000
,
0001
0001
0001
0000
,
1000
1000
1000
0000
,
0001
0001
0001
0000
,
1000
1000
1000
0000
,
0001
0000
0000
0001
0000
0000
0001
0000
,
0000
0000
0000
0000
;
#NOTES:
     dance-single:
     :
     Easy:
     4:
     :
0000
0000
0000
0000
,
0000
0000
0000
0000
,
0000
0000
0000
0000
,
1000
0000
0100
0000
,
0001
0000
0100
0000
,
1000
0000
0010
0000
,
0001
0000
0010
0000
,
1000
0010
1000
0000
,
0001
0010
0001
0000
,
1000
0100
1000
0000
,
0001
0100
0001
0000
,
1000
0000
0010
0000
,
0100
0000
0001
0000
,
0001
0000
0010
0000
,
0100
0000
1000
0000
,
0010
0000
1000
0000
,
0001
0000
0010
0000
,
0010
0000
0001
0000
,
1000
0000
0010
0000
,
1000
0100
1000
0100
,
1000
0000
0100
0000
,
0001
0100
0001
0100
,
0001
0000
0100
0000
,
1000
0001
1000
0001
,
1000
0000
0001
0000
,
2000
0000
0000
3000
,
0010
0010
0010
0000
,
0001
1000
0001
0001
,
1000
0001
1000
1000
,
0001
1000
0001
0001
,
1000
0001
1000
1001
,
0001
1000
0001
0001
,
1000
0001
1000
1000
,
0001
1000
0001
0001
,
1000
0001
1000
1000
,
0001
0000
1000
0000
,
0010
0000
0000
0010
0000
0000
0000
0000
,
0001
0001
0100
0000
,
0010
0000
0000
0010
0000
0000
0000
0000
,
1000
1000
0100
0000
,
0010
0000
0000
0010
0000
0000
0000
0000
,
0001
0001
0100
0100
,
1000
1000
0010
0010
,
0001
0000
1000
0000
,
0010
0000
0000
0010
0000
0000
0010
0000
,
0010
0000
0100
0000
,
0001
0000
0100
0000
,
1000
0000
0100
0000
,
0001
0000
0010
0000
,
1000
0000
0010
0000
,
0001
0010
0001
0000
,
1000
0010
1000
0000
,
0001
0100
0001
0000
,
1000
0100
1000
0000
,
0001
0000
0000
1000
0000
0000
0001
0002
,
0000
0000
0000
0000
,
0000
0000
0000
0000
,
0003
0000
0000
0000
,
0000
0000
0000
0000
;
#NOTES:
     dance-single:
     :
     Medium:
     7:
     :
0000
0000
0000
0000
,
0000
0000
0000
0000
,
0000
0000
0000
0000
,
0001
1000
0100
0010
,
0002
0100
1000
0103
,
1000
0001
0100
0010
,
2000
0100
0001
3100
,
0010
0000
0010
0000
0001
0100
0001
0000
,
0010
0000
0010
0000
1000
0100
1000
0000
,
0010
0000
0010
0000
0001
0100
0001
0000
,
0010
1000
0100
1000
,
0001
0010
0100
0010
,
1000
0010
0100
0010
,
0001
0100
1000
0100
,
0010
0001
0100
0010
,
1000
0010
0100
0010
,
0001
0010
0100
0010
,
1000
0100
0001
0100
,
0010
1000
0100
0010
,
0100
1000
0010
0001
,
0010
0000
0000
0000
0010
0001
1000
0000
,
0100
0001
0010
1000
,
0010
0000
0000
0000
0010
1000
0001
0000
,
2000
0010
0001
3100
,
0002
0010
1000
0103
,
2000
0000
0002
3003
,
0010
0100
0010
1001
,
1000
0000
1000
0000
0010
1000
0100
0000
,
0001
0000
0001
0000
0010
0001
0100
0000
,
0010
0000
0010
0000
0100
0010
0100
0000
,
0010
1000
0001
0110
,
1000
0000
1000
0000
0001
0100
0001
0000
,
0010
0000
0010
0000
0100
1000
0100
0000
,
0010
0001
0100
1000
,
0010
0001
0100
1000
,
0010
0000
0100
0000
,
0001
0000
0010
0001
0000
0010
0000
0000
,
0100
1000
0010
0001
,
0100
0000
0001
0100
0000
0001
0000
0000
,
0010
1000
0100
0001
,
0100
0000
0010
0100
0000
0010
0000
0000
,
0100
1000
0010
0001
,
0100
0001
0010
1000
,
0001
0000
1000
0000
,
0001
0000
1000
0001
0000
1000
0100
0000
,
0010
0100
0010
0010
,
1000
0001
0100
0010
,
2000
0100
0001
3100
,
0001
1000
0100
0010
,
0002
0100
1000
0103
,
0010
0000
0010
0000
1000
0100
1000
0000
,
0010
0000
0010
0000
0001
0100
0001
0000
,
0010
0000
0010
0000
1000
0100
1000
0000
,
0010
0001
0100
1000
,
0010
0000
0100
0010
0000
0100
0010
0020
,
0000
0000
0000
0000
,
0000
0000
0000
0000
,
0030
0000
0000
0000
,
0000
0000
0000
0000
;
#NOTES:
     dance-single:
     :
     Hard:
     11:
     :
0000
0000
0000
0000
,
0000
0000
0000
0000
,
0000
0000
0000
0000
,
1000
0000
0001
0000
0010
0001
0100
0000
,
2100
0010
0001
3010
,
0001
0000
1000
0000
0010
1000
0100
0000
,
0102
0010
1000
0013
,
0100
1000
0100
0000
1000
0010
1000
0000
,
0010
0001
0010
0000
0001
0100
0001
0000
,
0100
1000
0100
0000
1000
0010
1000
0000
,
0010
0001
0010
0000
0001
0100
0001
0000
,
1000
0000
0100
0000
0010
0100
1000
0000
,
0001
0000
0100
0000
0010
0100
0001
0000
,
1000
0000
0010
0000
0100
0010
1000
0000
,
0001
0010
0100
0000
1000
0010
0100
0000
,
0001
0000
0100
0000
0010
0100
0001
0000
,
1000
0000
0100
0000
0010
0100
1000
0000
,
0001
0000
0010
0000
0100
0010
0001
0000
,
1000
0010
0100
0000
0001
0010
0100
0000
,
0010
0000
0001
0000
0100
0001
1000
0001
,
0100
0000
0010
0000
0100
0001
1000
0000
,
0010
0000
1000
0000
0100
1000
0001
1000
,
0100
0000
0010
0000
0100
1000
0001
0000
,
0020
0001
0100
0031
,
0200
0010
1000
0310
,
2000
0000
0002
3003
,
0100
0000
0000
0010
0000
0000
0100
0000
0010
0000
0000
0000
1001
0000
0000
0000
,
0101
0000
0000
0100
0001
0000
0000
0001
0100
0000
0001
0000
0100
0000
0000
0000
,
1100
0000
0000
0100
1000
0000
0000
1000
0100
0000
1000
0000
0100
0000
0000
0000
,
0110
0000
0000
0010
0100
0000
0000
0100
0010
0000
0100
0000
0010
0000
0000
0000
,
0001
1000
0010
0100
0001
0000
1100
0000
,
1010
0000
0000
0010
1000
0000
0000
1000
0010
0000
1000
0000
0010
0000
0000
0000
,
0011
0000
0000
0010
0001
0000
0000
0001
0010
0000
0001
0000
0010
0000
0000
0000
,
0100
1000
0100
0000
0010
0001
0010
0000
,
0100
1000
0010
0001
,
0100
0000
0010
0000
,
1000
0001
1000
0001
1000
0000
0100
0010
0100
0010
0100
0000
0000
0000
0000
0000
,
0010
0001
0100
1000
,
0010
0100
0010
0100
0010
0000
1000
0001
1000
0001
1000
0000
0000
0000
0000
0000
,
0100
0001
0010
1000
,
0010
1000
0010
1000
0010
0000
0100
0001
0100
0001
0100
0000
0000
0000
0000
0000
,
0010
0001
0100
1000
,
0010
1000
0100
0001
,
1000
0000
0001
0000
,
1000
0100
1000
0100
1000
0000
0001
0100
0001
0100
0001
0000
0100
0010
0100
0010
,
0100
0000
0000
0000
0010
0000
0000
0000
0100
0000
0000
0100
0000
0000
0100
0000
,
0001
0000
1000
0000
0010
1000
0100
0000
,
0102
0010
1000
0013
,
1000
0000
0001
0000
0010
0001
0100
0000
,
2100
0010
0001
3010
,
0100
0001
0100
0000
0001
0010
0001
0000
,
0010
1000
0010
0000
1000
0100
1000
0000
,
0100
0001
0100
0000
0001
0010
0001
0000
,
0010
1000
0010
0000
1000
0100
1000
0000
,
0010
0100
0100
0001
0100
0100
0010
2002
,
0000
0000
0000
0000
,
0000
0000
0000
0000
,
3003
0000
0000
0000
,
0000
0000
0000
0000
;
#NOTES:
     dance-single:
     :
     Challenge:
     10:
     :
0000
0000
0000
0000
,
0000
0000
0000
0000
,
0000
0000
0000
0000
,
0010
MMMM
0010
MMMM
0010
MMMM
0010
MMMM
,
0010
MMMM
0010
MMMM
0010
MMMM
0010
MMMM
,
0010
MMMM
0010
MMMM
0010
MMMM
0010
MMMM
,
0010
MMMM
0010
MMMM
0010
MMMM
0010
MMMM
,
2100
0100
3100
0001
,
2000
0100
3002
0100
,
2003
0000
3001
1000
,
2002
0000
0000
0000
0000
0000
3003
MMMM
,
0100
0001
0100
1000
,
0100
0001
0100
2000
,
0100
3002
0100
2003
,
0100
3002
0100
1003
,
0010
0001
0010
1000
,
0010
0001
0010
2000
,
0010
3002
0010
2003
,
0010
3002
0013
MMMM
,
1200
1000
1000
1000
,
1000
1000
1000
1300
,
0201
0001
0001
0001
,
0001
0001
0001
0301
,
0200
0000
0000
0000
,
0000
0000
0000
0300
,
0010
1000
0001
0100
,
0010
0000
0010
0000
0020
0000
0130
MMMM
,
0001
MMMM
1000
MMMM
0001
MMMM
0001
MMMM
,
1000
MMMM
0001
MMMM
1000
MMMM
1000
MMMM
,
0001
MMMM
1000
MMMM
0001
MMMM
0001
MMMM
,
1000
MMMM
0001
MMMM
0200
0000
0310
MMMM
,
0001
MMMM
1000
MMMM
0001
MMMM
0001
MMMM
,
1000
MMMM
0001
MMMM
1000
MMMM
1000
MMMM
,
0001
MMMM
1000
MMMM
0001
MMMM
0001
MMMM
,
1000
MMMM
0001
MMMM
1000
MMMM
1000
MMMM
,
0001
MMMM
1000
MMMM
0001
MMMM
0001
MMMM
,
1000
0100
MMMM
0002
0100
0000
0000
0000
,
0100
0100
0100
0103
,
0001
0100
MMMM
2000
0100
0000
0000
0000
,
0100
0100
0100
3100
,
1000
0100
MMMM
0002
0100
0000
0000
0000
,
0100
0100
0100
0103
,
1000
0001
0010
1000
,
0100
MMMM
1001
0000
,
1000
1000
MMMM
0100
0100
MMMM
0001
0001
,
MMMM
0220
0000
0330
,
1001
MMMM
1001
MMMM
1001
MMMM
1001
MMMM
,
1001
MMMM
1001
MMMM
1001
MMMM
1001
MMMM
,
1001
MMMM
1001
MMMM
1001
MMMM
1001
MMMM
,
1001
MMMM
1001
MMMM
1001
MMMM
1001
MMMM
,
2100
0100
3100
0001
,
2000
0100
3002
0100
,
2003
0000
3001
1000
,
2002
0000
0000
0000
0000
3003
MMMM
0000
,
1100
0000
0000
0101
0000
0000
0100
0220
,
0000
0000
0000
0000
,
0000
0000
0000
0000
,
0330
0000
0000
0000
,
0000
0000
0000
0000
;
#NOTES:
     dance-double:
     :
     Easy:
     5:
     :
00000000
00000000
00000000
00000000
,
00000000
00000000
00000000
00000000
,
00000000
00000000
00000000
00000000
,
00100000
10000000
01000000
00000000
,
00100000
00010000
01000000
00000000
,
00001000
00010000
00001000
00000000
,
00000010
00001000
00000100
00000000
,
00000010
00000001
00001000
00000000
,
00000010
00001000
00000001
00000000
,
00000100
00001000
00010000
00000000
,
00001000
00010000
00001000
00000000
,
00100000
00000000
00010000
00000000
,
10000000
00000000
00100000
00000000
,
01000000
00000000
00000000
00000000
,
00010000
00100000
01000000
10000000
,
00100000
00000000
10000000
00000000
,
01000000
00000000
00010000
00000000
,
00001000
00000000
00000000
00000000
,
00000010
00000001
00000100
00001000
,
00000010
00000100
00000001
00000000
,
00001000
00000000
00000100
00000100
,
00010000
00001000
00100000
00000000
,
01000000
00000000
00100000
00100000
,
00010000
01000000
10000000
00000000
,
10000000
01000000
00010000
00000000
,
10000000
00000000
00010000
00000000
,
00100000
01000000
00100000
00000000
,
10000000
10000000
01000000
01000000
,
00010000
00010000
00001000
00001000
,
00000100
00000100
00000001
00000001
,
00001000
00000001
00001001
00000000
,
00000001
00000001
00000100
00000100
,
00001000
00001000
00010000
00010000
,
01000000
01000000
10000000
10000000
,
00010000
00000000
00000000
00000000
,
10000000
00000000
00000000
00000000
,
00100000
00000000
00000000
00100000
00000000
00000000
00000000
00000000
,
10000000
10000000
01000000
00000000
,
00100000
00000000
00000000
00100000
00000000
00000000
00000000
00000000
,
00001000
00001000
00010000
00000000
,
00000010
00000000
00000000
00000010
00000000
00000000
00000000
00000000
,
00000100
00000100
00000001
00000000
,
00000100
00000100
00001000
00000000
,
00000001
00000000
00001000
00000000
,
00000010
00000000
00000000
00000010
00000000
00000000
00000010
00000000
,
00000010
00000000
00000100
00000000
,
00000010
00000001
00000100
00000000
,
00000010
00001000
00000100
00000000
,
00010000
00001000
00010000
00000000
,
00100000
00010000
01000000
00000000
,
00100000
10000000
00010000
00000000
,
00100000
00010000
10000000
00000000
,
01000000
00010000
00001000
00000000
,
00010000
00001000
00010000
00000000
,
00000010
00000000
00000000
00001000
00000000
00000000
00000010
00000020
,
00000000
00000000
00000000
00000000
,
00000000
00000000
00000000
00000000
,
00000030
00000000
00000000
00000000
,
00000000
00000000
00000000
00000000
;
#NOTES:
     dance-double:
     :
     Medium:
     7:
     :
00000000
00000000
00000000
00000000
,
00000000
00000000
00000000
00000000
,
00000000
00000000
00000000
00000000
,
10000000
00100000
01000000
00010000
,
00100000
00001000
00010000
00000100
,
00000010
00000001
00001000
00000010
,
00000001
00000100
00001000
00000100
,
00000010
00000000
00000010
00000000
00000100
00001000
00000100
00000000
,
00010000
00000000
00010000
00000000
00001000
00010000
00001000
00000000
,
01000000
00000000
01000000
00000000
00100000
01000000
00100000
00000000
,
10000000
01000000
00010000
01000000
,
00100000
00100000
01000000
01000000
,
10000000
01000000
00010000
00001000
,
00000010
00000010
00000100
00000100
,
00000001
00000100
00001000
00010000
,
00100000
00100000
01000000
01000000
,
10000000
01000000
00010000
00001000
,
00000010
00000010
00000100
00000100
,
00000001
00000100
00001000
00010000
,
00100000
00000000
10000000
00000000
00010000
00100000
01000000
00000000
,
00200000
00000000
01000000
01300000
,
00010000
00000000
00001000
00000000
00000010
00000001
00001000
00000000
,
00000020
00000000
00000100
00000130
,
00000010
00000001
00000100
00001000
,
00010000
00100000
10000000
01000000
,
00100000
00000000
01000000
00000000
,
00100000
01000000
00100000
10010000
,
11000000
00000000
11000000
00000000
00100000
00010000
01000000
00000000
,
00011000
00000000
00011000
00000000
00000010
00001000
00000100
00000000
,
00000101
00000000
00000101
00000000
00000010
00000001
00000100
00000000
,
00000010
00000100
00000010
00001001
,
00000110
00000000
00000110
00000000
00001000
00010000
00001000
00000000
,
01100000
00000000
01100000
00000000
10000000
00010000
10000000
00000000
,
00100000
10000000
01000000
10000000
,
00100000
00010000
00001000
00000100
,
00000001
00000000
00000010
00000000
,
00000101
00000000
00000000
00001100
00000000
00000000
00000000
00000000
,
00010000
00001000
00100000
00010000
,
11000000
00000000
00000000
01010000
00000000
00000000
00000000
00000000
,
00001000
00010000
00000010
00001000
,
00000101
00000000
00000000
00001100
00000000
00000000
00000000
00000000
,
00000010
00000001
00000100
00001000
,
00010000
00100000
10000000
00100000
,
01000000
00000000
00100000
00000000
,
11000000
00000000
00000000
01010000
00000000
00000000
00011000
00000000
,
00011000
00000000
00000010
00000010
,
00000001
00000010
00000100
00001000
,
00000010
00010000
00001000
01000000
,
00100000
10000000
00010000
00100000
,
10000000
01000000
00010000
01000000
,
00100000
00000000
00100000
00000000
01000000
00010000
01000000
00000000
,
00001000
00000000
00001000
00000000
00010000
00001000
00010000
00000000
,
00000100
00000000
00000100
00000000
00000010
00000100
00000010
00000000
,
00000001
00000100
00001000
00000100
,
00010000
00000000
00001000
00010000
00000000
00001000
00010000
00020000
,
00000000
00000000
00000000
00000000
,
00000000
00000000
00000000
00000000
,
00030000
00000000
00000000
00000000
,
00000000
00000000
00000000
00000000
;
#NOTES:
     dance-double:
     :
     Hard:
     12:
     :
00000000
00000000
00000000
00000000
,
00000000
00000000
00000000
00000000
,
00000000
00000000
00000000
00000000
,
00000001
00000000
00000010
00000000
00000100
00001000
00000100
00000000
,
00010000
00000000
00000010
00000000
00000100
00001000
00010000
00000000
,
00100000
00000000
10000000
00000000
00010000
00100000
01000000
00000000
,
10000000
01000000
00010000
01000000
,
00100000
10000000
00100000
00000000
01000000
00010000
01000000
00000000
,
00001000
00010000
00001000
00000000
00000100
00000010
00000100
00000000
,
00000001
00000010
00000001
00000000
00001000
00000100
00001000
00000000
,
00000010
00010000
00000010
00000000
00010000
00001000
00010000
00000000
,
01000000
00000000
10000000
00000000
00010000
01000000
10000000
00000000
,
01000000
00000000
00010000
00000000
10000000
01000000
00010000
00000000
,
01000000
00100000
00010000
00001000
,
00000100
00000000
00000010
00000000
00000001
00001000
00000100
00000000
,
00000010
00000000
00000001
00000000
00001000
00000010
00000001
00000000
,
00000010
00000000
00001000
00000000
00010000
01000000
00100000
00000000
,
10000000
00010000
00100000
01000000
,
00100000
00000000
00001000
00000000
00010000
00001000
00010000
00000000
,
00000010
00000000
00001000
00000000
00000001
00000010
00000100
00000010
,
00000001
00000000
00000000
00000000
00001000
00000001
00000100
00000000
,
00001000
00000000
00010000
00000000
00100000
10000000
00010000
10000000
,
00100000
00000000
00000000
00000000
01000000
00010000
10000000
00000000
,
00100000
10000000
01000000
00010000
,
00001000
00000010
00000001
00000100
,
00000010
00000000
00000100
00000000
,
00000010
00000000
00000000
00010000
00000000
00000000
00001000
00000000
00100000
00000000
00000000
00000000
01100000
00000000
00000000
00000000
,
11000000
00000000
00000000
01000000
10000000
00000000
00000000
10000000
01000000
00000000
10000000
00000000
01000000
00000000
00100000
00000000
,
01000000
00100000
00001000
00010000
00000010
00000100
00000010
00000000
,
00000101
00000000
00000000
00000100
00000001
00000000
00000000
00000001
00000100
00000000
00000001
00000000
00000100
00000000
00000010
00000000
,
00010000
00001000
00100000
01000000
00100000
00000000
10010000
00000000
,
11000000
00000000
00000000
01000000
10000000
00000000
00000000
10000000
01000000
00000000
10000000
00000000
01000000
00000000
00100000
00000000
,
01000000
00100000
00001000
00010000
00000010
00000100
00000010
00000000
,
00001000
00000100
00000010
00000000
00000001
00000100
00000010
00000000
,
00020000
00000010
00001000
00030010
,
00200000
01000000
10000000
01300000
,
10000000
00100000
10000000
00100000
10000000
00000000
00010000
00100000
00010000
00100000
00010000
00000000
00000000
00000000
00000000
00000000
,
10000000
00000000
00000000
00000000
01000000
00000000
00000000
00010000
00001000
00000000
00000010
00000000
00000100
00000000
00000000
00000000
,
00000010
00000100
00000010
00000100
00000010
00000000
00000001
00000100
00000001
00000100
00000001
00000000
00000000
00000000
00000000
00000000
,
00000100
00000000
00000000
00000000
00001000
00000000
00000000
00010000
00100000
00000000
10000000
00000000
00010000
00000000
00000000
00000000
,
10000000
00100000
10000000
00100000
10000000
00000000
00010000
00100000
00010000
00100000
00010000
00000000
00000000
00000000
00000000
00000000
,
10000000
00000000
00000000
00000000
01000000
00000000
00000000
00010000
00001000
00000000
00000010
00000000
00000100
00000000
00000010
00000000
,
00000001
00001000
00000010
00000100
,
00000001
00000000
00001000
00000000
,
00000010
00000100
00000010
00000100
00000010
00000000
00010000
00001000
00010000
00001000
00010000
00000000
00100000
01000000
00100000
01000000
,
00100000
00000000
00000000
00000000
01000000
00000000
00000000
00000000
00100000
00000000
00000000
00100000
00000000
00000000
00100000
00000000
,
10000000
00000000
00100000
00000000
01000000
00010000
01000000
00000000
,
00001000
00000000
00100000
00000000
01000000
00010000
00001000
00000000
,
00000010
00000000
00000001
00000000
00001000
00000010
00000100
00000000
,
00000001
00000100
00001000
00000100
,
00000010
00000001
00000010
00000000
00000100
00001000
00000100
00000000
,
00010000
00001000
00010000
00000000
01000000
00100000
01000000
00000000
,
10000000
00100000
10000000
00000000
00010000
01000000
00010000
00000000
,
00100000
00001000
00100000
00000000
00001000
00010000
00001000
00000000
,
00000100
00000010
00000010
00001000
00000001
00000001
00000010
00000200
,
00000000
00000000
00000000
00000000
,
00000000
00000000
00000000
00000000
,
00000300
00000000
00000000
00000000
,
00000000
00000000
00000000
00000000
;
#NOTES:
     dance-double:
     :
     Challenge:
     10:
     :
00000000
00000000
00000000
00000000
,
00000000
00000000
00000000
00000000
,
00000000
00000000
00000000
00000000
,
00001000
MMMMMMMM
00001000
MMMMMMMM
00010000
MMMMMMMM
00010000
MMMMMMMM
,
00001000
MMMMMMMM
00001000
MMMMMMMM
00010000
MMMMMMMM
00010000
MMMMMMMM
,
00001000
MMMMMMMM
00001000
MMMMMMMM
00010000
MMMMMMMM
00010000
MMMMMMMM
,
00001000
MMMMMMMM
00010000
MMMMMMMM
00001000
MMMMMMMM
00010000
MMMMMMMM
,
02001000
00010000
03010000
00001000
,
00020000
00001000
00030200
00001000
,
00020300
00000000
00031000
00100000
,
20020000
00000000
00000000
00000000
00000000
00000000
30030000
MMMMMMMM
,
01000000
00010000
01000000
10000000
,
01000000
00001000
00010000
00100000
,
00010000
MMMMMMMM
00001000
MMMMMMMM
,
00000100
MMMMMMMM
00000001
MMMMMMMM
,
00000010
00000001
00000100
00001000
,
00000100
00000010
00000100
00001000
,
00010000
MMMMMMMM
00001000
MMMMMMMM
,
00100000
02000000
03100000
MMMMMMMM
,
10000000
10010000
10000000
00010000
,
00100000
01000000
00010000
MMMMMMMM
,
00001000
00001001
00000001
00000001
,
00000100
00000100
00000010
MMMMMMMM
,
00000200
00000000
00000000
00000000
,
00000000
00000000
00000000
00000300
,
00000010
00001000
00000001
00000100
,
00001000
00000000
00010000
00000000
00002000
00000000
00013000
MMMMMMMM
,
00000100
MMMMMMMM
01000000
MMMMMMMM
00000100
MMMMMMMM
00000100
MMMMMMMM
,
01000000
MMMMMMMM
00000100
MMMMMMMM
01000000
MMMMMMMM
01000000
MMMMMMMM
,
00000100
MMMMMMMM
01000000
MMMMMMMM
00000100
MMMMMMMM
00000100
MMMMMMMM
,
01000000
MMMMMMMM
00000100
MMMMMMMM
00012000
00000000
00013000
MMMMMMMM
,
00000010
MMMMMMMM
00100000
MMMMMMMM
00000010
MMMMMMMM
00000010
MMMMMMMM
,
00100000
MMMMMMMM
00000010
MMMMMMMM
00100000
MMMMMMMM
00100000
MMMMMMMM
,
00000010
MMMMMMMM
00100000
MMMMMMMM
00000010
MMMMMMMM
00000010
MMMMMMMM
,
00100000
MMMMMMMM
00000010
MMMMMMMM
00100000
MMMMMMMM
00100000
MMMMMMMM
,
00000010
MMMMMMMM
00100000
MMMMMMMM
00000010
MMMMMMMM
00100000
00000000
,
01000000
00010000
00001000
00000100
00000002
00000000
00000000
00000000
,
00000100
00000100
00000100
00000103
,
00000100
00001000
00010000
01000000
20000000
00000000
00000000
00000000
,
01000000
01000000
01000000
31000000
,
01000000
00010000
00001000
00000100
00000002
00000000
00000000
00000000
,
00000100
00000100
00000100
00000103
,
00000100
00001000
00010000
01000000
,
10000000
00100000
00010000
00001000
,
00100000
00100000
MMMMMMMM
00010000
00001000
MMMMMMMM
00000010
00000010
,
MMMMMMMM
00001001
00000200
00000300
,
00011000
MMMMMMMM
00011000
MMMMMMMM
00011000
MMMMMMMM
00011000
MMMMMMMM
,
00011000
MMMMMMMM
00011000
MMMMMMMM
00011000
MMMMMMMM
00011000
MMMMMMMM
,
00011000
MMMMMMMM
00011000
MMMMMMMM
00011000
MMMMMMMM
00011000
MMMMMMMM
,
00011000
MMMMMMMM
00011000
MMMMMMMM
00011000
MMMMMMMM
00011000
MMMMMMMM
,
02001000
00010000
03010000
00001000
,
00020000
00001000
00030200
00001000
,
00020300
00000000
00031000
00100000
,
20020000
00000000
00000000
00000000
00000000
00000000
30030000
MMMMMMMM
,
01010000
00000000
00000000
00101000
00000000
00000000
00010000
00022000
,
00000000
00000000
00000000
00000000
,
00000000
00000000
00000000
00000000
,
00033000
00000000
00000000
00000000
,
00000000
00000000
00000000
00000000
;
