
//----- song ID: keyc -----//
#TITLE:KEEP ON MOVIN' (Y&Co. DJ BOSS remix);
#ARTIST:N.M.R;
#BANNER:KEEP ON MOVIN' (Y&Co. DJ BOSS remix).png;
#BACKGROUND:KEEP ON MOVIN' (Y&Co. DJ BOSS remix)-bg.png;
#CDTITLE:./CDTitles/DDR X3 VS 2ndMIX.png;
#MUSIC:KEEP ON MOVIN' (Y&Co. DJ BOSS remix).ogg;
#SAMPLESTART:24.38;
#SAMPLELENGTH:15;
#BPMS:0=128;
#NOTES:
     dance-single:
     :
     Beginner:
     2:
     :
0000
0000
0000
0000
,
0000
0000
0000
0000
,
0000
0000
0000
0000
,
0000
0000
0000
0000
,
0000
0000
0000
0000
,
0010
0000
0000
0000
,
1000
0000
0000
0000
,
0001
0000
0000
0000
,
0010
0000
0000
0000
,
1000
0000
0000
0000
,
0100
0000
0000
0000
,
0010
0000
0000
0000
,
0001
0000
0000
0000
,
0010
0000
0010
0000
,
0010
0000
0000
0000
,
0100
0000
0100
0000
,
0100
0000
0000
0000
,
0010
0000
0010
0000
,
0010
0000
0000
0000
,
1000
0000
1000
0000
,
0001
0000
0000
0000
,
0100
0000
0100
0000
,
0100
0000
0000
0000
,
0001
0000
0001
0000
,
0001
0000
0000
0000
,
0100
0000
0100
0000
,
0100
0000
0000
0000
,
1000
0000
1000
0000
,
1000
0000
0000
0000
,
0001
0000
0001
0000
,
0100
0000
0000
0000
,
1000
0000
1000
0000
,
0100
0000
0000
0000
,
0010
0000
0000
0000
,
1000
0000
0001
0000
,
1000
0000
0000
0000
,
0100
0000
0000
0000
,
0010
0010
0010
0000
,
0010
0000
0000
0000
,
1000
0000
0001
0000
,
1000
0000
0000
0000
,
0010
0010
0010
0000
,
0010
0000
0000
0000
,
0100
0000
0010
0000
,
0100
0000
0000
0000
,
1000
0000
1000
0000
,
0010
0010
0010
0000
,
0010
0000
0000
0000
,
0001
0000
1000
0000
,
0001
0000
0001
0000
,
0010
0010
0010
0000
,
0010
0000
0000
0000
,
1000
0000
0001
0000
,
1000
0000
0000
0000
,
0000
0000
0000
0000
;
#NOTES:
     dance-single:
     :
     Easy:
     6:
     :
0000
0000
0000
0000
,
0000
0000
0000
0000
,
0000
0000
0000
0000
,
0000
0000
0000
0000
,
1000
0100
0010
0001
,
0002
0010
0000
0013
,
0200
0010
0000
0310
,
2000
0100
0000
3100
,
0020
0100
0000
0130
,
0001
0010
0001
0100
,
0001
0010
0001
0100
,
0010
1000
0100
1000
,
0010
1000
0001
0000
,
0011
1010
0011
0110
,
1002
0100
1000
0013
,
0110
1000
0100
0001
,
1000
0100
0001
0000
,
1100
0101
1100
0110
,
2001
0100
0001
3010
,
0100
1001
0100
1001
,
0010
2002
0000
3003
,
0100
0001
1000
0100
,
2000
0000
3020
0000
,
0130
0001
0010
0100
,
0010
0001
1000
0000
0100
0000
0000
0000
,
0001
0100
1000
0001
,
0200
0000
0302
0000
,
0103
1000
0010
0100
,
0001
1000
0010
0000
0100
0000
0000
0000
,
0001
0001
0100
1000
,
0100
1000
0100
0001
,
0010
0010
1000
0010
,
0100
0001
0100
1000
,
0001
0100
1000
0010
,
0100
0000
0010
0000
0100
0010
0100
0000
,
0001
0100
0010
1000
,
0000
0100
0100
0000
0100
0000
0100
0000
,
1100
0101
0011
1010
,
1000
0001
0100
0000
1000
0001
0010
0000
,
0110
0001
0100
1000
,
0001
0010
1000
0001
,
0011
0101
1100
1010
,
0001
1000
0100
0000
0001
1000
0010
0000
,
0110
1100
0110
0101
,
0010
2002
0000
3003
,
1000
0100
0010
0001
,
1100
0000
0010
0000
0100
1000
0010
0000
,
1000
0102
1000
0010
,
2003
0100
0001
3010
,
0100
0001
0010
1000
,
0011
0000
0100
0000
0010
0001
0100
0000
,
0001
2100
0001
0010
,
3002
0100
1000
0013
,
0101
1010
1100
0011
,
1001
0000
0000
0000
,
0000
0000
0000
0000
;
#NOTES:
     dance-single:
     :
     Medium:
     9:
     :
0000
0000
0000
0000
,
0000
0000
0000
0000
,
0000
0000
0000
0000
,
0000
0000
0000
0000
,
1000
0100
0010
0100
0001
0100
1000
0001
,
0200
0010
0000
0010
0300
1000
0000
0001
,
2000
0010
0000
0010
3000
0100
0000
0001
,
0020
0100
0000
0100
0030
1000
0000
0010
,
0200
0001
0000
0001
0300
1000
0100
0010
,
0000
0001
0100
0020
0000
1000
0000
0100
,
0000
0001
0000
0130
0000
0010
1000
0200
,
0000
0010
0000
0001
0000
0010
0000
1300
,
0000
0010
0001
0100
0010
0000
1001
0000
,
1000
1000
0001
0001
1000
0001
1000
0001
,
0100
0010
1000
0000
1000
0100
0010
0001
,
0100
1001
0010
0100
,
1100
0101
1100
0101
,
0010
0001
0010
1000
0010
0001
0010
1000
,
0010
0000
0110
0000
1000
0010
0100
0001
,
1000
1010
0001
0011
,
0100
0100
0020
0000
0100
0000
0130
0000
,
1000
0000
0001
0000
0100
0010
1000
0000
,
0100
0000
0010
0000
0100
0001
0100
0000
,
1000
0001
1000
0001
,
0100
0001
0010
0100
1000
0000
0000
0000
,
0010
1000
0001
0000
0100
0000
0010
0000
,
1000
0000
0010
0000
0001
1000
0001
0000
,
0001
1000
0010
0000
1000
0001
0100
0000
,
0010
0100
0010
0000
1000
0000
0000
0000
,
0001
0000
1010
0000
0100
0001
0010
0001
,
1000
0000
0100
0000
1000
0100
0010
0001
,
0100
0000
1010
0000
0100
0001
0010
0001
,
0100
0000
0001
0000
0010
0001
1000
0100
,
0001
0000
0010
0000
1000
0100
0010
0000
,
1000
0001
0010
0000
1000
0100
0010
0002
,
0000
1000
0013
1001
,
0100
0010
0110
0000
1010
0000
0011
0000
,
0001
0001
1000
1000
0001
1000
0001
1000
,
0100
0010
0001
0100
0010
0100
0001
0010
,
0100
1100
1000
0010
,
0101
1001
1100
1001
,
0100
1000
0100
0001
0100
1000
0100
0001
,
1000
0100
0010
0100
0001
0100
0010
0100
,
1000
0101
0010
1100
,
0001
1000
0100
0010
0001
0010
0100
0000
,
1002
0013
2100
3001
,
0010
1000
0100
0010
0001
0100
0010
0100
,
0002
0000
0100
0000
1000
0000
0013
0100
,
2000
0100
0001
3010
,
0201
0310
1200
0310
,
0001
0100
1000
0100
0001
1000
0100
0001
,
0200
1000
0010
0301
,
0010
0010
0010
0100
1000
0001
1001
0000
,
1000
0100
0001
0100
1000
0010
0001
0010
,
1000
0001
0000
0000
0000
0000
0000
0000
,
0000
0000
0000
0000
;
#NOTES:
     dance-single:
     :
     Hard:
     14:
     :
0000
0000
0000
0000
,
0000
0000
0000
0000
,
0000
0000
0000
0000
,
0000
0000
0000
0000
,
1000
0100
1000
0100
0010
0100
0010
0100
0010
0001
0010
0001
1000
0001
1000
0001
,
1000
0000
0010
0000
0001
0000
0010
0000
1000
0000
0001
1000
0000
0001
0000
0001
,
1000
0000
0100
0000
0001
0000
0100
0000
0010
0000
0010
0100
0000
0010
0000
0100
,
1000
0000
0010
0000
1000
0010
0000
0010
0100
0000
0010
0000
0100
0010
0000
0010
,
0001
0000
0010
0000
0001
0010
0000
0010
0100
0000
0001
0000
1000
0000
0010
0000
,
0100
0100
0110
0000
0001
0001
1000
1000
,
0001
0010
0110
0000
0100
0100
0010
0010
,
0001
0000
0100
0000
0001
0100
0000
0001
0100
0000
0010
0000
0100
0010
0100
0000
,
1000
0100
1000
1000
0010
0000
0110
0000
,
1001
0000
0001
0000
1000
0000
1000
0000
0010
0000
0010
0000
0100
0010
0000
0001
,
1000
0100
0000
1001
0000
0010
0100
0000
1000
0000
0100
0000
0010
0001
0000
0102
,
0000
0000
0013
0010
0100
0010
0100
0010
,
0001
0100
0000
0010
1000
0001
0000
0010
0001
1000
0000
0220
0000
0000
0330
0000
,
1100
0000
1000
0000
0100
0000
0100
0000
0010
0000
0010
0000
0001
0010
0000
0001
,
0100
0010
0000
0110
0000
1000
0100
0000
0010
0000
0100
0000
1000
0010
0000
0201
,
0000
0310
1000
0000
1010
0000
0000
1200
0000
0310
0001
0000
0011
0000
0000
0000
,
1000
0000
1000
0000
0001
0000
0001
0000
1000
0001
1000
0001
1000
0000
0000
0000
,
0010
0000
0010
0000
0100
0001
0000
0000
1000
0000
1000
0000
0010
0100
0000
0000
,
0001
0000
0001
0000
1000
0100
0000
0000
0010
0000
0010
0000
0001
0100
0000
0000
,
0010
0000
1000
0000
0100
0010
0000
0000
0001
0000
0010
0000
0100
1000
0000
0000
,
0100
0000
0010
0000
0001
1000
0000
0000
0010
0000
0100
0000
0001
1000
0000
0000
,
0100
0000
0100
0000
1000
0100
0000
0010
0001
0000
0001
0000
0100
0001
0000
0000
,
0100
0000
0100
0000
1000
0010
0000
0100
0001
0000
0001
0000
0100
0010
0000
0000
,
1000
0000
1000
0000
0001
0100
0000
0010
0001
0000
1000
0000
0100
0010
0000
0000
,
0001
0000
0001
0000
1000
0100
0000
0010
0001
0000
0100
0000
0001
0100
0010
1000
,
0100
0000
0000
0000
0110
0000
0000
0010
0001
0010
0100
1000
0000
1100
0000
0010
,
0001
0000
0000
0000
1100
0000
0000
0001
1000
0100
0010
0001
0000
0011
0000
0100
,
0010
0000
0000
0000
0011
0000
0000
0100
1000
0010
0100
0001
0000
0101
0000
0010
,
1000
0000
0000
0000
0101
0000
0000
0100
0010
0001
1000
0100
0000
1100
0000
0010
,
0100
0000
0100
0000
0010
0100
0000
0001
0000
0100
0010
1000
0000
0001
0000
0010
,
0100
0000
0100
0000
0010
0100
0000
0010
0000
0001
1000
0010
0000
0100
0000
0010
,
0100
0000
0100
0000
0001
1000
0000
0010
0000
1000
0001
1000
0000
0110
0000
0010
,
0100
0010
0110
0100
1001
0100
1001
0000
,
0110
0000
0010
0000
0001
0000
0001
0000
1000
0000
1000
0000
1000
0010
0000
0010
,
0100
0001
0000
1001
0000
0100
0010
0000
0001
0000
0100
0000
0010
1000
0000
2010
,
0000
0000
3010
0100
0010
0100
0010
0010
,
1000
0100
0000
0001
0100
1000
0000
1000
0100
0001
0000
0220
0000
0000
0330
0000
,
1100
0000
1000
0000
0001
0000
0001
0000
0100
0000
0100
0000
0010
0100
0000
0010
,
1000
0100
0000
0110
0000
0010
0001
0000
0100
0000
0001
0000
0010
0100
0000
0210
,
0000
1300
0001
0000
0011
0000
0000
0201
0000
0310
1000
0000
1010
0000
0000
0000
,
0100
0010
0100
0000
0010
0100
0010
0000
0100
0010
0100
0010
0100
0000
0000
0000
,
0102
0000
1000
0000
0013
0100
1000
0010
,
1000
0001
0000
1010
0000
0100
0001
0000
0100
0000
1000
0000
0001
0010
0000
0100
,
0001
0000
0001
0000
0010
0001
0000
0001
1000
0000
0010
0000
0001
0010
0000
0100
,
0010
0000
0010
0000
0100
0010
0000
0001
1000
0000
0100
0000
0001
0000
0010
0000
,
1000
0000
0110
0000
0001
0100
1000
0100
,
0010
0100
0000
0001
0000
0010
0100
0000
1000
0000
0001
0000
0100
0010
0000
1000
,
0100
0000
0010
0000
0100
1000
0000
1000
0001
0000
0100
0000
1000
0100
0000
0001
,
0100
0010
0110
1000
1001
0000
1001
0000
,
0010
0000
0001
0000
0100
0000
0001
0000
0010
0000
1000
0000
0010
0100
0000
0011
,
0000
1100
0000
0000
0000
0000
0000
0000
,
0000
0000
0000
0000
;
#NOTES:
     dance-double:
     :
     Easy:
     6:
     :
00000000
00000000
00000000
00000000
,
00000000
00000000
00000000
00000000
,
00000000
00000000
00000000
00000000
,
00000000
00000000
00000000
00000000
,
10000000
01000000
00100000
00010000
,
00002000
00000000
00010000
00003000
,
00000200
00000000
00000010
00000300
,
00000002
00000000
00001000
00000003
,
00000200
00000000
00000010
00000300
,
00000010
00000001
00000100
00001000
,
00010000
00001000
00100000
00010000
,
01000000
10000000
00100000
00010000
,
00001000
00010000
00011000
00000000
,
00001100
00000101
00001100
00000101
,
00002000
00000100
00003001
00000010
,
00001000
00000000
00001000
00010000
,
00100000
01000000
00100000
00000000
,
11000000
01010000
11000000
01010000
,
00020000
01000000
10030000
00100000
,
00010000
00011000
00001000
00011000
,
00000100
00002002
00000000
00003003
,
00000001
00000100
00000010
00001000
,
00000100
00000000
00010000
00000000
,
00001000
00010000
00001000
00100000
,
00010000
01000000
00100000
00000000
01000000
00000000
00000000
00000000
,
10000000
01000000
00010000
00100000
,
02000000
00000000
03020000
00000000
,
00031000
00001000
00010000
00000100
,
00001000
00000010
00000200
00000000
00000000
00000000
00000300
00000000
,
00000001
00000010
00000100
00001000
,
00000010
00000100
00001000
00010000
,
00001000
00010000
00100000
01000000
,
00010000
00100000
01000000
10000000
,
00010000
00100000
10000000
00100000
,
00001000
00000000
00010000
00000000
00001000
00010000
00001000
00020000
,
00000000
00000000
00000000
00030000
,
00000000
00000010
00000010
00000000
00001000
00000000
00000001
00000000
,
00000011
00000101
00001100
00001010
,
00000100
00000010
00000100
00000000
00001000
00010000
00001000
00000000
,
00011000
00001000
00010000
00100000
,
10000000
00010000
10000000
00010000
,
10100000
11000000
01010000
00110000
,
01000000
00100000
01000000
00000000
00010000
00001000
00010000
00000000
,
00011000
00010000
00001000
00000010
,
00000100
00002002
00000000
00003003
,
00000001
00000010
00000100
00001000
,
00000010
00000000
00000100
00000000
00001000
00010000
00001000
00000000
,
00010000
00100000
01000000
10000000
,
00020000
01000000
10000000
00100000
,
00031000
00000100
00000010
00000001
,
00001000
00000000
00001001
00000000
00000010
00001000
00000010
00000000
,
00002000
00000100
00000001
00003010
,
00020000
00001000
00000100
00030010
,
00010010
00011000
00101000
00110000
,
10010000
00000000
00000000
00000000
,
00000000
00000000
00000000
00000000
;
#NOTES:
     dance-double:
     :
     Medium:
     9:
     :
00000000
00000000
00000000
00000000
,
00000000
00000000
00000000
00000000
,
00000000
00000000
00000000
00000000
,
00000000
00000000
00000000
00000000
,
00100000
00001000
00010000
00000010
00001000
00000100
00000010
00000001
,
00000200
00000000
00000010
00000000
00000000
00000301
00001000
00000010
,
00002000
00000000
00000001
00000000
00000000
00003010
00000100
00001000
,
00020000
00000000
00001000
00000000
00000000
00031000
00100000
00010000
,
02000000
00000000
00100000
00000000
00000000
03010000
10000000
00100000
,
00000000
01000000
00010000
00200000
00000000
00000000
10000000
00000000
,
01000000
00000000
00010000
00000000
00301000
00010000
00001000
00000020
,
00000000
00000001
00000100
00001000
,
00000031
00001000
00000100
00000010
00000001
00000000
00001001
00000000
,
00000001
00000100
00001000
00000000
00000001
00000100
00001000
00010000
,
00100000
10000000
00010000
01000000
,
10010000
00000000
00100000
00010000
01000000
00000000
00100000
00000000
,
01010000
00011000
01010000
11000000
,
10000000
01000000
00010000
00000000
10000000
01000000
00010000
00001000
,
00000010
00000001
00001000
00000100
,
00000010
00000011
00000001
00000101
,
00000100
00002000
00010000
00013000
,
00001000
00000000
00100000
00000000
00001000
01000000
00100000
00000000
,
01000000
00000000
00010000
00000000
00100000
10000000
00100000
00000000
,
00010000
00001000
00000110
00001000
,
00000001
00001000
00000010
00000100
00000001
00000000
00000010
00000000
,
00000100
00001000
00000010
00000000
00000100
00001000
00010000
00001000
,
00010000
00000000
01000000
00000000
10000000
00010000
10000000
00000000
,
10100000
00000000
01000000
00010000
00100000
10000000
00100000
00010000
,
01000000
00001000
00010000
00000000
00000100
00000000
00001000
00000100
,
00000020
00000000
00000001
00000000
00000130
00001000
00000001
00000100
,
00002000
00000000
00010000
00000000
00103000
00010000
01000000
00100000
,
20000000
00000000
00010000
00000000
30100000
01000000
00010000
00100000
,
00002000
00000000
00010000
00000000
00003010
00000100
00001000
00000001
,
00000200
00000000
00000010
00000000
00000301
00001000
00000100
00000010
,
00000002
00000000
00001000
00000000
00000103
00001000
00010000
00200000
,
10000000
01000000
00010000
01300000
,
10000000
00010000
10010000
00000000
01100000
00000000
00011000
00000000
,
00001000
00000100
00000001
00000100
00001000
00010000
00100000
10000000
,
00020000
01000000
10000000
00100000
,
00031000
00000000
00000100
00000001
00000100
00001000
00000001
00000000
,
00000101
00001010
00010100
00011000
,
00010000
01000000
10000000
01000000
00010000
00001000
00000010
00000001
,
00002000
00000100
00000001
00000010
,
00013000
01000000
00100000
00000000
10000000
01000000
00100000
00000000
,
01000000
01100000
00011000
00000110
,
00002100
00000001
00000010
00013000
,
00000010
00000100
00000001
00001000
00000010
00000100
00001000
00010000
,
00200000
10000000
02300000
10000000
,
03020000
00000000
00100000
00000000
01030000
00100000
10100000
00000000
,
01020000
10000000
00100000
00031000
,
00100000
01000000
10000000
00010000
00100000
01000000
00010000
00001000
,
00000020
00000001
00000230
00000001
,
00002300
00000000
00000010
00000000
00003100
00000010
00001001
00000000
,
00000010
00000001
00000100
00001000
00010000
00100000
10000000
01000000
,
00010000
00001000
00000000
00000000
00000000
00000000
00000000
00000000
,
00000000
00000000
00000000
00000000
;
#NOTES:
     dance-double:
     :
     Hard:
     14:
     :
00000000
00000000
00000000
00000000
,
00000000
00000000
00000000
00000000
,
00000000
00000000
00000000
00000000
,
00000000
00000000
00000000
00000000
,
10000000
00100000
10000000
00100000
01000000
00010000
01000000
00010000
00100000
00001000
00100000
00001000
00010000
00000100
00010000
00000100
,
00001000
00000000
00000100
00000000
00000010
00000000
00000001
00000000
00000010
00000000
00000100
00001000
00000000
00000001
00000000
00000100
,
00000001
00000000
00001000
00000010
00000000
00000100
00000000
00000010
00000000
00010000
00001000
00010000
00000000
00001000
00000000
00100000
,
00010000
00000000
01000000
00000000
00100000
10000000
00000000
10000000
01000000
00000000
00100000
00000000
00010000
01000000
00000000
01000000
,
00100000
00000000
10000000
00000000
01000000
00010000
00000000
00010000
00001000
00000000
00000100
00000000
00000010
00000000
00001000
00000000
,
00000001
00001000
00000100
00000020
00000000
00000001
00000031
00000200
,
00000000
00000001
00000301
00000020
00000000
00000001
00000031
00000100
,
00001000
00000000
00010000
00000000
00001000
00010000
00000000
00001000
00100000
00000000
00010000
00000000
10000000
00010000
00000000
10000000
,
00100000
00000000
01000000
00000000
00010000
10000000
00010000
10000000
00010000
00000000
00000000
00000000
10010000
00000000
00000000
00000000
,
10000000
00000000
00100000
00000000
00010000
00000000
00001000
00000000
00100000
00000000
01000000
00000000
00010000
00001000
00000000
00000010
,
00000001
00000100
00000000
00000010
00000000
00000100
00001000
00000000
00010000
00000000
00100000
00000000
10000000
00010000
00000000
00201000
,
00000000
00000000
00310000
01000000
10000000
01000000
00010000
00100000
,
00010000
01000000
00000000
00001000
00010000
00001000
00000000
00000010
00000001
00001000
00000000
00002002
00000000
00000000
00003003
00000000
,
00000001
00000000
00000010
00000000
00001000
00000000
00010000
00000000
00000010
00000000
00000100
00000000
00001000
00010000
00000000
00100000
,
10000000
01000000
00000000
00100000
00000000
01000000
00010000
00000000
00001000
00000000
00000010
00000000
00000001
00001000
00000000
00000020
,
00000000
00000130
00000001
00000000
00000011
00000000
00000000
00002000
00000000
00003001
00000100
00000000
00001001
00000000
00000000
00000000
,
00000001
00000000
00000100
00000000
00000010
00000000
00010000
00000000
00001000
00010000
00001000
00010000
00001000
00000000
00000000
00000000
,
00100000
00000000
00010000
00000000
10000000
00100000
00000000
00000000
01000000
00000000
00001000
00000000
00010000
01000000
00000000
00000000
,
10000000
00000000
00100000
00000000
01000000
00001000
00000000
00000000
00010000
00000000
00000100
00000000
00001000
00000001
00000000
00000000
,
00000010
00000000
00000001
00000000
00001000
00000010
00000000
00000000
00000100
00000000
00000001
00000000
00000010
00001000
00000000
00000000
,
00000010
00000000
00000100
00000000
00001000
00000100
00000000
00000000
00010000
00000000
00001000
00000000
00010000
00001000
00000000
00000000
,
00100000
00000000
01000000
00000000
10000000
00010000
00000000
00100000
00001000
00000000
00010000
00000000
00001000
00000000
00000100
00000000
,
00000010
00000000
00001000
00000000
00000001
00000100
00000000
00000010
00001000
00000000
00000001
00000000
00000100
00000000
00001000
00000000
,
00010000
00000000
00001000
00000000
00100000
00010000
00000000
10000000
01000000
00000000
10000000
00000000
00100000
00000000
00010000
00000000
,
00001000
00000000
00010000
00000000
00000010
00001000
00000000
00000001
00000100
00000000
00000010
00000000
00000100
00000001
00000010
00000000
,
00000100
00000000
00000000
00000000
00001001
00000000
00000000
00000100
00001000
00000100
00010000
00001000
00000000
01000000
00000000
00010000
,
10000000
00000000
00000000
00000000
10010000
00000000
00000000
00100000
10000000
00010000
01000000
00010000
00000000
00100000
00000000
00010000
,
01000000
00000000
00000000
00000000
00101000
00000000
00000000
00010000
00001000
00010000
00000010
00001000
00000000
00000100
00000000
00000010
,
00001000
00000000
00000000
00000000
00000101
00000000
00000000
00000010
00001000
00000100
00010000
00000100
00000000
00001000
00000000
00000010
,
00000100
00000000
00000001
00000000
00000010
00001000
00000000
00010000
00000000
00000010
00000100
00001000
00000000
00010000
00000000
01000000
,
00100000
00000000
00001000
00000000
00010000
01000000
00000000
00100000
00000000
00010000
10000000
00100000
00000000
00010000
00000000
00001000
,
00010000
00000000
01000000
00000000
10000000
00010000
00000000
00100000
00000000
00001000
00010000
00000100
00000000
00000010
00000000
00000001
,
00001000
00000001
00001001
00000000
00000110
00000100
00001001
00000000
,
00000001
00000000
00000100
00000000
00001000
00000000
00010000
00000000
00000100
00000000
00000010
00000000
00001000
00010000
00000000
01000000
,
10000000
00100000
00000000
01000000
00000000
00100000
00010000
00000000
00001000
00000000
00000100
00000000
00000001
00001000
00000000
00010200
,
00000000
00000000
00001300
00000010
00000001
00000010
00001000
00000100
,
00001000
00000010
00000000
00010000
00001000
00100000
00000000
01000000
10000000
00010000
00000000
20020000
00000000
00000000
30030000
00000000
,
10000000
00000000
01000000
00000000
00010000
00000000
00001000
00000000
01000000
00000000
00100000
00000000
00010000
00001000
00000000
00000100
,
00000001
00000010
00000000
00000100
00000000
00000010
00001000
00000000
00010000
00000000
01000000
00000000
10000000
00010000
00000000
02010000
,
00000000
03100000
10000000
00000000
11000000
00000000
00000000
00120000
00000000
10030000
00100000
00000000
10010000
00000000
00000000
00000000
,
10000000
00000000
01000000
00000000
00010000
00000000
00001000
00000000
00010000
00001000
00010000
00001000
00010000
00000000
00000000
00000000
,
00012000
00000000
00000010
00000000
00003001
00000100
00001000
00000100
,
00000010
00000001
00000000
00000101
00000000
00000001
00000100
00000000
00001000
00000000
00010000
00000000
01000000
00100000
00000000
00020000
,
01000000
00000000
00000000
00000000
10000000
00030000
10000000
00020000
00100000
00000000
00000000
00000000
00001000
00000000
00031000
00000100
,
00002000
00000000
00000000
00000000
00000100
00003000
00000001
00002000
00000010
00000000
00000000
00000000
00003010
00000000
00000000
00000000
,
00021000
00000000
00100000
00000000
10030000
01000000
00010000
01000000
,
00100000
10000000
00000000
11000000
00000000
10000000
01000000
00000000
00010000
00000000
00001000
00000000
00000100
00000010
00000000
00002000
,
00000100
00000000
00000100
00000000
00000001
00003000
00000001
00002000
00000010
00000000
00000010
00000000
00010000
00000000
00013000
01000000
,
00020000
00000000
01000000
00000000
10000000
00030000
10000000
00020000
00100000
00000000
00000000
00000000
00031000
00000000
00000000
00000000
,
00000100
00000000
00000001
00000000
00001000
00000000
00010000
00000000
00000010
00000000
00001000
00000000
00000100
00010000
00000000
00100000
,
00000000
10010000
00000000
00000000
00000000
00000000
00000000
00000000
,
00000000
00000000
00000000
00000000
;
