
//----- song ID: iair -----//
#TITLE:In The Air;
#ARTIST:Bill Hamel & James Rowand;
#BANNER:In The Air.png;
#BACKGROUND:In The Air-bg.png;
#CDTITLE:./CDTitles/DDR X3 VS 2ndMIX.png;
#MUSIC:In The Air.ogg;
#SAMPLESTART:36.02;
#SAMPLELENGTH:15;
#DISPLAYBPM:140;
#BPMS:0=140.2,4=140;
#NOTES:
     dance-single:
     :
     Beginner:
     4:
     :
0000
0000
0000
0000
,
0000
0000
0000
0000
,
0000
0000
0000
0000
,
0000
0000
0000
0000
,
0000
0000
0000
0000
,
1000
0000
0000
0000
,
0010
0000
0000
0000
,
0001
0000
0000
0000
,
0010
0000
0010
0000
,
1000
0000
1000
0000
,
0001
0000
0001
0000
,
0100
0000
0100
0000
,
1000
0000
1000
0000
,
0010
0000
0010
0000
,
0100
0000
0100
0000
,
0010
0000
0010
0000
,
0100
0000
0100
0000
,
1001
0000
0000
0000
,
1001
0000
0000
0000
,
0010
0010
0000
0000
,
0010
0010
0000
0000
,
1001
0000
0000
0000
,
1000
0000
0000
0000
,
0001
0000
0000
0000
,
0100
0000
0000
0000
,
1001
0000
1001
0000
,
0010
0000
0010
0000
,
1000
0000
1000
0000
,
0001
0000
0001
0000
,
1001
0000
0000
0000
,
1000
0000
1000
0000
,
0100
0000
0100
0000
,
0001
0000
0001
0000
,
0010
0000
0010
0010
,
0100
0000
0100
0100
,
0010
0000
0010
0000
,
0100
0000
0100
0000
,
1000
0000
1000
1000
,
0001
0000
0001
0001
,
1000
0000
1000
0000
,
0001
0000
0001
0000
,
1001
0000
1000
1000
,
1001
0000
0001
0001
,
0010
0000
0010
0000
,
0100
0000
0100
0000
,
0010
0000
0010
0010
,
0100
0000
0100
0100
,
1000
0000
1000
0000
,
0001
0000
0001
0000
,
1001
0000
0000
0000
,
0000
0000
0000
0000
;
#NOTES:
     dance-single:
     :
     Easy:
     6:
     :
0000
0000
0000
0000
,
0000
0000
0000
0000
,
0000
0000
0000
0000
,
0000
0000
0000
0000
,
0000
0000
0000
0000
,
0010
0000
1000
0000
,
0010
0000
0001
0000
,
0010
0000
1000
0100
,
0001
0100
1000
0100
,
0001
0000
0100
0100
,
1000
0000
0100
0100
,
0100
0001
0001
0001
,
0010
1000
0001
0100
,
2000
0000
0000
3000
,
0002
0000
0000
0003
,
0001
1000
1000
1000
,
0010
1000
0001
0100
,
0020
0000
1000
0030
,
0020
0000
1000
0030
,
0001
0100
1000
0100
,
0001
0000
0000
0000
,
1000
0000
0001
0100
,
1000
0100
0001
0100
,
1000
0010
0001
0100
,
0002
2000
0000
3003
,
0001
0000
1000
0010
,
0001
0010
1000
0010
,
0001
0100
1000
0010
,
1000
0100
0001
0100
,
0002
0000
0000
0000
,
0003
0010
1000
0001
,
0100
0001
1000
0010
,
0200
0000
0000
0300
,
1000
0000
0001
0100
,
1000
0100
0001
0100
,
1000
0010
0001
0100
,
0002
2000
0000
3003
,
0001
0000
1000
0010
,
0001
0010
1000
0010
,
0001
0100
1000
0010
,
1000
0100
0001
1000
,
0002
0003
1000
1000
,
0100
0100
0001
0001
,
0010
0010
1000
1000
,
0002
1000
1000
1003
,
0001
0000
0100
0100
,
0001
0001
0010
0010
,
0100
0100
1000
0002
,
0000
1000
1000
1000
,
1003
0000
0000
0000
,
0000
0000
0000
0000
;
#NOTES:
     dance-single:
     :
     Medium:
     9:
     :
0000
0000
0000
0000
,
0000
0000
0000
0000
,
0000
0000
0000
0000
,
0000
0000
0000
0000
,
0000
0000
0000
0000
,
0010
0001
0010
0000
0001
0000
0100
0000
,
0001
0000
0100
0000
0001
0000
0010
1000
,
0010
0000
0001
0000
1000
0010
1000
0010
,
0100
0001
0010
1000
,
0010
0010
0001
0100
,
1000
1000
0100
0001
,
1000
0100
1000
0000
0001
0100
0001
0000
,
1000
0100
1000
0010
,
0002
0000
0020
0003
,
2000
0030
0020
3030
,
0001
0100
0001
0010
,
1000
0100
0001
0100
,
2000
0010
0001
3200
,
0001
0010
2300
0100
,
3002
0010
1000
0203
,
1000
0010
0002
0303
,
0001
0010
1000
0000
0010
0000
0001
0000
,
0100
0000
0001
0000
0010
0000
1000
0100
,
1000
0000
0020
0000
0031
0001
0100
0000
,
0001
0000
0010
0000
0100
0000
1000
0010
,
1000
0100
0001
0000
0100
0000
1000
0000
,
0010
0000
1000
0000
0010
0000
0001
0100
,
0001
0010
1000
0100
,
0002
0000
0000
0203
,
1000
1000
1000
2300
,
0010
0010
0010
3020
,
1000
2030
0100
3020
,
0032
0000
0100
0000
0023
0000
1030
0100
,
1000
0010
0001
0000
0010
0000
1000
0000
,
0100
0000
1000
0000
0010
0000
0001
0100
,
0001
0000
0020
0000
1030
1000
0100
0000
,
1000
0000
0010
0000
0100
0000
0001
0010
,
0001
0100
1000
0000
0100
0000
0001
0000
,
0010
0000
0001
0000
0010
0000
1000
0100
,
1000
0010
0001
0100
,
2000
0000
0020
3030
,
0011
1100
0010
1000
,
0100
0001
0100
0000
1000
0010
1000
0000
,
0020
0000
0002
0033
,
0010
1000
0100
1000
,
1010
0101
0010
0001
,
0100
1000
0100
0000
0001
0010
0001
0000
,
2000
0000
0000
0000
3000
0010
1000
0000
,
0100
0000
1000
0000
0001
0100
0001
0010
,
1001
0000
0000
0000
,
0000
0000
0000
0000
;
#NOTES:
     dance-single:
     :
     Hard:
     11:
     :
0000
0000
0000
0000
,
0000
0000
0000
0000
,
0000
0000
0000
0000
,
0000
0000
0000
0000
,
0000
0000
0000
0000
,
1000
0000
0001
0000
1000
0000
0001
1000
,
0100
0000
1000
0000
0100
0000
0010
0001
,
1000
0000
0001
0000
1000
0001
0100
0010
,
1000
0100
0010
0001
,
0100
0001
0100
0010
1000
0001
1000
0000
,
0001
1000
0001
1000
0100
0010
0001
0010
,
0001
1000
0010
1000
0001
1000
0100
1000
,
0001
1000
0100
0000
0010
0001
1000
0001
,
0100
0001
1000
0000
0100
1000
0100
0010
,
1000
0001
0100
0010
1000
0010
1000
0001
,
1000
0100
0010
0001
1000
0001
0100
0010
,
1000
0010
1000
0001
0010
0001
1000
0001
,
2000
0100
0001
3100
,
0002
0100
1000
0103
,
0020
0001
0100
0031
,
1000
0000
0000
0000
0100
0000
0000
0000
0001
1000
0000
0000
0001
0000
1000
0000
,
0010
0000
1000
0001
0100
0001
0010
0100
,
1000
0000
0001
1000
0010
0100
0001
1000
,
0001
0000
1000
0100
0010
0001
1000
0001
,
0100
0000
0010
1000
0001
1000
0100
0010
,
0001
0000
1000
0001
1000
0001
1000
0000
,
0010
0000
0100
0010
0100
0010
0100
0000
,
0001
1000
0100
1000
0100
0010
0001
0010
,
0001
0000
1000
0100
1000
0001
0100
0001
,
0100
0000
0000
0000
0010
0000
0000
0100
0001
0000
1000
0000
0100
0000
0010
0000
,
0001
1000
0000
0000
0001
0000
0000
1000
0100
0000
0010
0000
0001
0000
1000
0000
,
0100
1000
0000
0000
0001
0000
0000
1000
0100
0000
1000
0000
0100
0000
0010
0000
,
0001
0010
0000
0000
0001
0000
0000
1000
0100
0000
1000
0000
0100
0000
0010
0000
,
0001
0000
1000
0001
1000
0001
1000
0000
,
0010
0000
1000
0010
1000
0001
0100
0000
,
0001
0000
1000
0100
0010
0001
0010
0000
,
0100
0000
1000
0001
1000
0001
0100
0001
,
1000
0000
0001
1000
0001
1000
0001
0000
,
0010
0000
0100
0010
0100
1000
0001
0000
,
0100
0000
0001
0100
0001
1000
0001
0000
,
0010
0000
0001
0010
0001
1000
0100
1000
,
0100
0000
0010
0001
1000
0001
0100
0001
,
1000
0000
0100
0010
0001
1000
0010
1000
,
0010
0000
1000
0001
0010
0001
1000
0001
,
1000
0000
0100
0010
0001
1000
0001
0000
,
0100
0000
0001
0100
0010
0100
0010
0000
,
1000
0000
0100
0010
0001
1000
0001
0000
,
1000
0000
0001
0000
0010
0000
0001
0000
1000
0000
0000
0100
1000
0000
0001
0000
,
0100
0000
0001
0100
0001
1000
0100
0010
,
0001
0000
0000
0000
,
0000
0000
0000
0000
;
#NOTES:
     dance-double:
     :
     Easy:
     6:
     :
00000000
00000000
00000000
00000000
,
00000000
00000000
00000000
00000000
,
00000000
00000000
00000000
00000000
,
00000000
00000000
00000000
00000000
,
00000000
00000000
00000000
00000000
,
00000010
00000000
00000001
00000000
,
00001000
00000000
00000100
00000000
,
00001000
00000000
00010000
01000000
,
10000000
01000000
00100000
01000000
,
00020000
00030000
00001000
00001000
,
00000100
00000000
00000010
00000010
,
00000010
00000001
00000001
00000001
,
00000010
00000100
00001000
00010000
,
00200000
00000000
00000000
00300000
,
20000000
00000000
00000000
30000000
,
01000000
00010000
00010000
00010000
,
00001000
00000010
00000001
00000100
,
00000020
00000000
00001000
00000030
,
00002000
00000000
00010000
00003000
,
00100000
01000000
10000000
01000000
,
00010000
00000000
00000000
00000000
,
00001000
00000000
00000010
00000001
,
00000100
00000001
00000100
00001000
,
00010000
00100000
01000000
10000000
,
00200000
20000000
00000000
30300000
,
00010000
00000000
00001000
00000100
,
00000010
00000001
00001000
00000100
,
00001000
00010000
01000000
00100000
,
10000000
01000000
00010000
01000000
,
00020000
00000000
00000000
00000000
,
00030000
00001000
00000010
00000001
,
00000100
00000010
00001000
00010000
,
02000000
00000000
00000000
03000000
,
10000000
00000000
01000000
00010000
,
00001000
00000100
00000010
00000001
,
00001000
00000100
00001000
00010000
,
00200000
00020000
00000000
00330000
,
10000000
01000000
00010000
01000000
,
00100000
10000000
00010000
00001000
,
00000100
00000010
00000001
00000010
,
00000100
00001000
00010000
10000000
,
00020000
00030000
10000000
10000000
,
01000000
01000000
00010000
00010000
,
00001000
00001000
00000100
00000100
,
00000020
00000001
00000001
00000031
,
00001000
00000000
00000100
00000100
,
00010000
00010000
00100000
00100000
,
01000000
01000000
00010000
00002000
,
00000000
00010000
00010000
00010000
,
00013000
00000000
00000000
00000000
,
00000000
00000000
00000000
00000000
;
#NOTES:
     dance-double:
     :
     Medium:
     10:
     :
00000000
00000000
00000000
00000000
,
00000000
00000000
00000000
00000000
,
00000000
00000000
00000000
00000000
,
00000000
00000000
00000000
00000000
,
00000000
00000000
00000000
00000000
,
00100000
01000000
00010000
00001000
,
00000100
00000001
00001000
00000001
,
00000100
00000000
00001000
00000000
00010000
01000000
10000000
00010000
,
00100000
01000000
00010000
00001000
,
00000100
00000001
00001000
00000001
,
00000100
00001000
00010000
01000000
,
10000000
01000000
10000000
00000000
00010000
00100000
00010000
00000000
,
00100000
01000000
00010000
00001000
,
00000200
00000000
00000002
00000300
,
00002000
00000003
00000020
00003030
,
00000100
00001000
00010000
01000000
,
10000000
00000000
00100000
00000000
01000000
00010000
00100000
01000000
,
00020000
00001000
00000010
00032000
,
00000001
00000010
00003200
00000000
,
00001300
00010000
01000000
10000000
,
10000000
00000000
00000000
00000000
00010000
00000000
00000000
00000000
00100000
00000000
00000000
01000000
00000000
00000000
00100000
00000000
,
01000000
00010000
00001000
00000000
00000100
00000001
00001000
00000000
,
00000010
00000000
00000100
00000000
00001000
00000000
00010000
01000000
,
10000000
00000000
01000000
00000000
10000000
00010000
00100000
00000000
,
01000000
00000000
00010000
00000000
00001000
00000000
00000100
00000001
,
00000100
00000001
00001000
00000000
00000010
00000100
00001000
00000000
,
00010000
00000000
01000000
00000000
10000000
00000000
00010000
10000000
,
01000000
00000000
00010000
00000000
00001000
00000100
00000001
00000000
,
00000100
00000000
00001000
00010000
01000000
10000000
00010000
10000000
,
00010000
00000000
01000000
00000000
00010000
00001000
00000100
00000001
,
00000100
00000000
00001000
00000000
00010000
01000000
10000000
00010000
,
10000000
00000000
01000000
00000000
00010000
00001000
00000100
00000001
,
00000100
00000000
00001000
00000000
00010000
01000000
10000000
00010000
,
00100000
00000000
01000000
00000000
00010000
00001000
00000100
00000000
,
00000001
00000000
00000100
00000000
00000010
00001000
00010000
00000000
,
00100000
00000000
01000000
00000000
10000000
00010000
00100000
00000000
,
01000000
00000000
00010000
00000000
00001000
00000000
00000100
00000001
,
00000100
00000010
00000100
00000000
00001000
00010000
01000000
00000000
,
10000000
00010000
00100000
01000000
,
00010000
00001000
00000010
00000000
00000001
00000100
00000010
00000000
,
00000100
00000000
00001000
00010000
01000000
10000000
00010000
10000000
,
01000000
00000000
00010000
00000000
00001000
00000100
00000001
00000000
,
00000100
00000001
00000100
00000000
00000010
00001000
00000010
00000000
,
00000100
00001000
00010000
01000000
,
10000000
00000000
00010000
00000000
00100000
00010000
00100000
00000000
,
01000000
00000000
00010000
00000000
00001000
00000100
00000001
00000000
,
00001000
00000100
00000010
00000000
00000001
00000100
00001000
00000000
,
00020000
00000000
00000000
00000000
00030000
00001000
00010000
00000000
,
01000000
00000000
00010000
00000000
00001000
00000100
00000001
00001000
,
00000001
00000000
00000000
00000000
,
00000000
00000000
00000000
00000000
;
#NOTES:
     dance-double:
     :
     Hard:
     11:
     :
00000000
00000000
00000000
00000000
,
00000000
00000000
00000000
00000000
,
00000000
00000000
00000000
00000000
,
00000000
00000000
00000000
00000000
,
00000000
00000000
00000000
00000000
,
10000000
00000000
01000000
00000000
00010000
00000000
00001000
00000100
,
00000001
00000000
00000010
00000000
00000001
00000000
00000100
00001000
,
00010000
00000000
01000000
00000000
10000000
00010000
00100000
01000000
,
00010000
00001000
00000100
00000001
,
00001000
00000010
00000100
00000001
00000100
00001000
00010000
00000000
,
01000000
10000000
00010000
10000000
01000000
00100000
01000000
00010000
,
00001000
00000100
00000001
00000010
00000001
00000100
00000010
00000100
,
00001000
00010000
01000000
00000000
10000000
00010000
10000000
01000000
,
00010000
00001000
00000100
00000000
00000001
00000100
00000010
00000100
,
00001000
00010000
01000000
10000000
00100000
10000000
01000000
00100000
,
01000000
00010000
00001000
00000100
00000001
00000010
00000001
00000100
,
00001000
00010000
00100000
10000000
01000000
00100000
01000000
00010000
,
00002000
00010000
00010000
00013000
,
00000020
00001000
00000100
00001030
,
00000002
00000100
00000010
00000103
,
00001000
00000000
00000000
00000000
00010000
00000000
00000000
00000000
00100000
10000000
00000000
00000000
00010000
00000000
10000000
00000000
,
01000000
00000000
00010000
00001000
00000100
00000001
00001000
00000001
,
00000100
00000000
00001000
00010000
00100000
10000000
00010000
10000000
,
01000000
00000000
00010000
00001000
00000010
00000001
00000100
00000010
,
00000100
00000000
00001000
00010000
01000000
10000000
01000000
00100000
,
01000000
00000000
00010000
00001000
00000100
00000001
00001000
00000000
,
00000010
00000000
00000100
00000001
00000100
00000010
00000100
00000000
,
00001000
00010000
01000000
10000000
00010000
10000000
01000000
00100000
,
01000000
00000000
00010000
00001000
00000100
00000001
00000100
00000010
,
00000100
00000000
00000000
00000000
00001000
00000000
00000000
00010000
00100000
00000000
10000000
00000000
00010000
00000000
10000000
00000000
,
01000000
00010000
00000000
00000000
00001000
00000000
00000000
00000100
00000001
00000000
00001000
00000000
00000010
00000000
00000100
00000000
,
00000010
00000100
00000000
00000000
00001000
00000000
00000000
00010000
01000000
00000000
10000000
00000000
00010000
00000000
10000000
00000000
,
00010000
10000000
00000000
00000000
01000000
00000000
00000000
00010000
00001000
00000000
00000100
00000000
00000001
00000000
00001000
00000000
,
00000001
00000000
00001000
00000001
00000100
00000010
00000100
00000000
,
00001000
00000000
00010000
01000000
10000000
00010000
10000000
00000000
,
01000000
00000000
00010000
00001000
00000010
00000001
00001000
00000000
,
00000010
00000000
00000100
00001000
00010000
01000000
10000000
00010000
,
10000000
00000000
01000000
00100000
01000000
00010000
00001000
00000000
,
00000100
00000000
00000001
00001000
00000001
00000100
00000010
00000000
,
00000100
00000000
00001000
00010000
01000000
10000000
00010000
00000000
,
10000000
00000000
01000000
10000000
01000000
00100000
01000000
00010000
,
00001000
00000000
00000100
00000001
00000100
00000010
00000100
00001000
,
00010000
00000000
01000000
10000000
00010000
10000000
00100000
01000000
,
00100000
00000000
10000000
01000000
00010000
00001000
00000100
00000001
,
00001000
00000000
00000100
00000010
00000001
00001000
00000010
00000000
,
00000100
00000000
00001000
00010000
00100000
10000000
00010000
00000000
,
10000000
00000000
01000000
10000000
01000000
00100000
01000000
00000000
,
00010000
00000000
00001000
00000000
00000100
00000000
00000001
00000000
00001000
00000000
00000000
00000001
00001000
00000000
00000001
00000000
,
00000100
00000000
00001000
00010000
01000000
10000000
00010000
10000000
,
00010000
00000000
00000000
00000000
,
00000000
00000000
00000000
00000000
;
