
//----- song ID: inzo -----//
#TITLE:IN THE ZONE;
#ARTIST:U1 (NPD3 style) & KIDD KAZMEO;
#BANNER:IN THE ZONE.png;
#BACKGROUND:IN THE ZONE-bg.png;
#CDTITLE:./CDTitles/DDR 2010.png;
#MUSIC:IN THE ZONE.ogg;
#SAMPLESTART:5.82;
#SAMPLELENGTH:15;
#BPMS:0=124;
#NOTES:
     dance-single:
     :
     Beginner:
     1:
     :
0000
0000
0000
0000
,
0000
0000
0000
0000
,
0000
0000
0000
0000
,
0001
0000
0000
0000
,
0001
0000
0000
0000
,
1000
0000
0000
0000
,
0010
0000
0000
0000
,
2000
0000
3000
0000
,
0002
0000
0003
0000
,
1000
0000
0000
0000
,
0010
0000
0000
0000
,
0000
0001
0000
0001
,
0000
1000
0000
1000
,
1000
0000
0000
0000
,
0000
0000
0000
1001
,
0000
0000
0000
0010
,
0000
0000
0000
0000
,
1000
0000
0000
0000
,
1000
0000
0001
0000
,
0001
0000
0000
0000
,
0001
0000
1000
0000
,
0000
0000
0010
0000
,
0000
0000
0010
0000
,
0000
0000
0100
0000
,
0000
0000
1001
0000
,
1000
0000
0000
0000
,
1000
0000
0000
0000
,
0001
0000
0000
0000
,
0010
0000
0000
0000
,
1000
0000
0000
0000
,
1000
0000
0000
0000
,
0001
0000
0000
0000
,
0010
0000
0000
0000
,
0000
0000
1000
1000
,
0000
0000
0001
0001
,
0000
1000
0000
1000
,
0000
0001
0000
0000
,
0010
0000
0000
0000
,
0010
0000
0000
0000
,
0020
0000
0000
0030
,
2000
0000
3000
0000
,
0001
0000
0001
0000
,
0001
0000
0001
0000
,
1000
0000
1000
0000
,
0010
0000
0000
0010
,
0010
0000
0000
0000
,
0000
0000
0000
0000
;
#NOTES:
     dance-single:
     :
     Easy:
     4:
     :
0000
0000
0000
0000
,
0000
0000
0000
0000
,
0000
0000
0000
0000
,
0001
0000
1000
0000
,
0001
0000
0001
0000
,
1000
0000
0010
0000
,
0010
0000
1000
0001
,
2000
0000
3001
0000
,
0002
0000
1003
0000
,
1000
0000
0010
0000
,
0010
0000
0100
0000
,
0001
0001
0001
0000
,
1000
1000
1000
0000
,
1000
0000
0000
0000
,
1001
0000
0000
0000
,
0110
0000
0000
0000
,
0000
0000
0000
0000
,
1000
0000
0010
0000
,
1000
0000
0001
0100
,
0001
0000
0100
0000
,
0001
0000
1000
0000
,
0000
0000
1001
0000
,
0000
0000
0110
0000
,
0000
0000
1001
0000
,
0000
0000
0110
0000
,
1000
0000
0001
0000
,
1000
0000
1000
0000
,
0001
0000
0010
0000
,
0010
0000
0001
0001
,
1000
0000
0001
0000
,
1000
0000
1000
0000
,
0001
0000
0010
0000
,
0010
0000
0001
0001
,
0002
0000
1000
0003
,
2000
0000
0001
3000
,
0000
0000
0001
0010
,
0000
0000
1000
0010
,
1000
0000
0001
0000
,
1000
0000
1000
0000
,
0020
0000
1000
0030
,
0200
0000
0001
0300
,
1000
0000
0001
0000
,
1000
0000
1000
0000
,
0001
0000
0010
0000
,
0010
0000
0001
0001
,
1001
0000
0000
0000
,
0000
0000
0000
0000
;
#NOTES:
     dance-single:
     :
     Medium:
     7:
     :
0000
0000
0000
0000
,
0000
0000
0000
0000
,
0000
0000
0000
0000
,
0001
0000
0001
0000
1000
0100
1000
0000
,
0001
0000
0001
0000
1000
0001
0010
0000
,
0001
0000
0001
0000
1000
0010
0100
0000
,
0010
0010
1000
0011
,
2000
3001
0002
1003
,
0002
0203
0310
1010
,
0001
0000
0001
0000
1000
0010
0100
0000
,
0010
0010
0000
1100
,
0001
0001
0000
0011
,
1000
0100
1000
0001
0000
0000
1100
0000
,
0022
0000
0000
0030
,
0100
0100
0103
1001
,
0220
0000
0330
0110
,
0001
1000
0010
0100
0001
1000
0000
0000
,
0001
0000
0000
0001
0000
1000
0010
0000
,
1000
0001
0100
0000
0001
0000
1100
0000
,
0010
0000
0000
0010
0000
1000
0100
0000
,
0001
0000
0000
0000
1000
0010
1000
0000
,
0010
0000
0010
0000
1000
0001
0000
0000
,
0010
0000
0010
0000
0001
0100
0000
0000
,
0010
0000
1010
0000
0001
0100
0000
0000
,
0010
0100
1001
0000
,
1000
0000
1000
0000
0001
0100
0001
0000
,
1000
0000
1000
0000
0001
1000
0010
0000
,
1000
0000
1000
0000
0001
0010
0100
0000
,
0010
0010
0001
1010
,
1000
0000
1000
0000
0001
0100
0001
0000
,
1000
0000
1000
0000
0001
1000
0010
0000
,
1000
0000
1000
0000
0001
0010
0100
0000
,
0010
0001
0100
1010
,
0002
0000
0000
0000
1000
1000
1003
0000
,
2000
0000
0000
0000
0001
0001
3001
0000
,
0000
1000
0000
0001
0000
1000
0010
0000
,
1000
0001
0100
0100
,
1000
0000
1000
0000
0001
0010
0001
0000
,
1000
0000
1000
0000
0001
1000
0100
0000
,
0020
0000
0000
0000
0001
0001
0031
0000
,
0200
0000
0000
0000
0010
0010
0310
0000
,
0001
0000
0001
0000
1000
0010
1000
0000
,
0001
0000
0001
0000
1000
0001
0100
0000
,
0001
0000
0001
0000
1000
0100
0010
0000
,
0100
0000
1000
0000
0010
0100
0001
0000
,
1010
0000
0000
0000
,
0000
0000
0000
0000
;
#NOTES:
     dance-single:
     :
     Hard:
     9:
     :
0000
0000
0000
0000
,
0000
0000
0000
0000
,
0000
0000
0000
0000
,
0001
0000
0010
0001
1000
0100
1100
0000
,
0001
0000
0010
0001
1000
0001
0011
0000
,
0001
0000
0010
0001
1000
0010
1100
0000
,
0010
0010
0010
0000
1000
0100
0011
0000
,
2000
0001
3001
0000
0002
1000
1003
0000
,
0002
0203
0320
2030
3001
0000
1010
0000
,
0001
0000
0010
0001
1000
0010
1100
0000
,
0010
0001
0010
0100
0000
0000
1100
0000
,
1000
0001
0100
0010
0000
0000
0011
0000
,
1000
0100
1000
0001
0010
0100
1100
0000
,
0022
0000
0000
0030
,
0100
0000
0103
0000
0100
0010
1001
0000
,
0120
1000
1030
1100
,
0001
0000
1000
0000
0010
0100
0001
0000
0100
0010
1000
0000
0000
0000
0000
0000
,
0001
0000
1000
0001
0000
0100
0100
0010
,
1000
0000
0001
1000
0000
0100
0100
0010
,
0001
0000
0100
0010
0000
1000
1000
0100
,
0010
0000
0101
0001
1000
0010
1000
0100
,
1000
0001
0100
0001
0000
1100
0000
0000
,
0010
1000
0010
0100
0000
0011
0000
0000
,
0001
1000
0100
1000
0000
0101
0000
0000
,
0010
0100
0001
0100
1001
0000
0000
0000
,
1000
0000
0010
1000
0001
0100
0101
0000
,
1000
0000
0010
1000
0001
1000
1010
0000
,
1000
0000
0010
1000
0001
0010
0101
0000
,
0010
0010
0010
0000
0001
0100
1010
0000
,
1000
0000
0010
1000
0001
0100
0101
0000
,
1000
0000
0010
1000
0001
1000
1010
0000
,
1000
0000
0010
1000
0001
0010
0101
0000
,
0010
0100
0010
0000
0001
0100
1010
0000
,
0002
0000
0203
0000
0310
0010
0010
0000
,
2000
0000
3200
0000
0310
0010
0010
0000
,
0000
1000
0001
1000
0000
1000
0011
0000
,
1000
0010
0100
0001
0100
0010
0010
0000
,
1000
0000
0100
1000
0001
0010
0011
0000
,
1000
0000
0100
1000
0001
1000
1100
0000
,
2000
0000
3020
0000
0130
0100
0100
0000
,
0002
0000
0023
0000
0130
0100
0100
0000
,
0010
0000
0010
0001
1000
0010
1010
0000
,
0001
0000
0100
0001
1000
0001
0101
0000
,
0001
0000
0100
0001
1000
0100
1010
0000
,
0100
0100
0100
1000
0001
0100
0001
0000
,
1010
0000
0000
0000
,
0000
0000
0000
0000
;
#NOTES:
     dance-double:
     :
     Easy:
     5:
     :
00000000
00000000
00000000
00000000
,
00000000
00000000
00000000
00000000
,
00000000
00000000
00000000
00000000
,
00000000
00000000
00000000
00000000
,
00000000
00000000
00000000
00000000
,
00011000
00000000
00010000
00100000
,
10000000
01000000
00100000
00010000
,
00001000
00001010
00000010
00001000
,
00010000
01010000
00010000
01000000
,
00010000
00001000
00000100
00000001
,
00000200
00000300
00002000
00003000
,
00020000
00030000
00200000
00300000
,
10000000
01000000
00010000
01010000
,
00001000
00000010
00001000
00011000
,
01000000
10000000
01000000
01010000
,
00001000
00001100
00000010
00000011
,
00001000
00001100
00001000
00010000
,
00100000
10000000
00100000
00010000
,
00001000
00000010
00000001
00000100
,
00001000
00010000
00100000
10000000
,
01000000
00010000
00001000
00001010
,
00000002
00000000
00000000
00000003
,
00000010
00001000
00010000
01010000
,
20000000
00000000
00000000
30000000
,
01000000
00010000
00001000
00001100
,
00000020
00000001
00000001
00000031
,
00000100
00001000
00010000
01000000
,
00020000
00001000
00001000
00031000
,
00000100
00000001
00000100
00001000
,
00010000
00100000
10000000
00100000
,
00010000
00001000
00000010
00000001
,
00000010
00001000
00010000
01000000
,
10000000
01000000
00010000
00001000
,
00000100
00000200
00000301
00000200
,
00001300
00020000
00130000
10000000
,
01000000
00000000
00010000
00000000
,
00001000
00000000
00000010
00000000
,
00000001
00000010
00000010
00001000
,
00001000
00010000
00010000
00100000
,
10000000
00100000
00010000
00002000
,
00003100
00000001
00000100
00002000
,
00023000
01000000
01000000
01030000
,
10000000
01000000
00010000
00001000
,
00000020
00001000
00001000
00001030
,
00010000
00100000
10000000
01000000
,
00010000
01010000
00000000
00000000
,
00000000
00000000
00000000
00000000
;
#NOTES:
     dance-double:
     :
     Medium:
     8:
     :
00000000
00000000
00000000
00000000
,
00000000
00000000
00000000
00000000
,
00000000
00000000
00000000
00000000
,
00000000
00000000
00000000
00000000
,
00000000
00000000
00000000
00000000
,
00010000
01000000
01000000
10000000
,
10000000
00000000
00100000
00000000
00100000
00010000
01000000
00010000
,
00001000
00000000
00000010
00000000
00000010
00000001
00000100
00000000
,
00000100
00000000
00001000
00000000
00001000
00010000
01000000
00000000
,
01000000
00000000
10000000
00000000
10000000
00100000
00010000
00000000
,
00010000
00000000
00001000
00000000
00001000
00000010
00000001
00000000
,
00000002
00000000
00000100
00000100
,
00000103
00000000
00001000
00000000
00010000
00001000
00000010
00001000
,
00020000
00000000
00000000
00000000
,
00000000
00000000
00001000
00001000
,
00031000
00010000
00100000
00010000
,
00100000
10000000
01000000
00000000
00010000
01000000
00010000
00000000
,
00001000
00000100
00001000
00010000
00001000
00000010
00001000
00000000
,
00000010
00000001
00000100
00000001
00000010
00000000
00001000
00000000
,
00010000
00100000
00010000
00001000
00010000
01000000
00010000
00000000
,
01000000
10000000
00100000
10000000
01000000
00000000
00010000
00000000
,
00001000
00000000
00001000
00000000
00000100
00000001
00000000
00000000
,
00000010
00000000
00000010
00000000
00001000
00000100
00000000
00000000
,
00001000
00000000
00001000
00000000
00010000
00100000
00000000
00000000
,
10000000
00000000
10000000
00000000
01000000
00000000
00010000
02000000
,
00010000
00000000
00010000
00000000
03010000
00001000
00000200
00000000
,
00000001
00000000
00000001
00000000
00000301
00000010
00002000
00000000
,
00010000
00000000
00010000
00000000
00013000
00100000
20000000
00000000
,
31000000
00000000
10000000
00000000
00100000
00010000
01000000
00010000
,
00001000
00000000
00010000
00000000
00001000
00010000
01000000
00000000
,
10000000
00000000
00100000
00000000
10000000
00100000
00010000
00000000
,
00001000
00000000
00000010
00000000
00001000
00000010
00000001
00000000
,
00000100
00000001
00000010
00000001
00000100
00001000
00020000
00000000
,
01000000
01000000
01000000
02030000
,
10000000
10000000
10000000
23000000
,
30200000
00010000
00320000
00001000
,
00032000
00000010
00003020
00000001
,
00000032
00000100
00000203
00001000
,
00002300
00010000
00023000
02030000
,
20000000
00000000
00000000
03000000
,
00010000
00010000
30100000
00010000
,
00010000
00000000
00001000
00000000
00010000
00001000
00000100
00000000
,
00000001
00000000
00000010
00000000
00000001
00000010
00001000
00000000
,
00010000
00000000
00100000
00000000
00010000
00100000
10000000
00000000
,
01000000
10000000
00100000
10000000
01000000
00010000
00001000
00000000
,
00000100
00001000
00010000
00000000
00000000
00000000
00000000
00000000
,
00000000
00000000
00000000
00000000
;
#NOTES:
     dance-double:
     :
     Hard:
     10:
     :
00000000
00000000
00000000
00000000
,
00000000
00000000
00000000
00000000
,
00000000
00000000
00000000
00000000
,
00000000
00000000
00000000
00000000
,
00000000
00000000
00000000
00000000
,
10000000
00000000
01000000
00010000
00000000
00001000
00000100
00000001
,
00000100
00000000
00000001
00000100
00000000
00001000
00010000
01000000
,
10000000
00000000
00010000
10000000
00000000
01000000
00010000
00001000
,
00000100
00000000
00000001
00000100
00000000
00000001
00001000
00000000
,
00000010
00000000
00000100
00001000
00000000
00010000
01000000
10000000
,
01000000
00000000
00010000
00001000
00000000
00000100
00000001
00000100
,
00000010
00000000
00000100
00001000
00000000
00010000
01000000
10000000
,
00010000
00000000
00100000
01000000
00000000
00010000
00001000
00000000
,
00000100
00000000
00000000
00000001
00000000
00000100
00001000
00010000
,
01000000
00000000
00000000
10000000
00000000
01000000
00010000
00001000
,
00000100
00000000
00000000
00000001
00000000
00000100
00000001
00001000
,
00000010
00000000
00000100
00000000
00001000
00000000
00010000
01000000
10000000
00000000
00010000
00000000
00100000
00000000
01000000
00000000
,
10000000
00000000
00000000
01000000
00010000
00000000
00001000
00000000
00000000
00000000
00000100
00000000
00000001
00000000
00001000
00000000
,
00000010
00000000
00000000
00000100
00001000
00000000
00010000
00000000
00000000
00000000
01000000
00000000
10000000
00000000
00010000
00000000
,
10000000
00000000
00000000
01000000
00010000
00000000
00001000
00000000
00000000
00000000
00000100
00000000
00000001
00000000
00000100
00000000
,
00000001
00000000
00000000
00000100
00001000
00000000
00010000
00000000
01000000
00000000
10000000
00000000
00010000
00000000
00000000
00000000
,
00100000
00000000
00000000
01000000
10000000
00000000
00010000
00000000
10000000
00000000
01000000
00000000
00000000
00000000
00000000
00000000
,
00010000
00000000
00001000
00000100
00000001
00001000
00000010
00000000
,
00000100
00000000
00000000
00001000
00010000
00000000
01000000
00000000
00000000
00000000
10000000
00000000
00010000
00000000
00000000
00000000
,
00100000
00000000
01000000
00010000
00001000
00000000
00000100
00000000
,
00000001
00000000
00001000
00000001
00000000
00000100
00001000
00010000
,
01000000
00000000
10000000
00010000
00000000
10000000
01000000
00010000
,
00001000
00000000
00000100
00000001
00000000
00000100
00000010
00001000
,
00000010
00000000
00000100
00001000
00000000
00010000
01000000
10000000
,
00010000
00000000
10000000
01000000
00000000
00010000
00001000
00000100
,
00000001
00000000
00001000
00000001
00000000
00000100
00001000
00010000
,
01000000
00000000
10000000
00010000
00000000
00100000
01000000
00010000
,
00001000
00000000
00000100
00000000
00000001
00000000
00001000
00000001
00000100
00000000
00001000
00000000
00010000
00000000
01000000
00000000
,
20000000
00100000
31000000
00010000
,
00002000
00000000
00000000
00000000
00000100
00003000
00000000
00000000
00000002
00000000
00000000
00000000
00001003
00000000
00000000
00000000
,
00000001
00000000
00000000
00001000
00000010
00000000
00000100
00000000
00001000
00000000
00010000
00000000
01000000
00000000
10000000
00000000
,
00010000
00000000
00000000
10000000
01000000
00000000
00100000
00000000
01000000
00000000
00010000
00000000
00001000
00000000
00000100
00000000
,
00000001
00000000
00000000
00000100
00000001
00000000
00001000
00000000
00000010
00000000
00000100
00000000
00001000
00000000
00010000
00000000
,
01000000
00000000
00000000
10000000
00010000
00000000
10000000
00000000
01000000
00000000
00010000
00000000
00001000
00000000
00000100
00000000
,
00000002
00000000
00000000
00000003
,
00000200
00000000
00000000
00000300
,
00001000
00000000
00000000
00010000
01000000
00000000
10000000
00000000
00000000
00000000
00010000
00000000
10000000
00000000
01000000
00000000
,
00010000
00000000
00000000
00001000
00000100
00000000
00000001
00000000
00000000
00000000
00001000
00000000
00000010
00000000
00000100
00000000
,
00001000
00000000
00000000
00010000
01000000
00000000
10000000
00000000
00000000
00000000
00010000
00000000
10000000
00000000
01000000
00000000
,
00010000
00000000
00000000
00001000
00000100
00000000
00000001
00000000
00001000
00000000
00000010
00000000
00000100
00000000
00001000
00000000
,
00010000
00000000
00000000
00000000
,
00000000
00000000
00000000
00000000
;
