
//----- song ID: hrtb -----//
#TITLE:HEARTBREAK (Sound Selektaz remix);
#ARTIST:NAOKI ft. Becca Hossany;
#BANNER:HEARTBREAK (Sound Selektaz remix).png;
#BACKGROUND:HEARTBREAK (Sound Selektaz remix)-bg.png;
#CDTITLE:./CDTitles/DDR X3 VS 2ndMIX.png;
#MUSIC:HEARTBREAK (Sound Selektaz remix).ogg;
#SAMPLESTART:64.48;
#SAMPLELENGTH:15;
#DISPLAYBPM:148;
#BPMS:0=148.5,4=148;
#NOTES:
     dance-single:
     :
     Beginner:
     1:
     :
0000
0000
0000
0000
,
0000
0000
0000
0000
,
0000
0000
0000
0000
,
0000
0000
0000
0000
,
0000
0000
0000
0000
,
0000
0000
0000
0000
,
0001
0000
0000
0000
,
0001
0000
0000
0000
,
0100
0000
0000
0000
,
0100
0000
0000
0000
,
0001
0000
0000
0000
,
0001
0000
0000
0000
,
1000
0000
0000
0000
,
1000
0000
0000
0000
,
0001
0000
0001
0000
,
0001
0000
0000
0000
,
1000
0000
1000
0000
,
1000
0000
0000
0000
,
0100
0000
0100
0000
,
0100
0000
0000
0000
,
0010
0000
0010
0000
,
0000
0000
0000
0000
,
0001
0000
0000
0000
,
1000
0000
0000
0000
,
0001
0000
0000
0000
,
0100
0000
0000
0000
,
1000
0000
1000
0000
,
1000
0000
0000
0000
,
0100
0000
0100
0000
,
0100
0000
0000
0000
,
0001
0001
0001
0000
,
0001
0000
0001
0000
,
1000
1000
1000
0000
,
1000
0000
1000
0000
,
0100
0000
0000
0000
,
0010
0000
0000
0000
,
1000
0000
0001
0000
,
1000
0000
0000
0000
,
0020
0000
0030
0000
,
0000
0000
0000
0000
,
0001
0000
0001
0000
,
1000
0000
1000
0000
,
0001
0000
0001
0000
,
0001
0000
0000
0000
,
1000
0000
1000
0000
,
0001
0000
0001
0000
,
1000
0000
1000
0000
,
1000
0000
0000
0000
,
0100
0000
0000
0000
,
0100
0000
0000
0000
,
0001
0000
0000
0000
,
1000
0000
0000
0000
,
0100
0000
0000
0000
,
0010
0000
0000
0000
,
0001
0000
0000
0000
,
1000
0000
0000
0000
,
1001
0000
0000
0000
,
0000
0000
0000
0000
;
#NOTES:
     dance-single:
     :
     Easy:
     4:
     :
0000
0000
0000
0000
,
0000
0000
0000
0000
,
0000
0000
0000
0000
,
0000
0000
0000
0000
,
0000
0000
0000
0000
,
0000
0000
0000
0000
,
0100
0000
0100
0000
,
0001
0001
1000
0000
,
0010
0000
0010
0000
,
1000
1000
0001
0000
,
0100
0000
0100
0000
,
0001
1000
0001
0000
,
0010
0000
0010
0000
,
1001
0000
0000
0000
,
1000
0100
1000
0000
,
0001
0100
0001
0000
,
1000
0100
1000
0100
,
0001
0100
0001
0000
,
0010
0000
0100
0100
,
0100
0000
0010
0000
,
0002
0000
2000
0000
,
3003
0000
0000
0000
,
0100
0000
0100
0000
,
0100
0000
0100
0000
,
0010
0000
0010
0000
,
0010
0000
0000
0000
,
0001
0000
1000
0000
,
0001
0000
1000
0000
,
0010
0000
0100
0000
,
0020
0000
0030
0000
,
1000
0100
1000
0000
,
1000
0100
0010
0000
,
0001
0100
0001
0100
,
0001
0000
1000
0000
,
0010
0000
0010
0100
,
0001
0000
1000
0000
,
0001
1000
0001
1000
,
1001
0000
1001
0000
,
0020
0000
0030
0000
,
0000
0000
0000
0000
,
1000
0001
1000
0001
,
0100
0100
0100
0000
,
0001
1000
0001
1000
,
0100
0100
0100
0000
,
0010
0001
0010
0001
,
1000
1000
1000
0000
,
0100
1000
0100
1000
,
0010
0010
0010
0000
,
0200
0000
0000
0300
,
0002
0000
0000
0003
,
2000
0000
0000
3000
,
0200
0000
0000
0300
,
1000
0000
0001
0000
,
0200
0000
0000
0300
,
0010
0000
0010
0000
,
0020
0030
0200
0300
,
2002
0000
0000
0000
,
3003
0000
0000
0000
,
0000
0000
0000
0000
;
#NOTES:
     dance-single:
     :
     Medium:
     6:
     :
0000
0000
0000
0000
,
0000
0000
0000
0000
,
0000
0000
0000
0000
,
0000
0000
0000
0000
,
0000
0000
0000
0000
,
0000
0000
0000
0000
,
2000
3010
0200
0310
,
1000
0001
1000
1000
,
0002
0000
0010
0003
0200
0000
0310
0000
,
0001
1000
0001
0001
,
2000
3100
0020
0031
,
0100
0010
0100
0100
,
0002
0013
0200
1300
,
0001
1000
0001
0000
,
1000
1100
0010
0001
,
0100
0101
0010
1000
,
0001
0001
1000
1000
,
0002
0023
0230
2300
,
3001
0000
0100
0010
,
1001
0100
0010
0010
,
1000
0000
0001
1000
0001
0000
1000
0000
,
0200
0000
0300
0000
,
1000
1000
0100
0000
,
0010
0010
0100
0000
,
0001
1000
0010
0100
,
0010
0000
0100
0000
,
0001
0001
0100
0000
,
0010
0000
0100
0000
,
0001
0100
0010
1000
,
0020
0000
0130
0000
,
0001
0101
1000
0010
,
0100
0000
1000
0000
0001
0000
0100
0010
,
1000
0001
0010
0100
,
1001
0000
0010
0000
,
0100
0001
0010
1000
,
0100
0000
0010
0010
,
1100
0000
0101
0000
,
0020
0000
0230
0000
,
2300
0000
0000
0000
,
0002
0000
0000
3003
,
0010
1100
0010
0101
,
0010
1000
0100
0001
,
0010
0101
0010
1100
,
0010
0000
0100
0000
0001
1000
0001
0000
,
1000
0110
0001
0110
,
1000
0010
0001
0100
,
1000
0101
0001
1100
,
1001
0000
0100
0000
0010
0100
0010
0000
,
2000
0000
0100
3000
,
0002
0000
1000
0003
,
0100
0010
1000
0001
,
0200
0000
0010
0300
,
1000
1000
0001
0010
,
0200
0000
0010
0300
,
0010
0100
0010
0100
,
1100
0000
0101
0000
,
2002
0000
0000
0000
,
3003
0000
0000
0000
,
0000
0000
0000
0000
;
#NOTES:
     dance-single:
     :
     Hard:
     10:
     :
0000
0000
0000
0000
,
0000
0000
0000
0000
,
0000
0000
0000
0000
,
0000
0000
0000
0000
,
0000
0000
0000
0000
,
0000
0000
0000
0000
,
2000
0000
3010
0000
0100
0001
0010
0100
,
0100
1000
0100
0011
,
0001
0000
0100
0000
1000
0100
0010
0100
,
0100
0001
0010
1001
,
0002
0000
1003
0000
0001
0100
0010
0100
,
0100
0001
0100
1010
,
0100
0000
0010
0000
0001
1000
0001
0000
,
0200
1000
0310
0000
,
0001
0100
0010
0000
1000
0100
0010
0000
,
0001
0010
0100
1000
0100
0000
0010
0000
,
0001
0010
0100
0000
1000
0010
0100
0000
,
0002
0023
0230
2300
,
3010
0000
1001
0000
1000
0100
1000
0000
,
0010
0000
0110
0000
0001
0010
0001
0000
,
1000
0000
0010
0010
0100
0000
0010
0000
,
2002
0000
0000
3003
,
0100
0100
0100
0100
,
0010
0010
0010
0100
,
0010
1100
0010
0101
,
0101
0000
1000
0000
,
0010
0001
0100
1000
,
0010
0000
0001
0000
,
1000
1100
0001
0101
,
0020
0000
0000
0100
0130
0000
0000
0000
,
1000
0100
1000
0000
0001
0010
0001
0000
,
1000
0100
0010
0100
0001
0000
0100
0000
,
0010
0012
0100
0013
,
1100
0010
0001
1000
,
0010
1000
0010
1000
0001
0100
0001
0100
,
0010
1000
0001
0100
,
0012
0100
0010
0103
,
2020
3030
0202
0303
,
0001
0000
1000
0000
0001
0000
1000
0000
0001
1000
0001
0000
1000
0000
0001
0000
,
0010
0100
0010
0100
0200
0000
0300
0000
,
0011
1100
0011
1100
,
0010
0000
0000
0010
0001
0000
0100
0000
0010
0000
1000
0000
0001
0000
1000
0000
,
1010
0101
1010
0101
,
0010
0000
0000
0010
1000
0000
0001
0000
1000
0000
0100
0000
0010
0000
0001
0000
,
0011
1001
1010
1001
,
0100
0000
0000
0100
0010
0000
1000
0000
0010
0000
0100
0000
0001
0000
1000
0000
,
1001
0110
1001
0110
,
1001
0000
0000
0000
0000
0000
0000
0000
0010
0000
0010
0100
0000
0000
0010
0000
,
2000
0000
0100
3100
0000
0010
0001
0010
,
0002
1000
0000
0103
0000
0100
0010
1000
,
0020
0000
0100
0130
0000
0001
0000
1000
,
0200
0000
1000
0300
0010
0000
0001
0000
,
1001
0000
0010
0100
0000
0001
0010
0100
,
1100
0010
0100
0011
,
0101
0000
1000
0100
0000
0001
0100
0010
,
2000
0100
3002
0103
,
2002
0000
0000
0000
,
3003
0000
0000
0000
,
0000
0000
0000
0000
;
#NOTES:
     dance-double:
     :
     Easy:
     4:
     :
00000000
00000000
00000000
00000000
,
00000000
00000000
00000000
00000000
,
00000000
00000000
00000000
00000000
,
00000000
00000000
00000000
00000000
,
00000000
00000000
00000000
00000000
,
00000000
00000000
00000000
00000000
,
00000100
00000000
00000100
00000000
,
00001000
00000100
00000010
00000000
,
00000001
00000000
00000001
00000000
,
00000100
00000010
00001000
00000000
,
00010000
00000000
00010000
00000000
,
00001000
00010000
00001000
00000000
,
00100000
00000000
00100000
00000000
,
20020000
00000000
30030000
00000000
,
01000000
10000000
01000000
00000000
,
00100000
00010000
00100000
00000000
,
00001000
00010000
00001000
00000000
,
00001000
00000100
00000010
00000100
,
00000100
00000000
00000001
00000010
,
00000001
00000000
00000100
00000000
,
00020000
00000000
00002000
00000000
,
00033000
00000000
00000000
00000000
,
00010000
00000000
00000000
00000000
,
01000000
00000000
00000000
00000000
,
00100000
00000000
10000000
00000000
,
01000000
00000000
00000000
00000000
,
00010000
00000000
00001000
00000000
,
00010000
00000000
00000000
00000000
,
00000010
00000000
00000100
00000000
,
00000020
00000000
00000030
00000000
,
00000001
00000001
00000100
00000000
,
00000010
00001000
00000100
00000000
,
00010000
00001000
00010000
00001000
,
00010000
00000000
00000000
00000000
,
00100000
00100000
01000000
00000000
,
00010000
00000000
10000000
00000000
,
01000000
00100000
01000000
00100000
,
01000000
00000000
00100000
00000000
,
20020000
00000000
30030000
00000000
,
00000000
00000000
00000000
00000000
,
00010000
00010000
10000000
10000000
,
01000000
00100000
00010000
00000000
,
00100000
00100000
00001000
00001000
,
00010000
00001000
00010000
00000000
,
00000010
00000010
00000100
00000100
,
00000001
00001000
00000001
00000000
,
00000010
00000010
00001000
00001000
,
00000001
00000100
00001000
00000000
,
00020000
00000000
00000000
00030000
,
00002000
00000000
00000000
00003000
,
00200000
00000000
00000000
00300000
,
02000000
00000000
00000000
03000000
,
10000000
00000000
00010000
00000000
,
00200000
00000000
00000000
00300000
,
00001000
00000000
00010000
00000000
,
00000200
00000300
00000020
00000030
,
00002002
00000000
00000000
00000000
,
00003003
00000000
00000000
00000000
,
00000000
00000000
00000000
00000000
;
#NOTES:
     dance-double:
     :
     Medium:
     6:
     :
00000000
00000000
00000000
00000000
,
00000000
00000000
00000000
00000000
,
00000000
00000000
00000000
00000000
,
00000000
00000000
00000000
00000000
,
00000000
00000000
00000000
00000000
,
00000000
00000000
00000000
00000000
,
00200000
10300000
00200000
01300000
,
00010000
00100000
10000000
01000000
,
00200000
00301000
00200000
00310000
,
00001000
00010000
00000100
00000010
,
00000002
00000103
00000002
00000013
,
00000100
00000001
00001000
00000010
,
00020000
00030100
00020000
00031000
,
00100000
01000000
10010000
00000000
,
11000000
11000000
00100000
00010000
,
01010000
01010000
00100000
00001000
,
00011000
00011000
00001000
00000100
,
00000002
00000023
00000230
00002300
,
00013000
00000000
00001000
00100000
,
00110000
01000000
00100000
10000000
,
10010000
00000000
00000000
01000000
00200000
00000000
00000000
00000000
,
01300000
00000000
00000000
00000000
,
00020000
10030000
01000000
00010000
,
00200000
00301000
00010000
00000100
,
00000020
00000031
00001000
00000100
,
00001001
00000000
00000100
00000000
,
00000020
00000130
00002000
00013000
,
00001000
00000000
01000000
00000000
,
00020000
00130000
20000000
31000000
,
00020000
00000000
00031000
00000000
,
00011000
00011000
00001000
00000100
,
00000010
00000000
00000100
00000000
00000001
00000000
00001000
00000100
,
00000020
00000031
00000100
00001000
,
00010000
00000000
00100000
00000000
,
02000000
03010000
00100000
10000000
,
01000000
00000000
00200000
00310000
,
00101000
00000000
00010010
00000000
,
00000002
00000000
00000203
00000000
,
00002300
00000000
00000000
00000000
,
00020000
00000000
00000000
00033000
,
00001000
00011000
00010000
00011000
,
01000000
10000000
00100000
01000000
,
00010000
01100000
10000000
01100000
,
00010000
00000000
00001000
00000000
00010000
00001000
00010000
00000000
,
00001000
00010100
00001000
00010010
,
00001000
00000100
00000010
00000001
,
00000100
00001010
00000100
00000011
,
00000010
00000000
00000010
00000000
00000100
00001000
00010000
00000000
,
00002000
00000000
01000000
00003000
,
00200000
00000000
01000000
00300000
,
10000000
01000000
00100000
00001000
,
00020000
00000000
00001000
00030000
,
00010000
00010000
00000100
00000010
,
00000200
00000000
00000010
00000300
,
00000001
00000100
00001000
00010000
,
00010100
00000000
00010010
00000000
,
00022000
00000000
00000000
00000000
,
00033000
00000000
00000000
00000000
,
00000000
00000000
00000000
00000000
;
#NOTES:
     dance-double:
     :
     Hard:
     11:
     :
00000000
00000000
00000000
00000000
,
00000000
00000000
00000000
00000000
,
00000000
00000000
00000000
00000000
,
00000000
00000000
00000000
00000000
,
00000000
00000000
00000000
00000000
,
00000000
00000000
00000000
00000000
,
00200000
00000000
00301000
00010000
01000000
00000000
00100000
00010000
,
01000000
00100000
10000000
11000000
,
00200000
00000000
00310000
01000000
00001000
00000000
00010000
00000100
,
00001000
00000010
00001000
00001001
,
00000020
00000000
00000031
00000100
00000010
00000000
00001000
00000100
,
00000010
00000001
00001000
00001010
,
00000020
00000000
00000130
00001000
00010000
00000000
00001000
00100000
,
00010000
01000000
00100000
00000000
,
10000000
01000000
10000000
00000000
00010000
00000000
11000000
00000000
,
00100000
00010000
00100000
00000000
00001000
00000000
00110000
00000000
,
00001000
00010000
00001000
00000000
00000100
00000000
00001010
00000000
,
00000002
00000023
00002030
00023000
,
00031000
00000000
00010000
00001000
00000000
00100000
00010000
00000000
,
00100000
00000000
00010000
10000000
00000000
00010000
01000000
00000000
,
10010000
00000000
00100000
01000000
00200000
00000000
00000000
00000000
,
01300000
00000000
00000000
00000000
,
10000000
00000000
10000000
01000000
00100000
00000000
00100000
00010000
,
01000000
00000000
01000000
00000000
00001000
00000000
00010000
00001000
,
00000010
00000000
00000010
00000100
00000010
00000000
00000001
00000000
,
00001001
00000100
00001000
00000010
,
00010000
00000000
00001000
00010000
01000000
00000000
00100000
00000000
,
11000000
00100000
01000000
00010000
,
00001000
00000000
00010000
00001000
00000010
00000000
00000100
00000000
,
00002000
00000000
00003002
00000100
00000103
00000000
00000000
00000000
,
00001000
00000001
00001000
00000100
00000010
00000001
00000100
00000010
,
00001000
00000100
00010000
00000010
00010000
00000000
00001000
00000000
,
00010000
00101000
01000000
00100000
,
10010000
00000000
10000000
01000000
00010000
01000000
00100000
00000000
,
00010000
01000000
00100000
10000000
01000000
00100000
00010000
10000000
,
01000000
00100000
01000000
00010000
,
00001000
00010010
00010000
01001000
,
00011000
00000000
00000110
00000000
,
00000010
00000000
00010000
00000000
00000010
00000000
00001000
00000000
00000010
00000100
00000010
00000000
00001000
00000000
00000010
00000000
,
00010000
00001000
00010000
00001000
00020000
00000000
00030000
00000000
,
00101000
01001000
00101000
01001000
,
00100000
00000000
00000000
00100000
01000000
00000000
10000000
00000000
00000000
00010000
00000000
00000000
01000000
00000000
00100000
00000000
,
10100000
01010000
00101000
01010000
,
00100000
00000000
00000000
00100000
10000000
00000000
00010000
00000000
00000000
00100000
00000000
00000000
00001000
00000000
00100000
00000000
,
00101000
00011000
00010010
00011000
,
00010000
00000000
00000000
00010000
00000100
00000000
00001000
00000000
00000010
00000000
00000000
00000010
00000100
00000000
00000001
00000000
,
00000011
00001100
00010010
00001100
,
00001001
00000000
00000000
00000000
00000000
00000000
00000000
00000000
00000010
00000000
00000000
00000100
00000000
00000000
00000010
00000000
,
00002000
00000000
00000001
00003002
00000000
00000203
00000000
00000320
,
00000000
00002030
00000000
00003002
00000000
00000103
00001000
00010000
,
00002000
00000000
00100000
00203000
00000000
00320000
00000000
10030000
,
00000000
10000000
01000000
00100000
,
00002000
00000000
00013000
00000200
00000000
00000320
00000000
00000031
,
00000000
00000100
00000010
00000100
,
00001002
00000000
00000103
00000020
00000000
00000130
00001000
00010000
,
00200000
00000000
20000000
00300000
,
00020000
00000000
00000000
00000000
,
30030000
00000000
00000000
00000000
,
00000000
00000000
00000000
00000000
;
