
//----- song ID: fwer -----//
#TITLE:FLOWER;
#ARTIST:DJ YOSHITAKA;
#BANNER:FLOWER.png;
#BACKGROUND:FLOWER-bg.png;
#CDTITLE:./CDTitles/REFLEC BEAT.png;
#MUSIC:FLOWER.ogg;
#SAMPLESTART:51.34;
#SAMPLELENGTH:15;
#BPMS:0=173;
#NOTES:
     dance-single:
     :
     Beginner:
     3:
     :
0000
0000
0000
0000
,
0000
0000
0000
0000
,
0000
0000
0000
0000
,
0000
0000
0000
0000
,
0000
0000
0000
0000
,
2002
0000
0000
0000
,
0000
0000
0000
0000
,
0000
0000
3003
0000
,
0020
0000
0030
0000
,
0002
0000
0000
0000
,
0000
0000
0003
0000
,
2000
0000
3000
0000
,
0200
0000
0300
0000
,
0000
0000
0000
0001
,
0000
0000
0000
0001
,
0000
0000
0000
1000
,
0000
0000
0000
1000
,
0000
0000
0000
0010
,
0000
0000
0000
0010
,
0000
0000
0000
0100
,
0000
0000
0000
0100
,
0000
1000
0000
1000
,
0000
0001
0000
0001
,
0000
0100
0000
0100
,
0000
0010
0000
0010
,
0000
1000
0000
1000
,
0000
0100
0000
0100
,
0000
0001
0000
0001
,
0000
0010
0000
0010
,
0020
0000
0030
0000
,
2000
0000
3000
0000
,
0200
0000
0300
0000
,
0002
0000
0003
0000
,
0001
0000
1000
0000
,
0001
0000
1000
0000
,
0002
0000
0003
0000
,
2000
0000
3000
0000
,
0010
0000
0001
0000
,
1000
0000
0001
0000
,
0100
0000
1000
0000
,
0010
0000
0010
0000
,
1000
0000
0001
0000
,
0100
0000
0001
0000
,
0010
0000
1000
0000
,
0001
0000
0001
0000
,
0100
0000
1000
0000
,
0010
0000
1000
0000
,
0100
0000
1000
0000
,
0001
0000
0001
0000
,
0100
0000
0001
0000
,
0010
0000
0001
0000
,
0100
0000
0001
0000
,
2002
0000
0000
3003
,
0000
0000
0000
0000
,
0002
0000
0000
0003
,
0000
0000
0000
0000
,
0020
0000
0000
0030
,
0000
0000
0000
0000
,
2000
0000
0000
3000
,
0000
0000
0000
0000
,
0100
0000
0000
0000
,
2002
0000
0000
0000
,
0000
0000
0000
0000
,
3003
0000
0000
0000
,
0000
0000
0000
0000
,
0000
0000
0000
0000
,
0000
0000
0000
0000
,
0001
0000
0000
0000
,
1000
0000
0000
0000
,
0001
0000
1000
0000
,
1001
0000
0000
0000
,
0000
0000
1000
1000
,
0000
0000
0010
0010
,
0000
0000
0001
0001
,
0001
0000
1000
0000
,
0000
0000
0100
0100
,
0000
0000
0010
0010
,
0000
0000
1000
1000
,
1000
0000
0001
0000
,
0000
0000
0000
0000
,
2002
0000
0000
3003
,
0000
0000
0000
0000
,
2002
0000
0000
3003
,
0000
0000
0000
0000
,
2002
0000
0000
3003
,
0000
0000
0000
0000
,
0100
0000
0000
0010
,
0000
0000
0000
0000
;
#NOTES:
     dance-single:
     :
     Easy:
     7:
     :
0000
0000
0000
0000
,
0000
0000
0000
0000
,
0000
0000
0000
0000
,
0000
0000
0000
0000
,
0000
0000
0000
0000
,
2002
0000
0000
0000
,
0000
0000
0000
0000
,
0000
0000
0000
3003
,
0020
0030
0200
0300
,
2000
0000
0000
0000
,
0000
0000
0000
3000
,
0002
0000
0000
0003
,
2000
0000
0002
3003
,
1000
1000
0100
0100
,
0001
0001
0010
0010
,
1000
1000
0100
0100
,
0001
0001
0010
0010
,
0001
0001
0100
0100
,
1000
1000
0010
0010
,
0001
0001
0100
0100
,
1000
1000
0010
0010
,
1000
0100
0000
0100
,
0000
0010
0000
0010
,
0000
0001
0000
0001
,
0000
0100
0000
0100
,
0001
0100
0000
0100
,
0000
0010
0000
0010
,
0000
1000
0000
1000
,
0010
0000
0100
0000
,
0010
0010
1000
0000
,
0010
0010
0001
0000
,
0100
0100
1000
0000
,
0100
0100
0001
0000
,
2000
3100
0002
0103
,
2000
3010
0002
0013
,
0200
0000
0310
1001
,
0010
0000
0000
1000
0000
0000
0001
0000
,
0010
0001
1000
0001
,
0010
0100
1000
0010
,
0100
0001
1000
0100
,
0020
0031
0020
0130
,
0010
0001
1000
0010
,
0100
0001
1000
0100
,
0010
0001
0010
0100
,
2000
3100
2000
3001
,
0010
0001
1000
0010
,
0100
0001
1000
0100
,
0010
0100
1000
0010
,
0200
0301
0200
0310
,
1000
0100
0001
0100
,
1000
0010
0001
0010
,
1000
0010
0100
0010
,
2002
0003
0100
3100
,
0010
0000
0000
0001
0000
0000
1000
0000
,
2200
0000
0000
3300
,
0010
0000
0000
1000
0000
0000
0001
0000
,
0202
0000
0000
0303
,
0010
0000
0000
0100
0000
0000
0010
0000
,
2002
0000
0000
3003
,
0001
0000
0000
0100
0000
0000
1000
0000
,
0020
0000
0000
0130
,
2002
0000
0000
0000
,
0000
0000
0000
0000
,
3003
0000
0000
0000
,
0000
0000
0000
0000
,
0000
0000
0000
0000
,
0000
0000
0000
0000
,
1100
0000
0000
0000
,
0101
0000
0000
0000
,
0110
0000
1001
0000
,
0020
0030
0200
0300
,
0010
1000
0002
0013
,
0100
1000
0002
0103
,
0010
0100
0002
0013
,
0200
1300
0200
0310
,
0001
0100
2000
3100
,
0001
0010
2000
3010
,
0001
0010
0200
0310
,
2002
3000
0100
0103
,
0010
0000
0000
1000
0000
0000
0001
0000
,
0202
0000
0000
0303
,
0010
0000
0000
0001
0000
0000
1000
0000
,
2200
0000
0000
3300
,
0010
0000
0000
0100
0000
0000
0010
0000
,
2002
0000
0000
3003
,
1000
0000
0000
0100
0000
0000
0001
0000
,
0020
0000
0000
0130
,
0000
0000
0000
0000
;
#NOTES:
     dance-single:
     :
     Medium:
     10:
     :
0000
0000
0000
0000
,
0000
0000
0000
0000
,
0000
0000
0000
0000
,
0000
0000
0000
0000
,
0000
0000
0000
0000
,
1001
0100
0000
0100
,
0000
0100
0000
0100
,
0000
0100
0000
0100
,
1000
0100
0001
0100
,
1000
0010
0000
0010
,
0000
0010
0000
0010
,
0001
0000
0010
0000
0000
0100
0010
0200
,
0000
2300
0000
3002
0000
0203
0000
0310
,
1000
0001
1000
0000
0100
0000
0100
0000
,
0010
0001
0100
0000
0010
0000
0010
0000
,
1000
0001
0010
0000
0100
0000
0100
0000
,
1000
0001
0100
0000
0010
0100
0010
0000
,
1000
0010
0100
0000
0010
0000
0010
0000
,
1000
0100
0010
0000
0001
0000
0001
0000
,
0100
0010
0100
0000
0001
0000
0001
0000
,
0010
0001
0010
1000
,
0010
0000
1001
0000
0000
0100
0001
0000
,
0010
0000
1001
0000
0000
0100
1000
0000
,
0010
0000
0101
0000
0000
0010
0100
0000
,
0010
1000
0100
0010
,
0001
0000
0101
0000
0000
1000
0100
0000
,
0010
0000
0011
0000
0000
1000
0010
0000
,
0001
0000
1100
0000
0000
0010
0100
0000
,
0020
0030
0002
0003
,
0100
0010
1000
0000
0001
0000
1000
0000
,
0010
0001
0100
0000
0010
0000
0001
0000
,
1000
0010
0100
0000
0010
0000
1000
0000
,
0100
0001
0010
0000
0100
0000
0010
0000
,
1000
0001
0100
0000
0010
1000
0100
0000
,
0010
0001
1000
0000
0010
0100
0001
0000
,
0100
0100
0000
0010
0010
0000
1001
0000
,
0010
0000
0000
1000
0000
0000
0010
0000
0000
0100
0000
0000
0001
0000
1000
0000
,
0010
1000
0001
0000
1000
0000
0001
0000
,
0010
0100
0010
0000
0001
0000
0100
0000
,
0010
1000
0001
0000
1000
0000
0100
0000
,
0011
0000
1100
0000
0001
1000
0100
0000
,
0010
0001
0100
0000
1000
0000
0001
0000
,
0010
0100
1000
0000
0001
0000
0100
0000
,
0010
1000
0001
0000
0010
0000
0100
0000
,
0110
0000
1001
0000
0010
1000
0001
0000
,
0010
0001
1000
0000
0100
0000
0001
0000
,
0010
0001
0010
0000
0100
0000
1000
0000
,
0010
0100
0001
0000
0010
0100
1000
0000
,
0100
0001
0010
0100
,
1000
0001
0100
0000
0001
0000
1000
0000
,
0010
0100
0001
0000
1000
0000
0100
0000
,
0010
0001
0010
0000
0100
1000
0100
0000
,
0110
0000
0000
0000
0001
1000
0001
0000
,
0010
0000
0000
0010
0000
0000
0100
0000
0000
0100
0000
0000
1000
0000
0001
0000
,
0010
0000
0100
1000
0002
0000
0103
0000
,
0010
0000
0000
0010
0000
0000
0100
0000
0000
0100
0000
0000
0001
0000
1000
0000
,
0010
0000
0100
0001
2000
0000
3100
0000
,
0010
0000
0000
0010
0000
0000
0100
0000
0000
0100
0000
0000
0010
0000
0100
0000
,
0010
0000
0001
0100
0020
0000
0130
0000
,
0001
0000
0000
0001
0000
0000
1000
0000
0000
1000
0000
0000
0010
0000
0100
0000
,
0010
1000
0100
0010
,
2002
0000
0000
0000
,
0000
0000
0000
0000
,
3003
0000
0000
0000
,
0000
0000
0000
0000
,
0000
0000
0000
0000
,
0000
0000
0000
0000
,
1001
0010
0010
0010
,
1001
0010
0010
0010
,
1001
0010
1001
0010
,
0001
0000
0000
1000
0000
0000
0100
0000
0000
0010
0000
0000
0001
0000
1000
0000
,
0010
1000
0001
0000
0100
0000
1000
0000
,
0010
1000
0010
0000
0100
0000
0001
0000
,
0010
0100
1000
0000
0010
0100
0001
0000
,
0100
1000
0010
0100
,
0001
1000
0100
0000
1000
0000
0001
0000
,
0010
0100
1000
0000
0001
0000
0100
0000
,
0010
1000
0010
0000
0100
0001
0100
0000
,
0110
0000
0000
0000
1000
0001
1000
0000
,
0010
0000
0000
0010
0000
0000
0100
0000
0000
0100
0000
0000
0001
0000
1000
0000
,
0010
0000
0100
0001
2000
0000
3100
0000
,
0010
0000
0000
0010
0000
0000
0100
0000
0000
0100
0000
0000
1000
0000
0001
0000
,
0010
0000
0100
1000
0002
0000
0103
0000
,
0010
0000
0000
0010
0000
0000
0100
0000
0000
0100
0000
0000
0010
0000
0100
0000
,
0010
0000
1000
0100
0020
0000
0130
0000
,
1000
0000
0000
1000
0000
0000
0001
0000
0000
0001
0000
0000
0010
0000
0100
0000
,
0010
0001
0100
0110
,
0000
0000
0000
0000
;
#NOTES:
     dance-single:
     :
     Hard:
     13:
     :
0000
0000
0000
0000
,
0000
0000
0000
0000
,
0000
0000
0000
0000
,
0000
0000
0000
0000
,
0000
0000
0000
0000
,
1001
0100
0000
0100
,
0000
0100
0000
0100
,
0000
0100
0000
0100
,
0001
0100
1000
0100
,
0001
0010
0000
0010
,
0000
0010
0000
0010
,
1000
0000
0010
0000
0000
0100
0010
0200
,
0000
0302
0000
2003
0000
3200
0000
0310
,
0001
0000
1000
0000
0001
0000
0000
0000
0100
0000
0000
0100
0000
0000
0100
0000
,
0010
0000
1000
0000
0100
0000
0000
0000
0010
0000
0000
0010
0000
0000
0010
0000
,
0001
0000
1000
0000
0010
0000
0000
0000
0100
0000
0000
0100
0000
0000
0100
0000
,
0001
0000
1000
0000
0100
0000
0000
0000
0010
0000
0000
0010
0000
0000
0010
0000
,
0001
0000
0010
0000
0100
0000
0000
0000
0010
0000
0000
0010
0000
0000
0010
0000
,
0001
0000
0100
0000
0010
0000
0000
0000
1000
0000
0000
1000
0000
0000
1000
0000
,
0100
0000
0010
0000
0100
0000
0000
0000
1000
0000
0000
1000
0000
0000
1000
0000
,
0010
0000
0000
1000
0000
0000
0001
0000
0010
0000
0000
0001
0000
0000
0100
0000
,
0010
0000
1001
0000
0000
0100
1100
0000
,
0010
0000
1001
0000
0000
0100
0101
0000
,
0010
0000
1100
0000
0000
0010
0110
0000
,
0010
0000
0000
0001
0000
0000
0100
0000
0010
0000
0000
0100
0000
0000
0001
0000
,
1000
0000
1100
0000
0000
0100
1001
0000
,
0010
0000
1010
0000
0000
0010
0011
0000
,
0010
0000
0101
0000
0000
0001
1100
0000
,
0010
0000
0000
1000
0000
0000
0001
0000
0010
0000
0000
0001
0000
0000
1000
0000
,
0100
0000
0010
0000
0001
0000
0000
0000
1000
0000
0000
0001
0000
0000
0100
0000
,
0010
0000
1000
0000
0100
0000
0000
0000
0010
0000
0000
0001
0000
0000
1000
0000
,
0001
0000
0010
0000
0100
0000
0000
0000
0010
0000
0000
0001
0000
0000
1000
0000
,
0100
0000
1000
0000
0010
0000
0000
0000
0100
0000
0000
0001
0000
0000
0010
0000
,
0001
0000
0000
1000
0000
0000
0100
0000
0010
0000
0000
0001
0000
0000
0100
0000
,
0010
0000
0000
1000
0000
0000
0001
0000
0010
0000
0000
0100
0000
0000
1000
0000
,
0100
0100
0000
0010
0001
0100
0110
0000
,
1010
0000
0000
0101
0000
0000
0011
0000
0000
1100
0000
0000
0110
0000
1001
0000
,
0010
0001
1000
0100
0001
0100
1000
0100
,
0010
0001
0010
1000
0010
0100
1000
0010
,
0100
0001
1000
0100
0010
0100
1000
0010
,
0100
0000
0000
0100
0000
0000
0100
0000
0001
0000
0000
1000
0000
0000
0100
0000
,
1000
0001
0100
0010
0001
0010
1000
0001
,
0010
0100
0001
0100
1000
0010
0100
0001
,
0010
0001
1000
0010
0100
0001
1000
0100
,
0010
0000
0000
0010
0000
0000
0010
0000
0001
0000
0000
1000
0000
0000
1000
0000
,
0010
1000
0001
0100
1000
0100
0001
0100
,
0010
1000
0010
0001
0010
0100
0001
0010
,
0100
1000
0001
0100
0010
0100
0001
0010
,
0100
0000
0000
0100
0000
0000
0100
0000
1000
0000
0000
0001
0000
0000
0100
0000
,
0001
1000
0100
0010
1000
0010
0001
1000
,
0010
0100
1000
0100
0001
0010
0100
1000
,
0010
1000
0001
0010
0100
1000
0001
0100
,
0110
0000
0000
0000
1000
0001
1000
0001
,
0010
0000
0000
0110
0000
0000
1000
0000
0000
1010
0000
0000
0001
0000
0101
0000
,
0010
0100
0001
0100
0020
0000
0130
0000
,
0001
0000
0000
1001
0000
0000
0010
0000
0000
0110
0000
0000
0100
0000
1100
0000
,
0010
0001
0100
0000
0100
0001
0010
0000
,
0010
0000
0000
0110
0000
0000
0001
0000
0000
0011
0000
0000
1000
0000
1100
0000
,
0010
0100
1000
0100
0020
0000
0130
0000
,
1000
0000
0000
1001
0000
0000
0010
0000
0000
0110
0000
0000
0100
0000
0101
0000
,
2000
0000
0000
3100
,
0202
0000
0000
0000
,
0000
0000
0000
0000
,
0303
0000
0000
0000
,
0000
0000
0000
0000
,
0000
0000
0000
0000
,
0000
0000
0000
0000
,
1001
0010
0010
0010
,
1001
0010
0010
0010
,
1001
0010
1001
0010
,
0011
0000
0000
1100
0000
0000
1010
0000
0000
0101
0000
0000
0110
0000
1001
0000
,
0010
1000
0001
0100
1000
0100
0010
0100
,
0010
1000
0100
0001
0100
0010
0001
0010
,
0100
1000
0001
0100
1000
0100
0001
0010
,
0100
0000
0000
0100
0000
0000
0100
0000
1000
0000
0000
0001
0000
0000
0100
0000
,
0010
1000
0100
0010
1000
0010
0001
1000
,
0010
0100
1000
0100
0001
0010
0100
1000
,
0010
1000
0001
0010
0100
1000
0001
0100
,
0110
0000
0000
0000
1000
0001
1000
0001
,
0010
0000
0000
0110
0000
0000
1000
0000
0000
1010
0000
0000
0001
0000
0101
0000
,
0010
0100
0001
0100
0020
0000
0130
0000
,
0001
0000
0000
1001
0000
0000
0010
0000
0000
0110
0000
0000
0100
0000
1100
0000
,
0010
0001
0100
0000
0100
0001
0010
0000
,
0010
0000
0000
0110
0000
0000
0001
0000
0000
0011
0000
0000
1000
0000
1100
0000
,
0010
0100
1000
0100
0020
0000
0130
0000
,
1000
0000
0000
1001
0000
0000
0010
0000
0000
0110
0000
0000
0100
0000
0101
0000
,
0020
0000
0000
0130
,
0000
0000
0000
0000
;
#NOTES:
     dance-single:
     :
     Challenge:
     15:
     :
0000
0000
0000
0000
,
0000
0000
0000
0000
,
0000
0000
0000
0000
,
0000
0000
0000
0000
,
0000
0000
0000
0000
,
0001
1000
0100
0010
0000
0100
0010
0001
,
0000
0010
0001
1000
0000
0001
1000
0010
,
0000
1000
0010
0100
0000
0010
0100
0001
,
0000
0100
0001
1000
0000
0001
1000
0100
,
0000
1000
0100
0010
0000
0100
0010
0001
,
0000
0010
0001
0100
0000
0001
0100
0010
,
0000
0100
0010
1000
0000
0100
0010
0200
,
0000
2300
0000
3002
0000
0203
0000
0310
,
1000
0000
0001
0000
1000
0100
1000
0000
0100
0010
0000
0100
0000
0000
0100
0000
,
0010
0000
0001
0000
0100
0010
0100
0000
0010
1000
0000
0010
0000
0000
0010
0000
,
1000
0000
0001
0000
0010
0001
0010
0000
0100
1000
0000
0100
0000
0000
0100
0000
,
1000
0000
0001
0000
0100
0010
0100
0000
0010
1000
0000
0010
0000
0000
0010
0000
,
1000
0000
0010
0000
0100
0001
0100
0000
0010
1000
0000
0010
0000
0000
0010
0000
,
1000
0000
0100
0000
0010
0100
0010
0000
0001
0100
0000
0001
0000
0000
0001
0000
,
0100
0000
0010
0000
0100
0001
0100
0000
0001
1000
0000
0001
0000
0000
0001
0000
,
0010
0000
0000
0001
0000
0000
1000
0000
0010
0000
0000
1000
0000
0000
0100
0000
,
0010
0100
1001
0000
0000
0100
0101
0000
,
0010
0100
1001
0000
0000
0100
1100
0000
,
0010
1000
0101
0000
0000
0001
0110
0000
,
0010
0000
0000
1000
0000
0000
0100
0000
0010
0000
0000
0100
0000
0000
1000
0000
,
0001
0100
0101
0000
0000
0100
0110
0000
,
0001
0010
0011
0000
0000
0010
0110
0000
,
0010
0100
1100
0000
0000
1000
1001
0000
,
0010
0000
0000
0001
0000
0000
1000
0000
0010
0000
0000
1000
0000
0000
0001
0000
,
0100
0000
0010
1000
0000
0100
1000
0000
0001
0000
0000
1000
0000
0000
0100
0000
,
0010
0000
0001
0100
0000
0010
0100
0000
0010
0000
0000
1000
0000
0000
0001
0000
,
1000
0000
0010
0100
0000
0001
0100
0000
0010
0000
0000
1000
0000
0000
0001
0000
,
0100
0000
0001
0010
0000
0100
0010
0000
0100
0000
0000
1000
0000
0000
0010
0000
,
2000
0000
0000
3002
0000
0000
0203
0000
0320
0000
0000
2030
0000
0000
3200
0000
,
0320
0000
0000
0032
0000
0000
2003
0000
3020
0000
0000
0230
0000
0000
0301
0000
,
0100
0100
0000
0010
1000
0100
0110
0000
,
0011
0000
0000
1100
0000
0000
1010
0000
0000
0101
0000
0000
0110
0000
1001
0000
,
0010
0000
1000
0001
0000
0100
0001
1000
0000
0100
0000
1000
0001
0000
0100
0010
,
0100
0000
0010
1000
0000
0001
0010
0100
0000
0010
0000
0100
1000
0000
0001
0100
,
0001
0000
1000
0001
0000
0100
0010
1000
0000
0001
0000
0100
0010
0000
0100
0010
,
0100
0000
0000
0100
0000
0000
0100
0000
0001
1000
0100
1000
0000
0001
0100
0000
,
0001
0000
1000
0100
0000
0010
0100
0010
0000
0001
0000
1000
0010
0000
1000
0001
,
0010
0000
0100
1000
0000
0001
0100
0001
0000
0010
0000
0100
1000
0000
0001
1000
,
0100
0000
1000
0010
0000
0100
0010
0100
0000
0010
0000
1000
0001
0000
0010
0001
,
1000
0000
0000
1000
0000
0000
1000
0000
0001
0100
0001
0100
0000
0001
0010
0000
,
0010
0000
0001
1000
0000
0100
1000
0001
0000
0100
0000
0001
1000
0000
0100
0010
,
0100
0000
0010
0001
0000
1000
0010
0100
0000
0010
0000
0100
0001
0000
1000
0100
,
1000
0000
0001
1000
0000
0100
0010
0001
0000
1000
0000
0100
0010
0000
0100
0010
,
0100
0000
0000
0100
0000
0000
0100
0000
1000
0001
0100
0001
0000
1000
0100
0000
,
1000
0000
0001
0100
0000
0010
0100
0010
0000
1000
0000
0001
0010
0000
0001
1000
,
0010
0000
0100
0001
0000
1000
0100
1000
0000
0010
0000
0100
0001
0000
1000
0001
,
0100
0000
0001
0010
0000
0100
0010
0100
0000
0010
0000
0001
1000
0000
0010
1000
,
0001
0000
0000
0001
0000
0000
0001
0000
1000
0100
1000
0100
0000
1000
0010
0000
,
1010
0000
0000
1001
0000
0000
0011
0000
0000
1001
0000
0000
0110
0000
1001
0000
,
0010
0000
0100
0000
1000
0100
1000
0000
0001
0000
0000
0100
0000
0000
0001
0000
,
0011
0000
0000
1001
0000
0000
1010
0000
0000
1001
0000
0000
0110
0000
1001
0000
,
0010
0000
1000
0000
0100
1000
0100
0000
1000
0001
0000
0100
0000
0000
0010
0000
,
1010
0000
0000
0110
0000
0000
0101
0000
0000
1100
0000
0000
0110
0000
0011
0000
,
0010
0000
0100
0000
1000
0001
1000
0000
0010
0000
0000
1000
0000
0000
0001
0000
,
0011
0000
0000
1001
0000
0000
1100
0000
0000
0101
0000
0000
1001
0000
1010
0000
,
0200
0000
0000
0310
,
2002
0000
0000
0000
,
0000
0000
0000
0000
,
3003
0000
0000
0000
,
0000
0000
0000
0000
,
0000
0000
0000
0000
,
0000
0000
0000
0000
,
2001
0100
0100
3100
,
1002
0100
0100
0103
,
1001
0010
1001
0010
,
1010
0000
0000
0101
0000
0000
0011
0000
0000
1100
0000
0000
0110
0000
1001
0000
,
0010
0000
1000
0010
0000
0100
0001
1000
0000
0100
1000
0100
0010
0100
1000
0100
,
1000
0000
0001
0100
0000
0001
0010
0100
0000
0010
0001
1000
0001
0100
0001
0100
,
0010
0000
1000
0001
0000
0100
0010
1000
0000
0001
0000
0010
0100
0000
1000
0100
,
1000
0000
0000
1000
0000
0000
1000
0000
0001
1000
0100
1000
0000
0001
0100
0000
,
0001
0000
1000
0100
0000
0010
0001
0010
0000
0001
1000
0010
0100
0010
1000
0010
,
0100
0000
0001
1000
0000
0100
0010
0001
0000
0010
0100
1000
0001
1000
0001
1000
,
0100
0000
1000
0010
0000
0100
0010
0100
0000
0010
0000
1000
0001
0000
0010
0001
,
1000
0000
0000
1000
0000
0000
1000
0000
0001
0100
0001
0100
0000
0001
0010
0000
,
0011
0000
0000
1001
0000
0000
1010
0000
0000
1001
0000
0000
0110
0000
1001
0000
,
0010
0000
0100
0000
0001
0100
0001
0000
1000
0000
0000
0100
0000
0000
1000
0000
,
1010
0000
0000
1001
0000
0000
0011
0000
0000
1001
0000
0000
0110
0000
1001
0000
,
0010
0000
0001
0000
0100
0001
0100
0000
0001
1000
0000
0100
0000
0000
0010
0000
,
0011
0000
0000
0110
0000
0000
1100
0000
0000
0101
0000
0000
0110
0000
1010
0000
,
0010
0000
0100
0000
0001
1000
0001
0000
0010
0000
0000
0001
0000
0000
1000
0000
,
1010
0000
0000
1001
0000
0000
0101
0000
0000
1100
0000
0000
1001
0000
0011
0000
,
0200
0000
0000
0310
,
0000
0000
0000
0000
;
#NOTES:
     dance-double:
     :
     Easy:
     6:
     :
00000000
00000000
00000000
00000000
,
00000000
00000000
00000000
00000000
,
00000000
00000000
00000000
00000000
,
00000000
00000000
00000000
00000000
,
00000000
00000000
00000000
00000000
,
10010000
00100000
00000000
00100000
,
00000000
00010000
00000000
00010000
,
00000000
00001000
00000000
00001000
,
00000000
00000010
00000000
00000010
,
00000001
00000100
00000000
00000100
,
00000000
00001000
00000000
00001000
,
00010000
00001000
00000000
00001000
,
00000000
01000000
00000000
01000000
,
00100000
00100000
10000000
10000000
,
00010000
00010000
00100000
00100000
,
00001000
00001000
00000010
00000010
,
00000100
00001000
00000010
00000001
,
00000100
00000100
00000010
00000010
,
00001000
00001000
00100000
00100000
,
01000000
01000000
10000000
10000000
,
00010000
00100000
01000000
10000000
,
00010000
01000000
00000000
01000000
,
00001000
00010000
00000000
00010000
,
00000100
00001000
00000000
00001000
,
00000001
00000010
00000100
00000010
,
00000001
00000100
00000000
00000100
,
00001000
00010000
00000000
00010000
,
01000000
10000000
00000000
10000000
,
00010000
10000000
01000000
10000000
,
00100000
01000000
00010000
00000000
,
00100000
00001000
00010000
00000000
,
00001000
00010000
00000100
00000000
,
00000010
00000100
00010000
00000000
,
00001000
00001000
00000100
00000100
,
00000001
00000001
00000010
00000010
,
00000200
00000000
00000310
00001001
,
00000001
00000000
00000000
00000100
00000000
00000000
00001000
00000000
,
00010000
00001000
00100000
01000000
,
00100000
00001000
00010000
00000010
,
00000100
00000010
00001000
00000100
,
00000010
00000010
00001000
00010000
,
01000000
00100000
00010000
01000000
,
10000000
00010000
00001000
00000100
,
00000010
00001000
00000001
00000010
,
00000100
00000100
00010000
00001000
,
00100000
00010000
01000000
00100000
,
10000000
00010000
00001000
00000001
,
00000010
00000001
00001000
00000010
,
00000100
00000100
00001000
00010000
,
00001000
00100000
01000000
00100000
,
00001000
01000000
00100000
01000000
,
00001000
00010000
01000000
10000000
,
20020000
00030000
00100000
30100000
,
01000000
00000000
00000000
00001000
00000000
00000000
00010000
00000000
,
00022000
00000000
00000000
00033000
,
00000010
00000000
00000000
00000001
00000000
00000000
00001000
00000000
,
00000220
00000000
00000000
00000330
,
00001000
00000000
00000000
00010000
00000000
00000000
00001000
00000000
,
00022000
00000000
00000000
00033000
,
00100000
00000000
00000000
01000000
00000000
00000000
10000000
00000000
,
00020000
00000000
00000000
10030000
,
02200000
00000000
00000000
00000000
,
00000000
00000000
00000000
00000000
,
03300000
00000000
00000000
00000000
,
00000000
00000000
00000000
00000000
,
00000000
00000000
00000000
00000000
,
00000000
00000000
00000000
00000000
,
10010000
00000000
00000000
00000000
,
00011000
00000000
00000000
00000000
,
00001001
00000000
00000110
00000000
,
00000002
00000003
00002000
00003000
,
00000010
00001000
00000100
00000010
,
00000001
00001000
00010000
10000000
,
00100000
10000000
00010000
00100000
,
01000000
01000000
00010000
00001000
,
00010000
00000010
00000100
00000010
,
00010000
00000100
00000010
00000100
,
00010000
00001000
00000100
00000001
,
00002002
00003000
00000010
00000013
,
00000100
00000000
00000000
00010000
00000000
00000000
00001000
00000000
,
00022000
00000000
00000000
00033000
,
00100000
00000000
00000000
10000000
00000000
00000000
00010000
00000000
,
02200000
00000000
00000000
03300000
,
00010000
00000000
00000000
00001000
00000000
00000000
00010000
00000000
,
00022000
00000000
00000000
00033000
,
00000010
00000000
00000000
00000100
00000000
00000000
00000001
00000000
,
00002000
00000000
00000000
00003001
,
00000000
00000000
00000000
00000000
;
#NOTES:
     dance-double:
     :
     Medium:
     9:
     :
00000000
00000000
00000000
00000000
,
00000000
00000000
00000000
00000000
,
00000000
00000000
00000000
00000000
,
00000000
00000000
00000000
00000000
,
00000000
00000000
00000000
00000000
,
00001001
00000100
00000000
00000100
,
00000000
00001000
00000000
00001000
,
00000000
00010000
00000000
00010000
,
00000000
01000000
00000000
01000000
,
10000000
00010000
00000000
00010000
,
00000000
00100000
00000000
00100000
,
01000000
00000000
00100000
00000000
00000000
00010000
01000000
00002000
,
00000000
00023000
00000000
00030020
00000000
00002030
00000000
00003001
,
00000010
00000100
00000010
00000000
00000001
00000000
00000001
00000000
,
00000100
00001000
00000100
00000000
00000010
00000000
00000010
00000000
,
00010000
00001000
00010000
00000000
01000000
00000000
01000000
00000000
,
00100000
00010000
01000000
10000000
,
00100000
00010000
00100000
00000000
01000000
00000000
01000000
00000000
,
00010000
00001000
00010000
00000000
00000100
00000000
00000100
00000000
,
00000010
00000100
00000010
00000000
00000001
00000000
00000001
00000000
,
00000100
00001000
00010000
01000000
,
00100000
00000000
10010000
00000000
00000000
00100000
01000000
00000000
,
00100000
00000000
00011000
00000000
00000000
00000010
00000100
00000000
,
00000001
00000000
00001001
00000000
00000000
00000010
00000100
00000000
,
00000001
00001000
00010000
10000000
,
00100000
00000000
01100000
00000000
00000000
00010000
10000000
00000000
,
01000000
00000000
01100000
00000000
00000000
00010000
00001000
00000000
,
00000100
00000000
00001001
00000000
00000000
00000010
00000100
00000000
,
00000001
00001000
00010000
10000000
,
01000000
00100000
00010000
00000000
01000000
00000000
01000000
00000000
,
00100000
00001000
00010000
00000000
00001000
00000000
00001000
00000000
,
00000100
00000010
00000001
00000000
00000010
00000000
00000010
00000000
,
00000100
00001000
00000001
00000000
00000100
00000000
00000100
00000000
,
00000010
00010000
00001000
00000000
00100000
00001000
00010000
00000000
,
00000100
00010000
00001000
00000000
01000000
00001000
00010000
00000000
,
01000000
01000000
00000000
00100000
00100000
00000000
10010000
00000000
,
10000000
00000000
00000000
00100000
00000000
00000000
01000000
00000000
00000000
00001000
00000000
00000000
00010000
00000000
00000100
00000000
,
00001000
00000001
00000100
00000000
00000001
00000000
00000010
00000000
,
00000100
00010000
00001000
00000000
01000000
00000000
00100000
00000000
,
10000000
00010000
01000000
00000000
00100000
00000000
01000000
00000000
,
00100000
00000000
00000000
00100000
00000000
00000000
00100000
00000000
00010000
00000000
00000000
00000000
00001000
00000000
00000000
00000000
,
00000100
00000010
00001000
00000000
00000100
00000000
00000010
00000000
,
00000001
00000100
00001000
00000000
00010000
00000000
00100000
00000000
,
01000000
00010000
10000000
00000000
01000000
00000000
00100000
00000000
,
00010000
00000000
00000000
00010000
00000000
00000000
00010000
00000000
10000000
00000000
00000000
00000000
00100000
00000000
00000000
00000000
,
01000000
00001000
00010000
00000000
00000010
00000000
00000100
00000000
,
00000010
00010000
00001000
00000000
00000100
00000000
00000001
00000000
,
00000010
00000100
00000010
00000000
00001000
00000000
00010000
00000000
,
00001000
00000000
00000000
00001000
00000000
00000000
00001000
00000000
01000000
00000000
00000000
00000000
00100000
00000000
00000000
00000000
,
01000000
00001000
00010000
00000000
01000000
00000000
00100000
00000000
,
00001000
00010000
00100000
00000000
01000000
00000000
00100000
00000000
,
10000000
01000000
00010000
00000000
00001000
00000100
00000001
00000000
,
00002002
00000000
00003000
00000000
00000100
00000100
00000103
00000000
,
00000010
00000000
00000000
00000100
00000000
00000000
00000010
00000000
00000000
00010000
00000000
00000000
00001000
00000000
01000000
00000000
,
00010000
00000000
10000000
00010000
20000000
00000000
31000000
00000000
,
00100000
00000000
00000000
01000000
00000000
00000000
00100000
00000000
00000000
00001000
00000000
00000000
00010000
00000000
00000100
00000000
,
00001000
00000000
00000001
00001000
00000002
00000000
00000103
00000000
,
00000010
00000000
00000000
00000100
00000000
00000000
00000010
00000000
00000000
00010000
00000000
00000000
00100000
00000000
01000000
00000000
,
00010000
00000000
10000000
00010000
20000000
00000000
31000000
00000000
,
00100000
00000000
00000000
01000000
00000000
00000000
00100000
00000000
00000000
00001000
00000000
00000000
00000010
00000000
00000100
00000000
,
00002000
00000000
00000000
00003001
,
00000220
00000000
00000000
00000000
,
00000000
00000000
00000000
00000000
,
00000330
00000000
00000000
00000000
,
00000000
00000000
00000000
00000000
,
00000000
00000000
00000000
00000000
,
00000000
00000000
00000000
00000000
,
00001001
00000001
00000100
00001000
,
00011000
00010000
01000000
10000000
,
10010000
00100000
10010000
00100000
,
01000000
00000000
00000000
00100000
00000000
00000000
00001000
00000000
00000000
00010000
00000000
00000000
00000100
00000000
00000010
00000000
,
00000100
00010000
00001000
00000000
00100000
00000000
01000000
00000000
,
00100000
00001000
00010000
00000000
01000000
00000000
10000000
00000000
,
00100000
01000000
00100000
00000000
00010000
00000000
00001000
00000000
,
00010000
00000000
00000000
00010000
00000000
00000000
00010000
00000000
00000100
00000000
00000000
00000000
00000010
00000000
00000000
00000000
,
00000100
00010000
00001000
00000000
00000100
00000000
00000010
00000000
,
00010000
00001000
00000010
00000000
00000100
00000000
00000010
00000000
,
00000001
00000100
00001000
00000000
00010000
01000000
10000000
00000000
,
20020000
00000000
00030000
00000000
01000000
01000000
31000000
00000000
,
00100000
00000000
00000000
01000000
00000000
00000000
00100000
00000000
00000000
00001000
00000000
00000000
00010000
00000000
00000100
00000000
,
00001000
00000000
00000001
00001000
00000002
00000000
00000103
00000000
,
00000010
00000000
00000000
00000100
00000000
00000000
00000010
00000000
00000000
00010000
00000000
00000000
00001000
00000000
01000000
00000000
,
00010000
00000000
10000000
00010000
20000000
00000000
31000000
00000000
,
00100000
00000000
00000000
01000000
00000000
00000000
00100000
00000000
00000000
00001000
00000000
00000000
00000010
00000000
00000100
00000000
,
00001000
00000000
00000001
00001000
00000002
00000000
00000103
00000000
,
00000010
00000000
00000000
00000100
00000000
00000000
00000010
00000000
00000000
00010000
00000000
00000000
00100000
00000000
01000000
00000000
,
00020000
00000000
00000000
10030000
,
00000000
00000000
00000000
00000000
;
#NOTES:
     dance-double:
     :
     Hard:
     13:
     :
00000000
00000000
00000000
00000000
,
00000000
00000000
00000000
00000000
,
00000000
00000000
00000000
00000000
,
00000000
00000000
00000000
00000000
,
00000000
00000000
00000000
00000000
,
10010000
01000000
00000000
01000000
,
00000000
00010000
00000000
00010000
,
00000000
00001000
00000000
00001000
,
00000000
00000100
00000000
00000100
,
00000001
00001000
00000000
00001000
,
00000000
00000010
00000000
00000010
,
00000100
00000000
00000010
00000000
00000000
00001000
00000100
00020000
,
00000000
02030000
00000000
03200000
00000000
00320000
00000000
10030000
,
00100000
00000000
01000000
00000000
00100000
00000000
00000000
00000000
10000000
00000000
00000000
10000000
00000000
00000000
10000000
00000000
,
01000000
00000000
00010000
00000000
01000000
00000000
00000000
00000000
00100000
00000000
00000000
00100000
00000000
00000000
00100000
00000000
,
00001000
00000000
00010000
00000000
00001000
00000000
00000000
00000000
00000100
00000000
00000000
00000100
00000000
00000000
00000100
00000000
,
00000010
00000000
00000000
00001000
00000000
00000000
00000100
00000000
00000010
00000000
00000000
00000001
00000000
00000000
00000100
00000000
,
00000010
00000000
00001000
00000000
00000010
00000000
00000000
00000000
00000100
00000000
00000000
00000100
00000000
00000000
00000100
00000000
,
00001000
00000000
00010000
00000000
00001000
00000000
00000000
00000000
01000000
00000000
00000000
01000000
00000000
00000000
01000000
00000000
,
00100000
00000000
01000000
00000000
00100000
00000000
00000000
00000000
10000000
00000000
00000000
10000000
00000000
00000000
10000000
00000000
,
01000000
00000000
00000000
00010000
00000000
00000000
00001000
00000000
00010000
00000000
00000000
00001000
00000000
00000000
00000100
00000000
,
00000010
00000000
00001001
00000000
00000000
00000010
00000100
00000000
,
00000010
00000000
00011000
00000000
00000000
00100000
01000000
00000000
,
10000000
00000000
10010000
00000000
00000000
00100000
01000000
00000000
,
00010000
00000000
00000000
10000000
00000000
00000000
01000000
00000000
00010000
00000000
00000000
00001000
00000000
00000000
00000010
00000000
,
00000001
00000000
00000110
00000000
00000000
00001000
00000001
00000000
,
00000100
00000000
00000110
00000000
00000000
00010000
00001000
00000000
,
01000000
00000000
10010000
00000000
00000000
00100000
01000000
00000000
,
10000000
00000000
00000000
00010000
00000000
00000000
01000000
00000000
00001000
00000000
00000000
00010000
00000000
00000000
00000010
00000000
,
00000100
00000000
00000010
00000000
00001000
00000000
00000000
00000000
00000100
00000000
00000000
00000100
00000000
00000000
00000100
00000000
,
00000010
00000000
00001000
00000000
00010000
00000000
00000000
00000000
00001000
00000000
00000000
00001000
00000000
00000000
00001000
00000000
,
01000000
00000000
00100000
00000000
10000000
00000000
00000000
00000000
00100000
00000000
00000000
00100000
00000000
00000000
00100000
00000000
,
01000000
00000000
00010000
00000000
10000000
00000000
00000000
00000000
01000000
00000000
00000000
01000000
00000000
00000000
01000000
00000000
,
00100000
00000000
00000000
00001000
00000000
00000000
00010000
00000000
00000010
00000000
00000000
00010000
00000000
00000000
00001000
00000000
,
01000000
00000000
00000000
00001000
00000000
00000000
00010000
00000000
00000100
00000000
00000000
00010000
00000000
00000000
00001000
00000000
,
00000100
00000100
00000000
00000010
00001000
00000100
00000110
00000000
,
00000001
00000000
00000000
00000010
00000000
00000000
00000100
00000000
00000000
00010000
00000000
00000000
01000000
00000000
00100000
00000000
,
00010000
10000000
01000000
10000000
00100000
01000000
00010000
00000000
,
00100000
00001000
00010000
00000100
00000010
00000001
00001000
00000000
,
00000010
00000100
00000001
00001000
00000100
00000010
00000100
00000000
,
00010000
00000000
00000000
00010000
00000000
00000000
00010000
00000000
00001000
00000000
00000000
00100000
00000000
00000000
01000000
00000000
,
00100000
00010000
10000000
00010000
01000000
00100000
10000000
00000000
,
01000000
00100000
01000000
00010000
00001000
00000010
00000100
00000000
,
00010000
00001000
00000100
00000010
00001000
00000100
00000010
00000000
,
00000001
00000000
00000000
00000001
00000000
00000000
00000001
00000000
00000010
00000000
00000000
00000100
00000000
00000000
00001000
00000000
,
00000010
00000100
00001000
00010000
01000000
10000000
00010000
00000000
,
01000000
00100000
10000000
00010000
00100000
01000000
00010000
00000000
,
00001000
00000010
00000001
00001000
00000010
00000100
00000001
00000000
,
00001000
00000000
00000000
00001000
00000000
00000000
00001000
00000000
00000100
00000000
00000000
00000010
00000000
00000000
00000001
00000000
,
00000010
00000100
00010000
00001000
00100000
00010000
01000000
00000000
,
00100000
01000000
00001000
00010000
00000010
00001000
00000100
00000000
,
00000010
00000001
00000100
00000010
00000100
00001000
00010000
00100000
,
02000000
00000000
00000000
00000000
00100000
00100000
03100000
00000000
,
00100000
00000000
00000000
10100000
00000000
00000000
01000000
00000000
00000000
01010000
00000000
00000000
00001000
00000000
00011000
00000000
,
00000010
00000000
00001000
00000100
00002000
00000000
00003001
00000000
,
00000010
00000000
00000000
00000011
00000000
00000000
00000100
00000000
00000000
00001100
00000000
00000000
00010000
00000000
00011000
00000000
,
00100000
00010000
00100000
00000000
01000000
10000000
01000000
00000000
,
00100000
00000000
00000000
10100000
00000000
00000000
01000000
00000000
00000000
01001000
00000000
00000000
00010000
00000000
00011000
00000000
,
00000010
00000000
00000100
00000010
00000200
00000000
00000301
00000000
,
00000010
00000000
00000000
00000011
00000000
00000000
00000100
00000000
00000000
00010100
00000000
00000000
00001000
00000000
00011000
00000000
,
02000000
00000000
00000000
03100000
,
20020000
00000000
00000000
00000000
,
00000000
00000000
00000000
00000000
,
30030000
00000000
00000000
00000000
,
00000000
00000000
00000000
00000000
,
00000000
00000000
00000000
00000000
,
00000000
00000000
00000000
00000000
,
10010000
10000000
01000000
00010000
,
00011000
00001000
00000100
00000001
,
00001001
00000010
00001001
00000010
,
00000100
00000000
00000000
00001000
00000000
00000000
00010000
00000000
00000000
00100000
00000000
00000000
10000000
00000000
01000000
00000000
,
00100000
01000000
00010000
00001000
00000100
00000001
00001000
00000000
,
00000100
00000010
00000001
00001000
00000010
00000100
00001000
00000000
,
00010000
00100000
10000000
00010000
00100000
01000000
10000000
00000000
,
00010000
00000000
00000000
00010000
00000000
00000000
00010000
00000000
01000000
00000000
00000000
00100000
00000000
00000000
10000000
00000000
,
00100000
01000000
00001000
00010000
00000010
00001000
00000100
00000000
,
00000010
00000100
00010000
00001000
00100000
00010000
01000000
00000000
,
00100000
10000000
01000000
00100000
01000000
00010000
00001000
00000010
,
00000200
00000000
00000000
00000000
00000010
00000010
00000310
00000000
,
00000010
00000000
00000000
00000011
00000000
00000000
00000100
00000000
00000000
00001100
00000000
00000000
00010000
00000000
00011000
00000000
,
00100000
00000000
00010000
01000000
00020000
00000000
10030000
00000000
,
00100000
00000000
00000000
10100000
00000000
00000000
01000000
00000000
00000000
01010000
00000000
00000000
00001000
00000000
00011000
00000000
,
00000010
00001000
00000010
00000000
00000100
00000001
00000100
00000000
,
00000010
00000000
00000000
00000011
00000000
00000000
00000100
00000000
00000000
00010100
00000000
00000000
00001000
00000000
00011000
00000000
,
00100000
00000000
01000000
00100000
02000000
00000000
13000000
00000000
,
00100000
00000000
00000000
10100000
00000000
00000000
01000000
00000000
00000000
01001000
00000000
00000000
00010000
00000000
00011000
00000000
,
00000200
00000000
00000000
00000310
,
00000000
00000000
00000000
00000000
;
#NOTES:
     dance-double:
     :
     Challenge:
     15:
     :
00000000
00000000
00000000
00000000
,
00000000
00000000
00000000
00000000
,
00000000
00000000
00000000
00000000
,
00000000
00000000
00000000
00000000
,
00000000
00000000
00000000
00000000
,
00001001
00000100
00000000
00000100
,
00000000
00001000
00000000
00001000
,
00000000
00010000
00000000
00010000
,
00000000
01000000
00000000
01000000
,
10000000
00010000
00000000
00010000
,
00000000
01000000
00000000
01000000
,
00100000
00000000
01000000
00000000
00000000
00100000
00010000
00002000
,
00000000
00003200
00000000
00000320
00000000
00002030
00000000
00003001
,
00000010
00000000
00000100
00000000
00000010
00000100
00000010
00000000
00000001
00000100
00000000
00000001
00000000
00000000
00000001
00000000
,
00000100
00000000
00001000
00000000
00010000
00001000
00010000
00000000
00000010
00001000
00000000
00000010
00000000
00000000
00000010
00000000
,
00010000
00000000
00001000
00000000
00010000
01000000
00010000
00000000
01000000
00100000
00000000
01000000
00000000
00000000
01000000
00000000
,
00100000
00000000
00001000
00000000
01000000
00010000
01000000
00000000
00100000
10000000
00000000
00100000
00000000
00000000
00100000
00000000
,
00010000
00000000
00100000
00000000
01000000
00100000
01000000
00000000
10000000
01000000
00000000
00010000
00000000
00000000
00001000
00000000
,
00010000
00000000
00001000
00000000
00000010
00000100
00000010
00000000
00000001
00001000
00000000
00000100
00000000
00000000
00000010
00000000
,
00000001
00000000
00001000
00000000
00000010
00000100
00000010
00000000
00010000
00001000
00000000
00010000
00000000
00000000
00010000
00000000
,
01000000
00000000
00000000
00100000
00000000
00000000
00010000
00000000
01000000
00000000
00000000
00100000
00000000
00000000
10000000
00000000
,
00010000
00100000
10010000
00000000
00000000
00100000
01000000
00000000
,
00100000
00001000
00011000
00000000
00000000
00000010
00000100
00000000
,
00000001
00001000
00001001
00000000
00000000
00000010
00000100
00000000
,
00001000
00000000
00000000
00000001
00000000
00000000
00000100
00000000
00001000
00000000
00000000
00010000
00000000
00000000
00100000
00000000
,
10000000
01000000
01100000
00000000
00000000
00010000
10000000
00000000
,
01000000
00010000
01100000
00000000
00000000
00001000
00010000
00000000
,
00000100
00000010
00001001
00000000
00000000
00000010
00000100
00000000
,
00000001
00000000
00000000
00001000
00000000
00000000
00000100
00000000
00010000
00000000
00000000
00001000
00000000
00000000
00100000
00000000
,
01000000
00000000
00100000
00000000
00010000
00100000
00010000
00000000
01000000
00000000
00000000
01000000
00000000
00000000
01000000
00000000
,
00100000
00000000
00010000
00000000
00001000
00010000
00001000
00000000
00010000
00000000
00000000
00010000
00000000
00000000
00010000
00000000
,
00000100
00000000
00000010
00000000
00000001
00001000
00000001
00000000
00000010
00000000
00000000
00000010
00000000
00000000
00000010
00000000
,
00000100
00000000
00001000
00000000
00000001
00000100
00000001
00000000
00000100
00000000
00000000
00000100
00000000
00000000
00000100
00000000
,
00000020
00000000
00000000
00020030
00000000
00000000
00230000
00000000
20300000
00000000
00000000
30200000
00000000
00000000
00320000
00000000
,
00030020
00000000
00000000
00020030
00000000
00000000
00230000
00000000
20300000
00000000
00000000
30200000
00000000
00000000
00310000
00000000
,
00001000
00001000
00000000
00100000
00010000
01000000
01100000
00000000
,
10000000
00000000
00000000
01000000
00000000
00000000
00010000
00000000
00000000
00001000
00000000
00000000
00000100
00000000
00000001
00000000
,
00001000
00000000
00000001
00000100
00000000
00000010
00000100
00000000
00000001
00000010
00000000
00000100
00010000
00000000
00001000
00010000
,
00001000
00000000
00100000
00010000
00000000
01000000
00100000
00000000
10000000
00010000
00000000
00100000
00001000
00000000
00010000
01000000
,
00010000
00000000
01000000
00100000
00000000
00010000
01000000
00000000
00001000
00010000
00000000
00000010
00001000
00000000
00000100
00000010
,
00000100
00000000
00000000
00000100
00000000
00000000
00000100
00000000
00001000
00000001
00001000
00000001
00000000
00000100
00000010
00000000
,
00010000
00000000
00001000
00100000
00000000
01000000
00100000
00000000
00010000
10000000
00000000
00100000
01000000
00000000
00010000
01000000
,
00010000
00000000
00100000
01000000
00000000
00010000
00001000
00000000
00000010
00000100
00000000
00001000
00000001
00000000
00000010
00000001
,
00000010
00000000
00000100
00001000
00000000
00000001
00000100
00000000
00000010
00000100
00000000
00001000
00010000
00000000
00001000
00010000
,
00001000
00000000
00000000
00001000
00000000
00000000
00001000
00000000
01000000
00100000
01000000
00100000
00000000
10000000
01000000
00000000
,
00100000
00000000
01000000
10000000
00000000
00010000
01000000
00000000
00100000
01000000
00000000
00001000
00010000
00000000
00000010
00001000
,
00000010
00000000
00000100
00000010
00000000
00001000
00000100
00000000
00000010
00000100
00000000
00001000
00000001
00000000
00000100
00000010
,
00000100
00000000
00000010
00010000
00000000
00001000
00010000
00000000
00001000
00100000
00000000
01000000
10000000
00000000
00010000
01000000
,
00010000
00000000
00000000
00010000
00000000
00000000
00010000
00000000
01000000
00100000
01000000
00100000
00000000
10000000
00010000
00000000
,
10000000
00000000
01000000
00100000
00000000
00001000
00010000
00000000
00000010
00001000
00000000
00000001
00000100
00000000
00000010
00000100
,
00000010
00000000
00000100
00000001
00000000
00001000
00000010
00000000
00010000
00001000
00000000
00100000
00010000
00000000
01000000
00100000
,
01000000
00000000
00010000
01000000
00000000
01000000
00100000
00000000
00100000
10000000
00000000
10000000
01000000
00000000
00010000
00000000
,
00022000
00000000
00003000
00000000
00001000
00001000
00031000
00000000
,
00001010
00000000
00000000
00011000
00000000
00000000
00001100
00000000
00000000
00011000
00000000
00000000
00110000
00000000
01100000
00000000
,
00100000
00000000
00010000
00000000
01000000
00010000
01000000
00000000
00010000
00000000
00000000
10000000
00000000
00000000
00010000
00000000
,
00110000
00000000
00000000
00011000
00000000
00000000
01010000
00000000
00000000
00011000
00000000
00000000
00001010
00000000
00000110
00000000
,
00000010
00000000
00001000
00000000
00000100
00001000
00000100
00000000
00001000
00000000
00000000
00000001
00000000
00000000
00001000
00000000
,
00001010
00000000
00000000
00001100
00000000
00000000
00011000
00000000
00000000
01010000
00000000
00000000
10010000
00000000
11000000
00000000
,
00100000
00000000
01000000
00000000
00100000
00010000
00100000
00000000
01000000
00000000
00000000
10000000
00000000
00000000
00010000
00000000
,
00110000
00000000
00000000
01010000
00000000
00000000
00011000
00000000
00000000
00001100
00000000
00000000
00001001
00000000
00000101
00000000
,
00000020
00000000
00000000
00000130
,
00002002
00000000
00000000
00000000
,
00000000
00000000
00000000
00000000
,
00003003
00000000
00000000
00000000
,
00000000
00000000
00000000
00000000
,
00000000
00000000
00000000
00000000
,
00000000
00000000
00000000
00000000
,
00001001
00000001
00001000
00010000
,
00011000
00001000
00010000
10000000
,
10010000
00100000
10010000
00100000
,
01000000
00000000
00000000
00010000
00000000
00000000
00001000
00000000
00000000
00000010
00000000
00000000
00000001
00000000
00000100
00000000
,
00000010
00000000
00000100
00000001
00000000
00001000
00000100
00000000
00000010
00000100
00000000
00010000
00001000
00000000
00100000
00010000
,
00100000
00000000
01000000
00100000
00000000
00010000
01000000
00000000
00100000
01000000
00000000
00010000
10000000
00000000
01000000
00100000
,
01000000
00000000
00100000
00001000
00000000
00010000
00001000
00000000
00010000
00000010
00000000
00000100
00000001
00000000
00001000
00000100
,
00001000
00000000
00000000
00001000
00000000
00000000
00001000
00000000
00000100
00000010
00000100
00000010
00000000
00000001
00001000
00000000
,
00000001
00000000
00000100
00000010
00000000
00010000
00001000
00000000
00100000
00010000
00000000
10000000
01000000
00000000
00100000
01000000
,
00100000
00000000
01000000
10000000
00000000
00010000
00100000
00000000
00001000
00010000
00000000
00000010
00001000
00000000
00000100
00000010
,
00000100
00000000
00001000
00000100
00000000
00000100
00000010
00000000
00000010
00000001
00000000
00000001
00000100
00000000
00001000
00000000
,
00022000
00000000
00030000
00000000
00010000
00010000
00013000
00000000
,
00110000
00000000
00000000
00011000
00000000
00000000
01010000
00000000
00000000
00011000
00000000
00000000
00001010
00000000
00000110
00000000
,
00000010
00000000
00001000
00000000
00000100
00001000
00000100
00000000
00001000
00000000
00000000
00000001
00000000
00000000
00001000
00000000
,
00001010
00000000
00000000
00011000
00000000
00000000
00001100
00000000
00000000
00011000
00000000
00000000
00110000
00000000
01100000
00000000
,
00100000
00000000
00010000
00000000
01000000
00010000
01000000
00000000
00010000
00000000
00000000
10000000
00000000
00000000
00010000
00000000
,
00110000
00000000
00000000
01010000
00000000
00000000
00011000
00000000
00000000
00001100
00000000
00000000
00001001
00000000
00000101
00000000
,
00000010
00000000
00000100
00000000
00000010
00001000
00000010
00000000
00000100
00000000
00000000
00000001
00000000
00000000
00001000
00000000
,
00001010
00000000
00000000
00001100
00000000
00000000
00011000
00000000
00000000
01010000
00000000
00000000
10010000
00000000
11000000
00000000
,
00200000
00000000
00000000
01300000
,
00000000
00000000
00000000
00000000
;
