
//----- song ID: dids -----//
#TITLE:Diamond Dust;
#ARTIST:TAG;
#BANNER:Diamond Dust.png;
#BACKGROUND:Diamond Dust-bg.png;
#CDTITLE:./CDTitles/REFLEC BEAT.png;
#MUSIC:Diamond Dust.ogg;
#SAMPLESTART:17.86;
#SAMPLELENGTH:15;
#BPMS:0=148;
#NOTES:
     dance-single:
     :
     Beginner:
     1:
     :
0000
0000
0000
0000
,
0000
0000
0000
0000
,
0000
0000
0000
0000
,
0000
0000
0000
0000
,
0000
0000
0000
0000
,
0001
0000
0000
0000
,
1000
0000
0000
0000
,
0001
0000
0001
0000
,
0001
0000
0000
0000
,
1000
0000
0000
0000
,
1001
0000
0000
0000
,
1000
0000
1000
0000
,
1000
0000
0000
0000
,
0001
0000
0001
0000
,
0001
0000
0000
0000
,
0100
0000
0100
0000
,
0100
0000
0000
0000
,
1000
0000
1000
0000
,
0001
0000
0001
0000
,
1000
0000
1000
0000
,
1000
0000
0000
0000
,
0001
0000
0001
0000
,
0001
0000
0000
0000
,
0100
0000
0100
0000
,
0100
0000
0000
0000
,
0010
0000
0010
0000
,
0010
0000
0000
0000
,
1000
0000
0000
0000
,
0100
0000
0000
0000
,
0001
0000
0000
0000
,
0100
0000
0000
0000
,
1000
0000
1000
0000
,
1000
0000
0000
0000
,
0001
0000
0001
0000
,
0001
0000
0000
0000
,
0100
0000
0000
0000
,
0000
0000
0000
0000
,
0100
0000
0000
0000
,
0000
0000
0000
0000
,
0010
0000
0000
0000
,
0000
0000
0000
0000
,
0010
0000
0000
0000
,
0000
0000
0000
0000
,
1000
0000
1000
0000
,
1000
0000
0000
0000
,
0001
0000
0001
0000
,
0001
0000
0000
0000
,
0100
0000
0100
0000
,
0100
0000
0000
0000
,
0100
0000
0000
0000
,
0000
0000
0000
0000
,
0001
0000
0001
0000
,
0001
0000
0001
0000
,
1000
0000
1000
0000
,
1000
0000
0000
0000
,
0100
0000
0100
0000
,
0100
0000
0000
0000
,
0010
0000
0010
0000
,
0010
0000
0000
0000
,
1001
0000
0000
0000
,
0000
0000
0000
0000
;
#NOTES:
     dance-single:
     :
     Easy:
     5:
     :
0000
0000
0000
0000
,
0000
0000
0000
0000
,
0000
0000
0000
0000
,
0000
0000
0000
0000
,
0000
0000
0000
0000
,
0010
0000
0010
0000
,
0100
0000
0100
0000
,
0001
0000
0001
0000
,
1000
0000
1000
0000
,
0001
1000
0001
1000
,
2002
0000
0000
3003
,
1000
1000
0100
0000
,
1000
0100
1000
1000
,
0001
0001
0100
0001
,
0010
0100
0001
0000
,
1000
1000
0100
0010
,
0001
0001
0001
0000
,
1000
1000
0100
0010
,
0001
0010
0100
0000
,
0001
0001
0100
0000
,
0001
0100
0001
0001
,
1000
1000
0100
1000
,
0010
0100
1000
0000
,
0001
0010
0100
1000
,
0001
0001
0001
0000
,
0001
0010
0100
1000
,
2002
0000
0000
3003
,
1000
0001
0000
0001
,
0000
0010
0000
0010
,
0100
0001
0000
0001
,
0000
0010
0000
0010
,
1000
0001
1000
0010
,
0100
0001
0100
0001
,
1000
0100
0001
0100
,
1000
0000
0000
0000
,
0002
0000
0000
0003
,
0002
0000
0000
0003
,
0002
0000
0000
0003
,
0002
0000
0000
0003
,
2000
0000
0000
3000
,
2000
0000
0000
3000
,
2000
0000
0000
3000
,
2000
0000
0000
3000
,
1000
1000
0100
0000
,
1000
0100
1000
1000
,
0001
0001
0100
0001
,
0010
0100
0001
0000
,
0010
0010
0100
0001
,
0010
0010
0100
0000
,
0220
0000
0000
0000
,
0330
0000
0000
0000
,
0001
0100
0001
0001
,
0100
0010
0100
0010
,
1000
0100
1000
1000
,
0100
0100
0010
0000
,
1000
1000
0100
0010
,
0001
0001
0001
0000
,
1000
1000
0100
0010
,
0002
0000
0000
0003
,
2002
0000
0000
3003
,
0000
0000
0000
0000
;
#NOTES:
     dance-single:
     :
     Medium:
     7:
     :
0000
0000
0000
0000
,
0000
0000
0000
0000
,
0000
0000
0000
0000
,
0000
0000
0000
0000
,
0000
0000
0000
0000
,
0002
0013
1000
0100
,
0002
1003
0100
0010
,
2000
3100
0001
0010
,
2000
3001
0010
0100
,
0020
0000
0130
0000
0001
1000
0001
0000
,
1001
0000
0000
1001
0000
0000
1001
0000
,
1000
0000
0100
0000
0010
0001
0000
0000
,
0100
0000
0010
0001
0000
0000
1001
0000
,
0100
0010
1000
0100
,
1000
0001
1001
0000
,
0100
0001
1000
0001
,
1001
1010
1100
0000
,
0010
0001
1000
0001
,
1001
0101
0011
0000
,
0001
0000
0010
0000
0100
1000
0000
0000
,
0010
0000
0100
1000
0000
0000
1001
0000
,
0010
0100
0001
0010
,
1001
0100
0100
0100
,
0010
1000
0001
1000
,
1001
0101
0011
0000
,
1000
0000
0010
0010
0000
0100
0000
2002
,
0000
0000
0000
3003
,
0000
0000
0010
0200
0000
0000
0000
0000
,
0301
0000
1000
0100
,
0001
0000
0010
0200
0000
0000
0000
0000
,
1300
0000
0001
0100
,
1000
0000
1100
0000
0001
0010
0001
0000
,
0100
0010
1000
0100
,
0001
0000
1000
0000
0100
0010
0100
0010
,
0100
0000
0000
0000
,
2200
0000
0000
3000
,
0020
0000
0000
0330
,
0022
0000
0000
0030
,
2000
0000
0000
3003
,
0200
0000
0000
0300
,
0020
0000
0000
0030
,
2000
0000
0000
3000
,
0002
0000
0000
0003
,
0101
0010
1000
0001
,
0011
1000
0001
0110
,
0101
1000
0010
0100
,
1010
0010
0100
0100
,
1100
0001
0100
0010
,
0110
0100
0010
0010
,
1001
0000
1000
0000
0001
0000
0010
0100
,
0000
1000
0000
0001
0000
0010
0000
1001
,
0000
0100
0010
0000
1000
0000
0001
0000
,
0100
0000
0010
1000
0000
0000
1001
0000
,
0000
0001
0010
0000
0001
0000
1000
0000
,
0010
0101
1001
0010
,
0100
1010
0100
0011
,
1001
1010
1100
0000
,
1001
0000
0100
0100
0000
0010
0000
2020
,
0000
0000
0000
3030
,
0100
0000
0010
0001
0000
2000
0000
0000
,
0000
0000
0000
0000
,
3000
0000
0000
0000
,
0000
0000
0000
0000
;
#NOTES:
     dance-single:
     :
     Hard:
     10:
     :
0000
0000
0000
0000
,
0000
0000
0000
0000
,
0000
0000
0000
0000
,
0000
0000
0000
0000
,
0000
0000
0000
0000
,
0020
0000
0000
1000
0000
0000
1030
0000
0000
0001
0000
0000
0100
0000
0010
0000
,
2000
0000
0000
0001
0000
0000
3001
0000
0000
0100
0000
0000
0010
0000
1000
0000
,
0002
0000
0000
0100
0000
0000
0103
0000
0000
0010
0000
0000
1000
0000
0001
0000
,
0200
0000
0000
0010
0000
0000
0310
0000
0000
1000
0000
0000
0001
0000
1000
0000
,
0020
1000
0230
0001
,
0310
0000
0000
1000
0000
0000
0001
0000
0000
0100
0000
0000
0010
0000
1001
0000
,
0000
0100
1000
0001
0010
0100
0000
0100
,
1000
0001
0010
0100
0000
0100
0100
0010
,
0000
0100
1000
0001
0010
0100
0010
0001
,
0000
0100
0000
1000
0000
0100
0100
0010
,
0001
0000
0010
0001
0000
0010
0000
1000
,
0000
0011
0000
2100
0000
0000
0000
0000
,
3001
0000
0010
0001
0000
0100
0001
0010
,
0000
0001
0000
0010
0000
0110
0000
1100
,
0000
1000
0100
0001
0100
1000
0000
1000
,
0100
0001
0100
1000
0000
0100
0100
0010
,
0000
1000
0100
0001
0010
0001
0100
0010
,
0000
0001
0000
0100
0000
0100
0100
0010
,
0001
0000
0010
0001
0000
0010
0000
1000
,
0000
0011
0000
2100
0000
0000
0000
0000
,
3001
0000
0010
0011
0000
0110
0000
2002
,
0000
0000
0000
3003
,
0100
0000
0010
0200
0000
0000
0000
0000
,
0301
0000
1000
0100
0000
0010
0001
1000
,
0100
0000
0010
0200
0000
0000
0000
0000
,
1300
0000
1000
0001
0000
1000
0100
0010
,
0001
0000
0010
0200
0000
0000
0000
0000
,
1300
0000
0000
0101
0000
0000
1010
0000
,
2010
3001
0012
1003
,
1001
0000
0010
0100
0000
1000
0000
0001
,
2002
3000
1000
1003
,
2020
0030
0010
3010
,
0202
0003
0001
0301
,
0220
0300
0100
0130
,
0010
0202
0000
0303
,
1000
0220
0000
0330
,
0001
2200
0000
3300
,
1001
0000
0000
0000
0010
0000
0010
0110
,
0000
0100
1000
0001
0010
0100
0000
0100
,
1000
0001
0010
0100
0000
0100
0100
0010
,
0000
0100
1000
0001
0010
0100
0010
0001
,
0000
0100
0000
1000
0000
0100
0100
0010
,
0001
0000
0010
0001
0000
0010
0000
1000
,
0000
0011
0000
2100
0000
0000
0000
0000
,
3001
0000
0010
0001
0000
0100
0001
0011
,
0000
0110
0000
1100
0000
1010
0000
0101
,
0000
0001
0100
1000
0100
0001
0000
0001
,
0100
1000
0100
0001
0000
0100
0100
0010
,
0000
0001
0100
1000
0010
1000
0100
0010
,
0000
1000
0000
0100
0000
0100
0100
0010
,
0001
0000
0010
0001
0000
0010
0000
1000
,
0000
0011
0000
2100
0000
0000
0000
0000
,
3001
0000
0011
0011
0000
0110
0000
2002
,
0000
0000
0000
3003
,
0110
0000
0001
0011
0000
2200
0000
0000
,
0000
0000
0000
0000
,
3300
0000
0000
0000
,
0000
0000
0000
0000
;
#NOTES:
     dance-single:
     :
     Challenge:
     13:
     :
0000
0000
0000
0000
,
0000
0000
0000
0000
,
0000
0000
0000
0000
,
0000
0000
0000
0000
,
0000
0000
0000
0000
,
0001
0100
0000
0010
1000
0000
0001
0100
0000
0010
1000
0000
0001
0000
0001
0000
,
1000
0010
0000
0100
0001
0000
1000
0010
0000
0100
0001
0000
1000
0000
MMMM
0000
,
0010
0001
0000
1000
0100
0000
0010
0001
0000
1000
0100
0000
0010
0000
0010
0000
,
0001
1000
0000
0010
0100
0000
0001
1000
0000
0010
0100
0000
0010
0000
MMMM
0000
,
0001
1000
0000
0001
1000
0000
0001
1000
0000
0001
1000
0000
0001
0000
1000
0000
,
1100
0000
0000
0101
0000
0000
0011
0000
0000
1010
0000
0000
0110
0000
1001
0000
,
0000
0000
0010
0000
0001
0000
1000
0100
1000
0000
0010
0000
0000
0000
0010
0000
,
1000
0000
0001
0100
0001
0000
0010
0000
0000
0000
0100
0000
MMMM
0000
0010
0000
,
0000
0000
0010
0000
1000
0000
0001
1000
0001
0000
0010
0000
0100
0000
1100
0000
,
0000
MMMM
0000
0011
0000
0010
0010
0100
,
0010
0000
0010
0001
0000
MMMM
0000
1010
,
0000
MMMM
0000
0202
0000
0000
0303
0000
,
1000
0000
0010
0100
0000
0010
0001
0100
,
0000
1010
0000
0011
0000
0101
0000
1100
,
0000
0000
0001
0000
0010
0000
0100
1000
0100
0000
1000
0000
0000
0000
1000
0000
,
0010
0000
0100
0001
0100
0000
0001
0000
0000
0000
0010
0000
MMMM
0000
0100
0000
,
0000
0000
0001
0000
1000
0000
0010
0100
0010
0000
1000
0000
0100
0000
0011
0000
,
0000
MMMM
0000
1100
0000
0001
0001
1000
,
0001
0000
0001
1000
0000
MMMM
0000
0011
,
0000
MMMM
0000
2200
0000
0000
3300
0000
,
1000
0000
0001
0100
0010
0000
0110
0000
0000
0000
MMMM
0000
0000
0000
2002
0000
,
0000
0000
0000
3003
,
0010
1000
0100
0002
0000
0000
0000
0000
,
0103
1000
0010
0100
0000
MMMM
0000
0100
,
1000
0100
0001
0020
0000
0000
0000
0000
,
0031
0100
1000
0010
0000
MMMM
0000
0010
,
0100
0000
0001
0000
0100
0000
0010
0000
0000
1000
0001
0000
MMMM
0000
0010
0000
,
1000
0000
0100
0000
1000
0000
0010
0000
0000
1000
0001
0000
MMMM
0000
0000
0000
,
0102
0100
1003
0000
2100
0100
3001
0000
,
1001
0000
0010
0100
0000
MMMM
0000
0001
,
2002
0000
3003
MMMM
0001
0000
1000
0000
,
0202
0000
0303
MMMM
0010
0000
0100
0000
,
2020
0000
3030
MMMM
1000
0000
0001
0000
,
0220
0000
0330
MMMM
0010
0000
0010
0000
,
MMMM
2020
0000
3030
,
MMMM
0220
0000
0330
,
MMMM
0022
0000
0033
,
1001
0000
0000
0000
0100
0000
0100
0100
,
0000
0000
0010
0000
1000
0000
0001
0100
0001
0000
0010
0000
0000
0000
0010
0000
,
0001
0000
1000
0100
1000
0000
0010
0000
0000
0000
0100
0000
MMMM
0000
0010
0000
,
0000
0000
0010
0000
0001
0000
1000
0001
1000
0000
0010
0000
0100
0000
0101
0000
,
0000
MMMM
0000
1010
0000
0010
0010
0100
,
0010
0000
0010
1000
0000
MMMM
0000
0011
,
0000
MMMM
0000
2200
0000
0000
3300
0000
,
0001
0000
0010
0100
0000
0010
0001
0100
,
0000
0011
MMMM
1010
MMMM
1100
MMMM
0101
,
0000
0000
1000
0000
0010
0000
0100
0001
0100
0000
0001
0000
0000
0000
0001
0000
,
0010
0000
0100
1000
0100
0000
1000
0000
0000
0000
0010
0000
MMMM
0000
0100
0000
,
0000
0000
1000
0000
0001
0000
0010
0100
0010
0000
0001
0000
0100
0000
1010
0000
,
0000
MMMM
0000
0101
0000
1000
1000
MMMM
,
1000
0000
1000
0001
0000
MMMM
0000
1010
,
0000
MMMM
0000
0202
0000
0000
0303
0000
,
0001
0000
1000
0100
0010
0000
0110
0000
MMMM
0000
0101
0000
MMMM
0000
2002
0000
,
0000
0000
0000
3003
,
0110
MMMM
0101
1010
MMMM
2002
0000
0000
,
0000
0000
0000
0000
,
3003
0000
0000
0000
,
0000
0000
0000
0000
;
#NOTES:
     dance-double:
     :
     Easy:
     5:
     :
00000000
00000000
00000000
00000000
,
00000000
00000000
00000000
00000000
,
00000000
00000000
00000000
00000000
,
00000000
00000000
00000000
00000000
,
00000000
00000000
00000000
00000000
,
00010000
00000000
01000000
00000000
,
10000000
00000000
01000000
00000000
,
00010000
00000000
00001000
00000000
,
00000100
00000000
00000001
00000000
,
00000100
00000000
00001000
00000000
,
00022000
00000000
00000000
00033000
,
00010000
01000000
10000000
00000000
,
10000000
01000000
00010000
00000000
,
00001000
00000100
00000001
00000100
,
00000010
00000010
00000100
00000000
,
00000001
00000100
00001000
00010000
,
00001000
00010000
01000000
00000000
,
00010000
01000000
10000000
01000000
,
00010000
00001000
00010000
00000000
,
00001000
00000100
00000001
00000000
,
00000001
00000100
00001000
00000000
,
00010000
01000000
10000000
01000000
,
00100000
00100000
01000000
00000000
,
10000000
01000000
00010000
00001000
,
00010000
00001000
00000100
00000000
,
00000220
00000000
00000000
00000000
,
00000330
00000000
00000000
00000000
,
00000001
00001000
00000000
00001000
,
00000000
00000010
00000000
00000010
,
00010000
00001000
00000000
00001000
,
00000000
01000000
00000000
01000000
,
00100000
10000000
00100000
10000000
,
00010000
01000000
00010000
01000000
,
00001000
00010000
00001000
00010000
,
00011000
00000000
00000000
00000000
,
00000200
00000000
00000000
00000300
,
00000002
00000000
00000000
00000003
,
00000020
00000000
00000000
00000030
,
00002000
00000000
00000000
00003000
,
00020000
00000000
00000000
00030000
,
02000000
00000000
00000000
03000000
,
20000000
00000000
00000000
30000000
,
00200000
00000000
00000000
00300000
,
00010000
01000000
10000000
00000000
,
10000000
01000000
00010000
00000000
,
00001000
00000100
00000001
00000100
,
00000010
00000010
00000100
00000000
,
00001000
00000100
00000001
00000000
,
00000001
00000100
00001000
00000000
,
00022000
00000000
00000000
00000000
,
00033000
00000000
00000000
00000000
,
00010000
01000000
10000000
01000000
,
10000000
01000000
00010000
00000000
,
00001000
00000100
00000001
00000100
,
00000010
00000100
00000010
00001000
,
00000001
00000100
00001000
00010000
,
00001000
00010000
01000000
00000000
,
10000000
00000000
01000000
00000000
00010000
00000000
00001000
00002000
,
00000000
00000000
00000000
00003000
,
00022000
00000000
00000000
00033000
,
00000000
00000000
00000000
00000000
;
#NOTES:
     dance-double:
     :
     Medium:
     8:
     :
00000000
00000000
00000000
00000000
,
00000000
00000000
00000000
00000000
,
00000000
00000000
00000000
00000000
,
00000000
00000000
00000000
00000000
,
00000000
00000000
00000000
00000000
,
00020000
00000010
00030200
00000010
,
00002300
00000001
00003020
00000001
,
00020030
00001000
00030200
00001000
,
00020300
00100000
00032000
00100000
,
02003000
10000000
03200000
10000000
,
01300000
00000000
00000000
00100000
00000000
00000000
10010000
00000000
,
01000000
00000000
00010000
00000000
00100000
01000000
00100000
00000000
,
10000000
00000000
00100000
01000000
00100000
00000000
00010000
00000000
,
00001000
00000000
00000100
00000010
00000100
00000000
00000001
00000000
,
00000100
00001000
00000001
00001001
,
00000100
00000000
00001000
00010000
00001000
00000000
00010000
00000000
,
00011000
00101000
02002000
03003000
,
00010000
00000000
01000000
00100000
01000000
00000000
00010000
00000000
,
10010000
10100000
22000000
33000000
,
10000000
00000000
01000000
00000000
00010000
01000000
10000000
00000000
,
01000000
00000000
00010000
01000000
10000000
00000000
01000000
00000000
,
00010000
00000000
00001000
00000100
00000001
00000000
00000100
00000000
,
00000010
00001000
00000001
00001001
,
00000100
00000000
00001000
00010000
00001000
00000000
00010000
00000000
,
00011000
00101000
02002000
03003000
,
00100000
00000000
00010000
00010000
00000000
01000000
00000000
20020000
,
00000000
00000000
00000000
30030000
,
01000000
00000000
00100000
02000000
00000000
00000000
00000000
00000000
,
03000000
00000000
00000000
00010000
00000000
00100000
00001000
00010000
,
00000000
00000000
00000010
00000200
00000000
00000000
00000000
00000000
,
00000300
00000000
00000000
00001000
00000000
00000001
00000100
00000010
,
00000000
00000000
00000010
00000200
00000000
00000000
00000000
00000000
,
00001300
00000000
00000000
00010000
00000000
00000000
00001000
00000000
,
00100000
01000000
10000000
00010000
,
10010000
00000000
00000000
00000000
,
20200000
00000000
00000000
00300000
,
02000000
00000000
00000000
33000000
,
00220000
00000000
00000000
00300000
,
00002000
00000000
00000000
00033000
,
00000200
00000000
00000000
00000300
,
00000002
00000000
00000000
00000003
,
00000020
00000000
00000000
00000030
,
00002000
00000000
00000000
00003000
,
00011000
00100000
01000000
00100000
,
01010000
10000000
01000000
00100000
,
01001000
00010000
00001000
00010000
,
00001100
00000010
00001000
00000010
,
00000101
00000001
00000010
00000001
,
00000110
00001000
00010000
00001000
,
00110000
00000000
00010000
00000000
01000000
00000000
00100000
10000000
,
00000000
01000000
00000000
00010000
00000000
00001000
00000000
00011000
,
00000000
00001000
00010000
00000000
00001000
00010000
00000000
00000010
,
00000100
00000000
00000010
00000100
00000000
00000001
00000100
00001000
,
00000000
00100000
00010000
00000000
00100000
00010000
00000000
00100000
,
00000000
01000000
00000000
10000000
00000000
00000000
10010000
00000000
,
01000000
00000000
00100000
01000000
00000000
00100000
00000000
10000000
,
00000000
01000000
00000000
00020000
00000000
00000000
00030000
00000000
,
00001000
00000000
00010000
00001000
00000000
00000100
00000000
00000020
,
00000000
00000000
00000000
00000030
,
00000100
00000000
00000010
00000100
00000000
00002002
00000000
00000000
,
00000000
00000000
00000000
00000000
,
00003003
00000000
00000000
00000000
,
00000000
00000000
00000000
00000000
;
#NOTES:
     dance-double:
     :
     Hard:
     11:
     :
00000000
00000000
00000000
00000000
,
00000000
00000000
00000000
00000000
,
00000000
00000000
00000000
00000000
,
00000000
00000000
00000000
00000000
,
00000000
00000000
00000000
00000000
,
00000010
00000000
00000000
00000001
00000000
00000000
00000001
00000000
00000000
00000100
00000000
00000000
00001000
00000000
00010000
00000000
,
00100000
00000000
00000000
10000000
00000000
00000000
10000000
00000000
00000000
01000000
00000000
00000000
00010000
00000000
00001000
00000000
,
00000100
00000000
00000000
00000001
00000000
00000000
00000001
00000000
00000000
00000010
00000000
00000000
00001000
00000000
00010000
00000000
,
01000000
00000000
00000000
10000000
00000000
00000000
10000000
00000000
00000000
00100000
00000000
00000000
00010000
00000000
00001000
00000000
,
00020000
01000000
00032000
00000100
,
00013000
00000000
00000000
00001000
00000000
00000000
00000100
00000000
00000000
00000001
00000000
00000000
00000100
00000000
00000110
00000000
,
00000000
00000010
00010000
00001000
00000100
00000010
00000000
00000010
,
00010000
00001000
00000100
00000010
00000000
00000100
00000001
00000001
,
00000000
00000010
00010000
00001000
00000100
00000010
00000001
00000010
,
00000000
00000100
00000000
00001000
00000000
01000000
00010000
00100000
,
01000000
00000000
00100000
01000000
00000000
10000000
00000000
00010000
,
00000000
00101000
00000000
00021000
00000000
00000000
00000000
00000000
,
00031000
00000000
00000010
00000100
00000000
00000100
00000010
00000001
,
00000000
00000100
00000000
00000010
00000000
00010000
00000000
00011000
,
00000000
00010000
01000000
10000000
00100000
00010000
00000000
00001000
,
00000100
00000001
00000010
00001000
00000000
00010000
00001000
00010000
,
00000000
00010000
01000000
10000000
00100000
00010000
00001000
00000010
,
00000000
00000001
00000000
00000100
00000000
00000100
00000001
00000010
,
00001000
00000000
00000010
00001000
00000000
00000010
00000000
00001000
,
00000000
00010000
00000000
00012000
00000000
00000000
00000000
00000000
,
00103000
00000000
00010000
01010000
00000000
01100000
00000000
20020000
,
00000000
00000000
00000000
30030000
,
01000000
00000000
00100000
02000000
00000000
00000000
00000000
00000000
,
03010000
00000000
10000000
01000000
00000000
00100000
00010000
00001000
,
00000100
00000000
00000010
00000200
00000000
00000000
00000000
00000000
,
00001300
00000000
00000001
00001000
00000000
00000010
00000100
00001000
,
00010000
00000000
00100000
02000000
00000000
00000000
00000000
00000000
,
03010000
00000000
00000000
00101000
00000000
00000000
00010100
00000000
,
00002010
00003001
00000012
00000103
,
00001001
00000000
00000010
00000100
00000000
00000001
00000000
00001000
,
00002001
00000001
00000001
00003001
,
00001020
00001000
00001000
00001030
,
00020100
00000100
00000100
00030100
,
00012000
00010000
00010000
00013000
,
00100000
02020000
00000000
03030000
,
10000000
02200000
00000000
03300000
,
00010000
00202000
00000000
00303000
,
00010100
00000000
00000000
00000000
00001000
00000000
00000001
00001001
,
00000000
00000010
00010000
00001000
00000100
00000010
00000000
00000010
,
00010000
00001000
00000100
00000010
00000000
00000100
00000001
00000001
,
00000000
00000010
00010000
00001000
00000100
00000010
00000001
00000010
,
00000000
00000100
00000000
00001000
00000000
01000000
00010000
00100000
,
01000000
00000000
00100000
01000000
00000000
10000000
00000000
00010000
,
00000000
00101000
00000000
00021000
00000000
00000000
00000000
00000000
,
00031000
00000000
00000010
00000100
00000000
00000100
00000010
00000101
,
00000000
00001010
00000000
00010100
00000000
00101000
00000000
00011000
,
00000000
00010000
01000000
10000000
00100000
00020000
00000000
00031000
,
00000100
00000001
00000010
00002000
00000000
00013000
00001000
00010000
,
00000000
00010000
01000000
10000000
00100000
00010000
00001000
00000020
,
00000000
00000032
00000000
00000203
00000000
00000301
00000001
00000010
,
00001000
00000000
00000010
00001000
00000000
00000010
00000000
00001000
,
00000000
00010000
00000000
00012000
00000000
00000000
00000000
00000000
,
00103000
00000000
00010000
01010000
00000000
01100000
00000000
20020000
,
00000000
00000000
00000000
30030000
,
00100000
00000000
00001000
00011000
00000000
00020020
00000000
00000000
,
00000000
00000000
00000000
00000000
,
00030030
00000000
00000000
00000000
,
00000000
00000000
00000000
00000000
;
#NOTES:
     dance-double:
     :
     Challenge:
     13:
     :
00000000
00000000
00000000
00000000
,
00000000
00000000
00000000
00000000
,
00000000
00000000
00000000
00000000
,
00000000
00000000
00000000
00000000
,
00000000
00000000
00000000
00000000
,
00010000
01000000
00000000
00010000
01000000
00000000
00100000
10000000
00000000
00100000
10000000
00000000
01000000
00000000
00100000
00000000
,
00001000
00010000
00000000
00001000
00010000
00000000
00000010
00001000
00000000
00000010
00001000
00000000
00000001
00000000
MMMMMMMM
00000000
,
00000010
00000001
00000000
00000010
00000001
00000000
00001000
00000010
00000000
00001000
00000010
00000000
00010000
00000000
00000100
00000000
,
00010000
00001000
00000000
00010000
00001000
00000000
00100000
00010000
00000000
00100000
00010000
00000000
10000000
00000000
MMMMMMMM
00000000
,
10000000
01000000
00000000
01000000
00010000
00000000
00010000
00001000
00000000
00001000
00000100
00000000
00000001
00000000
00001000
00000000
,
00000011
00000000
00000000
00001001
00000000
00000000
00001100
00000000
00000000
00010100
00000000
00000000
00011000
00000000
00101000
00000000
,
00000000
00000000
00100000
00000000
00010000
00000000
10000000
01000000
10000000
00000000
00100000
00000000
00000000
00000000
01000000
00000000
,
00010000
00000000
00100000
00001000
00100000
00000000
00001000
00000000
00000000
00000000
00010000
00000000
MMMMMMMM
00000000
00001000
00000000
,
00000000
00000000
00000100
00000000
00000010
00000000
00000001
00000100
00000001
00000000
00000010
00000000
00000100
00000000
00001000
00000000
,
00000000
MMMMMMMM
00000000
00000101
00000000
00000010
00000100
00001000
,
00010000
00000000
00001000
00010000
00000000
MMMMMMMM
00000000
00110000
,
00000000
MMMMMMMM
00000000
22000000
00000000
00000000
33000000
00000000
,
00010000
00000000
00100000
01000000
00000000
00010000
00001000
00010000
,
00000000
00011000
00000000
00010010
00000000
00001010
00000000
00000110
,
00000000
00000000
00000010
00000000
00001000
00000000
00000001
00000100
00000001
00000000
00000010
00000000
00000000
00000000
00000100
00000000
,
00001000
00000000
00000010
00010000
00000010
00000000
00010000
00000000
00000000
00000000
00001000
00000000
MMMMMMMM
00000000
00010000
00000000
,
00000000
00000000
01000000
00000000
00100000
00000000
10000000
01000000
10000000
00000000
00100000
00000000
01000000
00000000
00010000
00000000
,
00000000
MMMMMMMM
00000000
11000000
00000000
00100000
01000000
00010000
,
00001000
00000000
00010000
00001000
00000000
MMMMMMMM
00000000
00001010
,
00000000
MMMMMMMM
00000000
00000202
00000000
00000000
00000303
00000000
,
00000010
00000000
00000001
00000100
00000001
00000000
00001001
00000000
00000000
00000000
MMMMMMMM
00000000
00000000
00000000
00022000
00000000
,
00000000
00000000
00000000
00033000
,
00001000
00010000
00100000
20000000
00000000
00010000
00000000
00010000
,
31000000
00100000
00010000
00001000
00000000
MMMMMMMM
00000000
00001000
,
00010000
00001000
00000100
00000002
00000000
00001000
00000000
00001000
,
00000013
00000100
00001000
00010000
00000000
MMMMMMMM
00000000
00001000
,
00010000
00000000
00001000
00000000
00100000
00000000
00010000
00000000
00000000
10000000
01000000
00000000
MMMMMMMM
00000000
00010000
00000000
,
00001000
00000000
00010000
00000000
00000010
00000000
00001000
00000000
00000000
00000001
00000100
00000000
MMMMMMMM
00000000
00000000
00000000
,
00001010
00010100
00101000
01010000
,
10010000
00000000
00100000
01000000
00000000
MMMMMMMM
00000000
10000000
,
20020000
00000000
30030000
MMMMMMMM
00100000
00000000
00001000
00000000
,
00022000
00000000
00033000
MMMMMMMM
00001000
00000000
00000010
00000000
,
00000220
00000000
00000330
MMMMMMMM
00000001
00000000
00001000
00000000
,
00002002
00000000
00003003
MMMMMMMM
00000010
00000000
00001000
00000000
,
MMMMMMMM
00202000
00000000
00303000
,
MMMMMMMM
20020000
00000000
30030000
,
MMMMMMMM
02002000
00000000
03003000
,
00011000
00000000
00000000
00000000
00011000
00000000
00010000
00000010
,
00001000
00000000
00000100
00000000
00001000
00000000
00000001
00000010
00000001
00000000
00000100
00000000
00000000
00000000
00000010
00000000
,
00001000
00000000
00000100
00010000
00000100
00000000
00010000
00000000
00000000
00000000
00001000
00000000
MMMMMMMM
00000000
00010000
00000000
,
00000000
00000000
00100000
00000000
01000000
00000000
10000000
00100000
10000000
00000000
01000000
00000000
00100000
00000000
00010000
00000000
,
00000000
MMMMMMMM
00000000
10100000
00000000
01000000
00100000
00010000
,
00001000
00000000
00010000
00001000
00000000
MMMMMMMM
00000000
00001100
,
00000000
MMMMMMMM
00000000
00000022
00000000
00000000
00000033
00000000
,
00001000
00000000
00000100
00000010
00000000
00000001
00001000
00000001
,
MMMMMMMM
00001010
MMMMMMMM
00001100
MMMMMMMM
00011000
MMMMMMMM
00101000
,
MMMMMMMM
00000000
01000000
00000000
00010000
00000000
10000000
00100000
10000000
00000000
01000000
00000000
00000000
00000000
00100000
00000000
,
00010000
00000000
01000000
00001000
01000000
00000000
00001000
00000000
00000000
00000000
00010000
00000000
MMMMMMMM
00000000
00001000
00000000
,
00000000
00000000
00000010
00000000
00000100
00000000
00000001
00000010
00000001
00000000
00000100
00000000
00000010
00000000
00001000
00000000
,
00000000
MMMMMMMM
00000000
00000011
00000000
00000100
00001000
MMMMMMMM
,
00010000
00000000
00001000
00010000
00000000
MMMMMMMM
00000000
01010000
,
00000000
MMMMMMMM
00000000
20200000
00000000
00000000
30300000
00000000
,
00010000
00000000
10000000
01000000
10000000
00000000
10010000
00000000
MMMMMMMM
00000000
01010000
00000000
MMMMMMMM
00000000
00202000
00000000
,
00000000
00000000
00000000
00303000
,
00011000
MMMMMMMM
00000110
00001100
MMMMMMMM
00002002
00000000
00000000
,
00000000
00000000
00000000
00000000
,
00003003
00000000
00000000
00000000
,
00000000
00000000
00000000
00000000
;
