
//----- song ID: cone -----//
#TITLE:コネクト;
#TITLETRANSLIT:Connect;
#BANNER:Connect.png;
#BACKGROUND:Connect-bg.png;
#CDTITLE:./CDTitles/DDR X3 VS 2ndMIX.png;
#MUSIC:Connect.ogg;
#SAMPLESTART:66.52;
#SAMPLELENGTH:15;
#BPMS:0=175;
#NOTES:
     dance-single:
     :
     Beginner:
     2:
     :
0000
0000
0000
0000
,
0000
0000
0000
0000
,
0000
0000
0000
0000
,
0000
0000
0000
0000
,
0000
0000
0000
0000
,
0000
0000
0000
0000
,
0000
0000
0000
0000
,
0000
0000
0000
0000
,
0000
0000
0000
0000
,
0001
0000
0000
0000
,
0000
0000
0000
0000
,
1000
0000
0000
0000
,
0000
0000
0000
0000
,
0001
0000
0000
0000
,
0000
0000
0000
0000
,
1000
0000
0000
0000
,
0000
0000
0000
0000
,
0001
0000
0000
0000
,
0001
0000
0000
0000
,
0001
0000
0001
0000
,
0001
0000
0000
0000
,
1000
0000
0000
0000
,
1000
0000
0000
0000
,
1000
0000
1000
0000
,
1000
0000
0000
0000
,
0001
0000
0000
0000
,
0001
0000
0000
0000
,
0001
0000
0001
0000
,
0001
0000
0000
0000
,
1000
0000
0000
0000
,
1000
0000
0000
0000
,
1000
0000
1000
0000
,
1000
0000
0000
0000
,
0020
0000
0000
0030
,
0000
0000
0000
0000
,
0200
0000
0000
0300
,
0000
0000
0000
0000
,
2000
0000
0000
3000
,
0000
0000
0000
0000
,
0002
0000
0000
0003
,
0000
0000
0000
0000
,
0020
0000
0000
0030
,
0000
0000
0000
0000
,
0200
0000
0000
0300
,
0000
0000
0000
0000
,
0001
0000
0000
0000
,
1000
0000
0000
0000
,
1001
0000
0000
0000
,
0000
0000
0000
0000
,
0001
0000
0001
0000
,
0001
0000
0000
0000
,
1000
0000
1000
0000
,
1000
0000
0000
0000
,
0001
0000
0001
0000
,
0001
0000
0000
0000
,
0100
0000
0000
0000
,
0010
0000
0000
0000
,
1000
0000
1000
0000
,
1000
0000
0000
0000
,
0001
0000
0001
0000
,
0001
0000
0000
0000
,
0010
0000
0000
0000
,
0100
0000
0000
0000
,
0010
0000
0000
0000
,
1000
0000
0000
0000
,
1001
0000
0000
0000
,
0000
0000
0000
0000
;
#NOTES:
     dance-single:
     :
     Easy:
     4:
     :
0000
0000
0000
0000
,
0000
0000
0000
0000
,
0000
0000
0000
0000
,
0000
0000
0000
0000
,
0000
0000
0000
0000
,
0000
0000
0000
0000
,
0000
0000
0000
0000
,
0000
0000
0000
0000
,
0000
0000
0000
0000
,
0001
0000
0001
0000
,
1000
0000
1000
0000
,
0001
0000
0001
0000
,
0100
0000
0000
0000
,
1000
0000
1000
0000
,
0001
0000
0001
0000
,
0100
0000
0100
0000
,
0010
0000
0000
0000
,
0002
0000
0000
0000
,
0003
0000
0000
0000
,
2000
0000
0000
0000
,
3000
0000
0000
0000
,
0200
0000
0000
0000
,
0300
0000
0000
0000
,
1000
0000
1000
0000
,
0001
0000
0001
0000
,
2000
0000
3000
0000
,
0200
0000
0300
0000
,
2000
0000
3000
0000
,
0002
0000
0003
0000
,
0100
0000
0001
0000
,
0100
0000
0000
0000
,
0010
0000
1000
0000
,
0010
0000
0000
0000
,
0001
0001
0001
0000
,
0001
0001
0001
0000
,
0100
0100
0100
0000
,
0100
0100
0100
0000
,
1000
1000
1000
0000
,
1000
1000
1000
0000
,
0100
0100
0100
0000
,
0020
0000
0030
0000
,
0001
0000
0001
0001
,
0001
0000
0100
0000
,
1000
0000
1000
1000
,
1000
0000
0001
0000
,
0100
0000
1000
0000
,
0100
0000
0001
0000
,
0020
0000
0030
0000
,
1001
0000
0000
0000
,
1000
0000
1000
0000
,
0001
0001
0100
0000
,
0001
0000
0001
0000
,
1000
1000
0100
0000
,
0001
0000
1000
0000
,
0001
1000
0001
0000
,
0200
0000
0000
0300
,
0020
0000
0000
0030
,
1000
0000
0001
0000
,
0100
0000
0000
0000
,
0010
0000
0000
0000
,
0010
0000
0010
0000
,
0010
0000
1000
1000
,
0100
0000
0001
0001
,
0100
0000
1000
0000
,
0001
0000
1000
0000
,
2002
0000
3003
0000
,
0000
0000
0000
0000
;
#NOTES:
     dance-single:
     :
     Medium:
     8:
     :
0000
0000
0000
0000
,
0000
0000
0000
0000
,
0000
0000
0000
0000
,
0000
0000
0000
0000
,
0000
0000
0000
0000
,
0000
0000
0000
0000
,
0000
0000
0000
0000
,
0000
0000
0000
0000
,
0000
0000
0000
0000
,
1000
0000
1000
0000
0001
0100
0000
0200
,
0000
0000
0310
0010
,
0001
0000
0001
0000
1000
0100
0000
0200
,
0000
0000
0300
0010
,
0100
0000
0100
0000
0010
0001
0000
0002
,
0000
0000
0013
0100
,
2000
0010
0010
3010
,
1100
0000
0011
0000
,
2002
0000
0000
3003
,
0200
0000
0000
0300
,
0020
0000
1000
0030
,
2000
0000
0000
3000
,
0002
0000
0000
0003
,
0020
0000
0000
0030
,
0001
0000
0010
0000
,
1000
0000
0100
0000
,
2002
0000
0000
3003
,
0200
0000
0000
0300
,
0020
0000
0001
0030
,
0200
0000
0000
0300
,
2000
0000
0100
3000
,
0002
0000
0010
0003
,
0100
0000
0001
1000
,
2002
0000
0000
3003
,
1000
0100
0001
0010
,
0100
0001
1000
0010
,
0001
0100
1000
0001
,
0100
0010
1000
1000
,
0100
0010
1000
0001
,
1000
0010
0001
0100
,
0010
0001
1000
0100
,
0001
1000
0010
0010
,
1000
0100
0001
0010
,
0100
0001
1000
0100
,
0010
1000
0001
0010
,
0100
0001
1000
1000
,
1100
0000
0000
0100
0000
0010
0000
0000
,
0101
0000
0000
0100
0000
0010
0000
0000
,
1001
0000
0000
0001
0000
1000
0000
0000
,
0220
0000
0330
0000
,
0010
0000
1000
0001
1000
0000
0001
0000
,
1000
0100
0001
0010
,
0100
1100
0100
0001
,
1000
0000
0001
0100
0000
0100
0001
0000
,
0100
0000
0010
0100
0010
0000
1000
0000
,
0001
0010
1000
0100
,
0002
0000
0200
0003
,
0320
0000
0100
0030
,
1000
0100
0001
0010
,
0100
0100
0000
0100
0000
0110
0000
1001
,
0000
0000
0000
0000
1000
0001
1000
0000
,
0001
0000
0010
0100
0000
0100
0010
0000
,
0100
1000
0001
1000
,
0100
0001
0010
1000
,
0100
0000
0010
0000
0001
1000
0001
1000
,
0200
0000
0310
0000
,
2002
0000
3003
0000
,
0000
0000
0000
0000
;
#NOTES:
     dance-single:
     :
     Hard:
     12:
     :
0000
0000
0000
0000
,
0000
0000
0000
0000
,
0000
0000
0000
0000
,
0000
0000
0000
0000
,
0000
0000
0000
0000
,
0000
0000
0000
0000
,
0000
0000
0000
0000
,
0000
0000
0000
0000
,
0000
0000
0000
0000
,
0110
0000
1001
0000
1000
0001
0010
0200
,
0000
1300
0001
0000
1000
0100
0010
0000
,
0001
0000
0101
0000
0100
0010
1000
0002
,
0000
0013
0100
0000
0010
0000
0100
1000
,
0010
0000
0101
0000
1000
0001
0100
0020
,
0000
0130
0001
0000
0100
0001
0010
0000
,
1001
0000
0001
1000
0001
1000
0001
1000
,
0020
0000
0230
0000
,
0302
0000
0000
0000
0100
0000
0000
0103
,
0010
0000
1000
0100
0000
0010
0000
0100
,
2000
0000
0000
0000
0100
0000
0000
3100
,
0010
0000
0001
0100
0000
0010
1000
0010
,
0200
0000
0000
0000
0001
0000
0000
0301
,
1000
0000
0100
0010
0000
0001
0000
0100
,
0020
0001
0230
1000
,
0310
0001
1000
0000
,
2001
0000
0100
0000
0010
0010
0000
3010
,
1000
0000
1000
0100
0000
0100
0010
0001
,
0200
0000
0010
0000
0001
0001
0000
0301
,
0100
0000
0100
0010
0000
1000
0100
0010
,
0002
0000
0100
0000
1000
1000
0000
1003
,
0001
1000
1100
0101
,
0001
0100
1000
0100
,
0020
0000
0130
0000
,
0001
0000
0101
0000
0100
0001
0100
0001
,
0010
0000
0011
0000
0001
0010
0001
0010
,
1000
0000
1010
0000
0010
1000
0010
1000
,
0100
0000
1100
0000
1000
0100
0001
0000
,
1000
0000
1100
0000
0100
1000
0100
1000
,
0010
0000
1010
0000
1000
0010
1000
0010
,
0001
0000
0011
0000
0010
0001
0010
0001
,
0100
0000
0110
0000
0001
0100
1000
0000
,
1000
0000
1001
0000
0001
0100
1000
0100
,
0001
0000
1001
0000
1000
0100
0010
0000
,
0100
0000
0110
0000
0001
0100
1000
0010
,
0001
0000
0110
0000
0001
0100
0010
0000
,
1100
0000
0010
0001
0000
0100
0001
0010
,
0011
0000
0100
1000
0000
0010
1000
0100
,
1100
0000
1000
0010
0100
0001
0010
0100
,
2002
0000
3003
0000
,
1100
0000
0010
0001
0100
0100
0010
0000
,
0100
0001
0100
0010
0000
0010
1000
0000
,
0101
0000
0010
1000
0100
0100
0010
0000
,
0100
1000
0100
0010
0000
1000
0100
1000
,
0100
0000
0001
0010
0100
0100
0010
0000
,
1000
0100
0010
0001
0000
0010
0100
0000
,
1200
0000
0010
0000
0301
0100
1000
0020
,
0000
0100
0130
0000
0001
0100
0010
1000
,
1100
0000
1000
0100
0001
0100
0100
1000
,
0001
0100
0001
0000
0000
0000
0110
0000
0000
0000
1001
0000
0000
0000
0120
0000
,
0000
0000
1030
0000
0100
0010
0001
0000
,
0101
0001
0010
0100
0000
1000
0001
0100
,
1000
0000
0110
0000
1000
0010
1000
0000
,
1000
0100
0010
0100
0001
0100
0010
0001
,
1000
0000
1010
0000
0100
0001
0010
0100
,
2100
3010
0102
0013
,
2002
0000
3003
0000
,
0000
0000
0000
0000
;
#NOTES:
     dance-single:
     :
     Challenge:
     7:
     :
0000
0000
0000
0000
,
0000
0000
0000
0000
,
0000
0000
0000
0000
,
0000
0000
0000
0000
,
0000
0000
0000
0000
,
0000
0000
0000
0000
,
0000
0000
0000
0000
,
0000
0000
0000
0000
,
0000
0000
0000
0000
,
1001
0001
0100
MMMM
,
0010
1000
1000
0100
,
1001
1000
0100
MMMM
,
0010
0001
0001
0100
,
0101
0100
0010
MMMM
,
1000
0100
0001
0100
,
1100
0001
1000
0001
,
1001
MMMM
0110
MMMM
,
2000
0001
0001
0000
,
0001
0001
3001
0000
,
0002
0100
0100
0000
,
0100
0100
0103
MMMM
,
0020
1000
1000
0000
,
1000
1000
1030
0000
,
0001
0000
0100
0000
,
1000
0000
0010
0000
,
0002
0100
0103
0000
,
0020
0100
0130
MMMM
,
0002
0010
0013
0000
,
2000
0001
3001
0000
,
0010
0010
1000
0010
,
0100
0000
MMMM
0000
,
0100
1000
0001
0010
,
0200
0000
0300
MMMM
,
1000
1000
0100
0100
,
0010
0010
1000
1000
,
0001
0001
0100
0100
,
0010
0010
0001
MMMM
,
0001
0001
0010
0010
,
1000
1000
0001
0001
,
1000
1000
0010
0010
,
0001
0001
0010
MMMM
,
1000
1000
0100
1000
,
1000
0001
0010
MMMM
,
0001
0001
0100
0001
,
0001
1000
0010
MMMM
,
0010
0010
0001
MMMM
,
0010
0010
1000
MMMM
,
0220
0000
0000
0330
,
2002
0000
3003
MMMM
,
0110
1000
0010
0001
,
MMMM
1000
0100
0001
,
1000
0010
0001
MMMM
,
1000
0100
0001
0010
,
0100
1000
0100
MMMM
,
0001
1000
0001
1000
,
0010
0000
0100
0000
0010
0000
0100
0100
,
0000
0010
0010
0000
0001
0000
MMMM
0000
,
1001
MMMM
1000
0001
,
1001
0000
MMMM
0100
MMMM
0100
MMMM
0200
,
0000
0300
MMMM
0000
0010
0000
1000
0000
,
0100
0010
0001
0100
,
0010
0000
MMMM
0000
0001
MMMM
0001
0000
,
0010
0000
0100
0000
1000
MMMM
1000
0000
,
0010
0100
0001
1000
,
1001
MMMM
0110
MMMM
,
2002
0000
3003
0000
,
0000
0000
0000
0000
;
#NOTES:
     dance-double:
     :
     Easy:
     4:
     :
00000000
00000000
00000000
00000000
,
00000000
00000000
00000000
00000000
,
00000000
00000000
00000000
00000000
,
00000000
00000000
00000000
00000000
,
00000000
00000000
00000000
00000000
,
00000000
00000000
00000000
00000000
,
00000000
00000000
00000000
00000000
,
00000000
00000000
00000000
00000000
,
00000000
00000000
00000000
00000000
,
00200000
00000000
00000000
00000000
,
00300000
00000000
00100000
00000000
,
10000000
00000000
10000000
00000000
,
01000000
00000000
00000000
00000000
,
00020000
00000000
00000000
00000000
,
00030000
00000000
00010000
00000000
,
00002000
00000000
00000000
00000000
,
00003000
00000000
00000000
00000000
,
00000100
00000000
00000000
00000000
,
00000100
00000000
00000000
00000000
,
00000010
00000000
00000001
00000000
,
00000010
00000000
00000000
00000000
,
00000100
00000000
00000000
00000000
,
00000100
00000000
00000000
00000000
,
00001000
00000000
00010000
00000000
,
00001000
00000000
00000000
00000000
,
01000000
00000000
00000000
00000000
,
01000000
00000000
00000000
00000000
,
00100000
00000000
10000000
00000000
,
00100000
00000000
00000000
00000000
,
10000000
00000000
00000000
00000000
,
01000000
00000000
00000000
00000000
,
00100000
00000000
00000000
00000000
,
00010000
00000000
00000000
00000000
,
00001000
00000000
00000100
00000000
,
00001000
00000000
00000000
00000000
,
00000001
00000000
00000100
00000000
,
00001000
00000000
00000000
00000000
,
00010000
00000000
01000000
00000000
,
10000000
00000000
00000000
00000000
,
00100000
00000000
10000000
00000000
,
01000000
00000000
00000000
00000000
,
10000000
00000000
01000000
01000000
,
01000000
00000000
00000000
00000000
,
00100000
00000000
00010000
00010000
,
00010000
00000000
00000000
00000000
,
00001000
00000000
00010000
00000000
,
00001000
00000000
00000100
00000000
,
00000020
00000000
00000030
00000000
,
00001001
00000000
00000000
00000000
,
00000001
00000000
00001000
00000000
,
00000001
00000100
00000001
00000000
,
00001000
00000000
00000100
00000000
,
00010000
00001000
00010000
00000000
,
01000000
00000000
00100000
00000000
,
10000000
00010000
10000000
00000000
,
02000000
00000000
03000000
00000000
,
00200000
00000000
00300000
00000000
,
00010000
00000000
00001000
00000000
,
00011000
00000000
00000000
00000000
,
00000010
00000000
00000000
00000000
,
00000100
00000000
00000010
00000000
,
00000100
00000000
00001000
00001000
,
00000100
00000000
00000001
00000001
,
00000100
00000000
00001000
00000000
,
00010000
00000000
00001000
00000000
,
00022000
00000000
00033000
00000000
,
00000000
00000000
00000000
00000000
;
#NOTES:
     dance-double:
     :
     Medium:
     8:
     :
00000000
00000000
00000000
00000000
,
00000000
00000000
00000000
00000000
,
00000000
00000000
00000000
00000000
,
00000000
00000000
00000000
00000000
,
00000000
00000000
00000000
00000000
,
00000000
00000000
00000000
00000000
,
00000000
00000000
00000000
00000000
,
00000000
00000000
00000000
00000000
,
00000000
00000000
00000000
00000000
,
00010000
00000000
00001000
00000000
00000010
00000000
00000000
00000220
,
00000000
00000000
00000330
00000000
,
00000001
00000000
00000100
00000000
00001000
00000000
00000000
00022000
,
00000000
00000000
00033000
00000000
,
00001000
00000000
00010000
00000000
00100000
00000000
00000000
02200000
,
00000000
00000000
03300000
00000000
,
10000000
00010000
10000000
00010000
,
10010000
00000000
01100000
00000000
,
20020000
00000000
00000000
30030000
,
00200000
00000000
00010000
00300000
,
00002000
00000000
00010000
00003000
,
00000200
00000000
00000000
00000300
,
00000020
00000000
00000001
00000030
,
00000002
00000000
00000100
00000003
,
00000100
00000000
00001000
00000000
,
00010000
00000000
01000000
00000000
,
20020000
00000000
00000000
30030000
,
00200000
00000000
10000000
00300000
,
20000000
00000000
01000000
30000000
,
00020000
00000000
00000000
00030000
,
00002000
00000000
00010000
00003000
,
00000200
00000000
00000010
00000300
,
00000001
00000000
00000100
00000000
,
00002002
00000000
00000000
00003003
,
00000001
00000010
00000100
00010000
,
00001000
00000100
00000010
00001000
,
00000100
00001000
00010000
00100000
,
00010000
01000000
00100000
10000000
,
01000000
00010000
00001000
00010000
,
00000100
00000010
00000001
00000100
,
00001000
00010000
00000100
00000010
,
00000001
00000100
00001000
00010000
,
00011000
00100000
00010000
00100000
,
01000000
10000000
00010000
00100000
,
00001000
00000100
00000001
00000010
,
00000100
00001000
00000001
00001000
,
00001001
00000000
00000000
00000010
00000000
00001000
00000000
00000000
,
00011000
00000000
00000000
00010000
00000000
00100000
00000000
00000000
,
10010000
00000000
00000000
01000000
00000000
00010000
00000000
00000000
,
00022000
00000000
00033000
00000000
,
00011000
00000000
00010000
00001000
00010000
00000000
00001000
00000000
,
00000100
00000001
00000001
00000100
,
00001000
00000000
00001000
00010000
00001000
00000000
00010000
00000000
,
01000000
10000000
00100000
01100000
,
01000000
00000000
00010000
10000000
00010000
00000000
00100000
00000000
,
01000000
00010000
00001000
00010000
,
00000020
00000000
00000230
00000000
,
00000302
00000000
00001003
00001001
,
00000001
00000010
00000100
00001000
,
00000100
00010000
00000100
00010000
00000000
00010100
00000000
00011000
,
00000000
00000000
00001000
01000000
,
00100000
00000000
10000000
01000000
00000000
01000000
00100000
00000000
,
01000000
00010000
00001000
00010000
,
00001000
00000100
00000001
00000010
,
00000100
00010000
00001000
00011000
,
02002000
03003000
02200000
03300000
,
20020000
00000000
30030000
00000000
,
00000000
00000000
00000000
00000000
;
#NOTES:
     dance-double:
     :
     Hard:
     12:
     :
00000000
00000000
00000000
00000000
,
00000000
00000000
00000000
00000000
,
00000000
00000000
00000000
00000000
,
00000000
00000000
00000000
00000000
,
00000000
00000000
00000000
00000000
,
00000000
00000000
00000000
00000000
,
00000000
00000000
00000000
00000000
,
00000000
00000000
00000000
00000000
,
00000000
00000000
00000000
00000000
,
10000000
00000000
11000000
00000000
01000000
00100000
00001000
00020000
,
00000000
00031000
00010000
00000000
00010000
00001000
00000100
00000000
,
00000001
00000000
00000101
00000000
00000100
00000010
00010000
00002000
,
00000000
00013000
00001000
01000000
00100000
01000000
00010000
10000000
,
01000000
00000000
11000000
00000000
10000000
01000000
00010000
00002000
,
00000000
00013000
00001000
00000000
00001000
00010000
01000000
00000000
,
01100000
00000000
00010000
00001000
00010000
00001000
00010000
00001000
,
00020000
00000000
00030200
00000000
,
00000310
00000000
00000001
00000000
00000100
00000001
00000000
00000100
,
00000010
00000000
00001000
00000100
00000000
00000010
00000000
00000001
,
00000100
00000000
00001000
00000000
00010000
00001000
00000000
00100000
,
00001000
00000000
00010000
01000000
00000000
10000000
01000000
10000000
,
00010000
00000000
01000000
00000000
00100000
10000000
00000000
00100000
,
01000000
00000000
00010000
00100000
00000000
00001000
00000000
00010000
,
00000200
00010000
00002300
00010000
,
00003020
00001030
00000110
00000000
,
00001001
00000000
00000010
00000000
00000001
00001000
00000000
00000100
,
00000010
00000000
00000100
00010000
00000000
00001000
00100000
00010000
,
01000000
00000000
00100000
00000000
10000000
01000000
00000000
00100000
,
01000000
00000000
01000000
00100000
00000000
00001000
00010000
00000100
,
00001000
00000000
00000001
00000000
00000010
00000100
00000000
00001100
,
00000000
00000011
00000000
00000001
00000100
00001000
00010000
00000000
,
00002000
00100000
00023000
00100000
,
00032000
00000000
00013000
00000000
,
00001000
00000000
01001000
00000000
01000000
00010000
00100000
00000000
,
01000000
00000000
11000000
00000000
10000000
00100000
00010000
00000000
,
00001000
00000000
00101000
00000000
00010000
00001000
00000010
00000000
,
00000002
00000100
00001000
00000013
,
00000100
00000000
00001100
00000000
00000010
00000001
00000100
00000000
,
00000010
00000000
00010010
00000000
00001000
00010000
01000000
00000000
,
10000000
00000000
10010000
00000000
00100000
01000000
00010000
00000000
,
20000000
01000000
00010000
30100000
,
10000000
00000000
10010000
00000000
00010000
01000000
10000000
01000000
,
00010000
00000000
10010000
00000000
00100000
00001000
00010000
00000000
,
00001000
00000000
00011000
00000000
00001000
00000100
00000001
00000010
,
00000100
00000000
00001100
00000000
00000001
00000100
00000010
00000000
,
00000110
00000000
00001000
00010000
00000000
00100000
00000000
10000000
,
01100000
00000000
00010000
00001000
00000000
00000100
00000000
00000001
,
00000110
00000000
00001000
00000010
00000001
00000100
00001000
00010000
,
00022000
00000000
00033000
00000000
,
00011000
00000000
00100000
00010000
01000000
00100000
10000000
00000000
,
01000000
00100000
01000000
00010000
00000000
00010000
00001000
00000000
,
00010100
00000000
00000010
00000001
00001000
00000100
00000001
00000100
,
00001000
00000010
00001000
00000001
00000000
00000001
00000100
00000010
,
00001000
00000000
00000100
00010000
00001000
00100000
00010000
00000000
,
00010000
01000000
00100000
10000000
00000000
10000000
00010000
00000000
,
01020000
00000000
10000000
00000000
00130000
01000000
00010000
00002000
,
00000000
00000010
00003010
00000000
00000001
00000100
00000010
00001000
,
00001001
00000000
00000001
00000010
00001000
00010000
00001000
00000000
,
00100000
00010000
00100000
00000000
00000000
00000000
00110000
00000000
00000000
00000000
11000000
00000000
00000000
00000000
20100000
00000000
,
00000000
00000000
31000000
00000000
01000000
10000000
01000000
00000000
,
00010000
00100000
00001000
00010000
00000100
00000010
00000001
00000100
,
00000010
00000000
00001001
00000000
00000001
00000100
00000010
00000000
,
00001000
00000100
00000010
00000000
00001000
00010000
00100000
00000000
,
00010000
01000000
10000000
00000000
00100000
00010000
00001000
00000000
,
00010200
00001300
00002001
00003010
,
00000220
00000000
00000330
00000000
,
00000000
00000000
00000000
00000000
;
#NOTES:
     dance-double:
     :
     Challenge:
     8:
     :
00000000
00000000
00000000
00000000
,
00000000
00000000
00000000
00000000
,
00000000
00000000
00000000
00000000
,
00000000
00000000
00000000
00000000
,
00000000
00000000
00000000
00000000
,
00000000
00000000
00000000
00000000
,
00000000
00000000
00000000
00000000
,
00000000
00000000
00000000
00000000
,
00000000
00000000
00000000
00000000
,
00011000
00010000
00001000
MMMMMMMM
,
00000010
00001000
00000001
00000100
,
00000010
00000010
00000100
MMMMMMMM
,
00000010
00010000
00001000
00000000
,
00011000
00001000
00010000
MMMMMMMM
,
00100000
00010000
10000000
01000000
,
00100000
00100000
01000000
00010000
,
00011000
MMMMMMMM
00000110
MMMMMMMM
,
00000002
00000000
00000100
00000000
,
00000100
00000100
00000103
00000000
,
00002000
00000000
00000010
00000000
,
00000010
00000010
00003010
MMMMMMMM
,
00020000
00000000
00001000
00000000
,
00001000
00001000
00031000
00000000
,
01000000
00000000
10000000
00000000
,
00100000
00000000
01000000
00000000
,
00200000
10000000
10300000
00000000
,
02000000
00010000
03010000
MMMMMMMM
,
00002000
00010000
00013000
00000000
,
00000020
00000100
00000130
00000000
,
00002000
00000001
00003001
00000000
,
00000100
00000000
MMMMMMMM
00000000
,
00000001
00000100
00000010
00001000
,
00020000
00000000
00030000
MMMMMMMM
,
00001000
00001000
00010000
00010000
,
00100000
00100000
10000000
10000000
,
01000000
01000000
00010000
00010000
,
00001000
00001000
00011000
MMMMMMMM
,
00000010
00000010
00000001
00000001
,
00000100
00000100
00001000
00001000
,
00010000
00010000
01000000
01000000
,
10000000
10000000
10010000
MMMMMMMM
,
01100000
10000000
00100000
00010000
,
00001000
00000010
00000010
MMMMMMMM
,
00000110
00000001
00000100
00001000
,
00010000
00100000
00100000
MMMMMMMM
,
10010000
00000000
00000000
00100000
00000000
00000000
MMMMMMMM
00000000
,
01000000
00000000
00000000
00011000
00000000
00000000
MMMMMMMM
00000000
,
00011000
00000000
00000000
00000010
00000000
00000000
MMMMMMMM
00000000
,
00002002
00000000
00003003
MMMMMMMM
,
00000101
00000001
00000100
00001000
,
MMMMMMMM
00000001
00000100
00001000
,
00010000
00100000
10000000
MMMMMMMM
,
00010000
00100000
10000000
00010000
,
01000000
00100000
10000000
MMMMMMMM
,
00100000
10000000
01000000
00010000
,
00011000
00000000
00001000
00000000
00000100
00000000
00000000
00000110
,
00000000
00000010
00000010
00000000
00001000
00000000
MMMMMMMM
00000000
,
00001001
MMMMMMMM
00000100
00001000
,
00001010
00000000
MMMMMMMM
00001000
MMMMMMMM
00010000
MMMMMMMM
00002000
,
00000000
00003000
MMMMMMMM
00000000
00001000
00000000
00010000
00000000
,
00001000
00100000
00010000
10000000
,
01000000
00000000
MMMMMMMM
00000000
00010000
MMMMMMMM
00010000
00000000
,
00001000
00000000
00000100
00000000
00001000
MMMMMMMM
00001000
00000000
,
00010000
00001000
00000100
00000001
,
00001001
MMMMMMMM
00000110
MMMMMMMM
,
00022000
00000000
00033000
00000000
,
00000000
00000000
00000000
00000000
;
