
//----- song ID: urlv -----//
#TITLE:CRAZY♥LOVE;
#ARTIST:jun;
#TITLETRANSLIT:CRAZY LOVE;
#BANNER:CRAZY LOVE.png;
#BACKGROUND:CRAZY LOVE-bg.png;
#CDTITLE:./CDTitles/DDR X3 VS 2ndMIX.png;
#MUSIC:CRAZY LOVE.ogg;
#SAMPLESTART:39.32;
#SAMPLELENGTH:15;
#BPMS:0=176.5,4=177,20=88.5,28=177,236=88.5,252=177;
#STAGE:1;
#NOTES:
     dance-single:
     :
     Beginner:
     3:
     :
0000
0000
0000
0000
,
0000
0000
0000
0000
,
0000
0000
0000
0000
,
0000
0000
0000
0000
,
0000
0000
0000
0000
,
0001
0000
1000
0000
,
0010
0000
0100
0000
,
0001
0000
0000
0000
,
1000
0000
1000
0000
,
0010
0000
0010
0000
,
0100
0100
0100
0000
,
0001
0000
0010
0000
,
1000
0000
0010
0000
,
0001
0000
1000
0000
,
0001
0000
0000
0000
,
0001
0000
0010
0000
,
1000
0000
0010
0000
,
0001
0000
1000
0000
,
0002
0000
0003
0000
,
1000
0000
1000
0000
,
0001
0000
0001
0000
,
1000
1000
1000
0000
,
0001
0001
0001
0000
,
1000
0000
1000
0000
,
0001
0000
0001
0000
,
0020
0000
0030
0000
,
0100
0000
0000
0000
,
1001
0000
0000
0000
,
1001
0000
0001
0000
,
0010
0000
0100
0000
,
0020
0000
0030
0000
,
1001
0000
0000
0000
,
1001
0000
0001
0000
,
0010
0010
0010
0010
,
0020
0000
0030
0000
,
1001
0000
0000
0000
,
1001
0000
0001
0000
,
0010
0000
0100
0000
,
0020
0000
0030
0000
,
1001
0000
0000
0000
,
1001
0000
0001
0000
,
0100
0100
0100
0000
,
1001
0000
0000
0000
,
0001
0001
0001
0000
,
0010
0010
0010
0000
,
0100
0100
0100
0000
,
2000
0000
3000
0000
,
1000
1000
1000
0000
,
0010
0010
0010
0000
,
0100
0100
0100
0000
,
0002
0000
0003
0000
,
2000
0000
3000
0000
,
0200
0000
0300
0000
,
0020
0000
0030
0000
,
0002
0000
0003
0000
,
2000
0000
3000
0000
,
0200
0000
0300
0000
,
0020
0000
0030
0000
,
0001
0001
0001
0000
,
0200
0000
0000
0000
,
0000
0000
0000
0000
,
0000
0000
0000
0000
,
0000
0000
0000
0300
,
1001
0000
0000
0000
,
1001
0000
0001
0000
,
0010
0000
0100
0000
,
0020
0000
0030
0000
,
1001
0000
0110
0000
,
0110
0000
1001
0000
,
0200
0000
0300
0010
,
0200
0000
0300
0010
,
2000
3000
0002
0003
,
1000
0001
1000
2002
,
0000
0000
0000
3003
,
0000
0000
0000
0000
;
#NOTES:
     dance-single:
     :
     Easy:
     6:
     :
0000
0000
0000
0000
,
0000
0000
0000
0000
,
0000
0000
0000
0000
,
0000
0000
0000
0000
,
0000
0000
0000
0000
,
0001
0100
0001
0010
,
1000
0000
0100
0000
0010
0010
0010
0000
,
1000
0000
0010
0000
,
0001
0100
0010
0000
,
1000
0100
0010
0000
,
0010
0100
1000
0000
,
0001
0001
0100
0000
,
0001
0001
0010
0000
,
2000
3100
0002
0103
,
1000
0001
1000
0000
,
1000
1000
0100
0000
,
1000
1000
0010
0000
,
0002
0103
2000
3100
,
0010
0000
0000
0000
,
1000
0100
1000
0000
,
0001
0100
0001
0000
,
2000
3002
2003
3002
,
0203
0320
0130
0000
,
1000
0100
1000
0000
,
0001
0010
0001
0000
,
0100
0100
0010
0010
,
0110
0000
0000
0000
,
2000
0000
0010
3000
,
1010
0000
0001
0010
,
0001
0001
0100
0000
,
0010
0100
0010
0000
,
2000
0000
0010
3000
,
1010
0000
0001
0010
,
0100
0010
0100
0000
,
0100
0010
0100
0000
,
0002
0000
0010
0003
,
0011
0000
1000
0010
,
1000
1000
0100
0000
,
0010
0100
0010
0000
,
0002
0000
0010
0003
,
0011
0000
1000
0010
,
1000
1000
0001
0000
,
1000
0001
1001
0000
,
0010
0000
1000
1000
,
0010
0000
0100
0100
,
0001
0000
0010
0010
,
0100
0100
0100
0100
,
0010
0000
0001
0001
,
0010
0000
0100
0100
,
1000
0000
0010
0010
,
0220
0000
0330
0000
,
2000
0000
3100
0010
,
0002
0000
1003
0001
,
2000
0000
3001
0100
,
0010
0000
0000
0000
,
0002
0000
0103
0010
,
2000
0000
3001
1000
,
0002
0000
1003
0100
,
0010
0000
0000
0000
,
0200
0000
0001
0000
,
0010
0000
1000
0300
,
0020
0000
0001
0000
,
0100
0000
0000
0000
1030
0001
1000
0000
,
2000
0000
0000
3000
,
1010
0000
0001
0010
,
0001
0001
0100
0000
,
0010
0100
0010
0000
,
0110
0000
1010
0000
,
0011
0000
1001
0000
,
0210
0010
0020
0330
,
0210
0010
0020
0330
,
2000
3010
0002
0103
,
1000
0010
0001
2002
,
0000
0000
0000
3003
,
0000
0000
0000
0000
;
#NOTES:
     dance-single:
     :
     Medium:
     12:
     :
0000
0000
0000
0000
,
0000
0000
0000
0000
,
0000
0000
0000
0000
,
0000
0000
0000
0000
,
0000
0000
0000
0000
,
0100
0000
0010
0002
0000
0100
0103
0000
0010
0000
1000
0020
0000
0100
0130
0000
,
0001
0000
0010
0200
0000
1000
1300
0000
0020
0000
0230
0000
0302
0000
0103
0000
,
1000
0010
0100
0002
0000
0013
0100
0010
,
0001
0010
0100
2000
0000
3001
0100
0001
,
1000
0010
0100
0020
0000
1030
0100
1000
,
0001
0100
0101
0000
1000
0001
0101
0000
,
0120
0000
1000
0000
0130
0001
0100
0000
,
0120
0000
1000
0000
0130
0010
0001
0000
,
1000
0100
1000
0001
0100
0001
0010
0100
,
2000
0010
0001
3100
,
0120
0000
0001
0000
0130
1000
0100
0000
,
0120
0000
0001
0000
0130
0010
1000
0000
,
0001
0100
0001
1000
0100
1000
0010
0000
,
0011
1010
0101
1100
,
0010
0000
1000
0001
0100
0100
0010
1000
,
0010
0000
0001
0010
0100
0100
0010
1000
,
0100
0001
0100
1000
0100
0001
0100
1000
,
0020
0001
1000
0130
,
0010
0000
1000
0001
0100
0100
0010
1000
,
0010
0000
0100
0010
0100
0100
0010
0000
,
1100
0101
1100
0101
,
0011
0110
1100
0000
,
0110
0000
1000
0020
0000
0130
0001
0100
,
2000
0000
3100
0001
0010
0100
0010
0000
,
0001
0100
0001
0010
0001
0100
0010
1000
,
0200
0000
0001
1300
,
0110
0000
0001
0020
0000
0130
1000
0100
,
0002
0000
0103
1000
0010
0100
0010
0000
,
0100
0010
0100
1000
0100
0001
0100
0010
,
1000
0100
0010
0001
0100
0000
1001
0000
,
0110
0000
0001
0020
0000
0130
1000
0100
,
0002
0000
0103
1000
0010
0100
0010
0000
,
1000
0100
1000
0010
1000
0100
0010
0001
,
0200
0000
1000
0301
,
0110
0000
1000
0020
0000
0130
0001
0100
,
2000
0000
3100
0001
0010
0100
0010
0000
,
0100
0010
0100
0001
0000
1000
0100
0010
,
0001
0010
0100
0100
0110
0000
1001
0000
,
1000
0010
0100
0002
0000
0013
0110
0000
,
0001
0010
0100
0020
0000
0031
0101
0000
,
1000
0010
0100
0020
0000
0130
0110
0000
,
0001
0001
0010
0010
0200
0000
0310
0000
,
0001
0010
0100
2000
0000
3010
0110
0000
,
1000
0010
0100
0020
0000
1030
1100
0000
,
0001
0010
0100
0020
0000
0130
0110
0000
,
0010
1000
0000
1100
0000
0011
0000
0100
,
0001
0100
0020
1000
0030
0001
0200
0000
,
0301
0010
0200
1000
0300
0001
2000
0000
,
3001
0100
0020
1000
0030
0010
0200
0000
,
0310
1010
0100
0101
,
1000
0100
0020
0001
0030
1000
0200
0000
,
1300
0010
0200
0001
0300
1000
0002
0000
,
1003
0100
0020
0001
0030
0010
0200
0000
,
0310
0001
0010
0001
0100
0010
0110
0000
,
0200
1000
0000
1000
0000
1000
0000
1000
0000
0001
0000
0001
0000
0001
0000
0001
,
0000
0010
0000
0010
0000
0010
0000
0010
0000
1000
0000
1000
0000
0001
0300
0001
,
0020
1000
0000
1000
0000
1000
0000
1000
0000
0001
0000
0001
0000
0001
0000
0001
,
0000
0100
0000
0100
0000
0100
0030
0100
0010
0001
0010
0100
1000
0000
1001
0000
,
0110
0000
1000
0020
0000
0130
0001
0100
,
2000
0000
3100
0001
0010
0100
0010
0000
,
0001
0100
0001
0010
0001
0100
0010
1000
,
0200
0010
0001
1300
,
0001
0011
0000
0110
0000
1100
0000
0110
,
0000
1010
0000
0110
0000
0011
0000
0110
,
0020
0000
0000
0100
0130
0001
0010
0110
,
0020
0000
0000
0100
0130
1000
0010
0110
,
0010
0001
1000
1100
0000
0001
0010
1010
,
0000
0001
0100
0010
1010
0000
0202
0000
,
0000
0000
0000
0303
,
0000
0000
0000
0000
;
#NOTES:
     dance-single:
     :
     Hard:
     15:
     :
0000
0000
0000
0000
,
0000
0000
0000
0000
,
0000
0000
0000
0000
,
0000
0000
0000
0000
,
0000
0000
0000
0000
,
1000
0100
0002
0010
0000
0013
0100
1000
0010
0100
2000
0001
0000
3001
0010
1000
,
0100
0010
2000
0001
0000
3001
0100
0010
0001
0001
1000
1000
1010
0000
0101
0000
,
0010
1000
0100
0010
0001
1000
0001
0010
,
0100
0001
0100
0010
1000
0001
1000
0010
,
0001
1000
0010
0100
0001
1000
0001
0010
,
0011
0000
0100
0000
1100
0000
0000
0000
1001
0000
0000
0010
0100
0000
0010
0001
,
1000
0100
0010
0200
0000
0301
1000
0010
,
0100
0001
1000
0200
0000
0310
0001
1000
,
0010
0100
0010
0001
0010
0100
0010
1000
,
1100
0000
0011
0000
1010
0010
0110
0000
,
0001
0100
0010
0200
0000
1300
0001
0010
,
0100
1000
0001
0200
0000
0310
1000
0001
,
0010
0100
0010
0001
0000
0100
0010
1000
,
0002
1000
2003
0001
3002
1003
1001
0000
,
0001
0010
0100
2100
0000
3010
0100
0001
,
0010
1000
0010
0012
0000
1003
0010
0100
,
0001
0010
1000
0001
0100
1000
0001
0010
,
1000
0010
0001
0101
0000
0010
0100
1000
,
1000
0010
0100
0102
0000
0013
0100
1000
,
0010
0001
0010
2010
0000
3001
0010
0001
,
1000
0010
0001
1000
0001
0010
1000
0100
,
0000
0010
0100
0100
0110
0000
1001
0000
,
1200
0000
0000
1300
0010
0000
0100
0000
0001
1000
0100
0000
0001
0000
0100
0000
,
1000
0001
0100
0000
1000
0000
0001
0010
0001
0000
0100
0000
1100
0000
0000
0000
,
0020
1000
1030
0020
0100
0130
0010
1000
,
0010
1000
0100
0110
0000
0001
0100
1000
,
1200
0000
0000
1300
0010
0000
0100
0000
0001
1000
0100
0000
0001
0000
0100
0000
,
1000
0001
0100
0000
1000
0000
0001
0010
0001
0000
0100
0000
1100
0000
0000
0000
,
0020
1000
1030
2010
0000
3100
0010
0001
,
0001
0011
0010
0100
1100
0000
1001
0000
,
0201
0000
0000
0301
0010
0000
0100
0000
1000
0001
0100
0000
1000
0000
0100
0000
,
0001
1000
0100
0000
0001
0000
1000
0010
1000
0000
0100
0000
0101
0000
0000
0000
,
0020
0001
0031
0020
0100
0130
0010
0001
,
0010
0001
0100
0110
0000
1000
0100
0001
,
0201
0000
0000
0301
0010
0000
0100
0000
1000
0001
0100
0000
1000
0000
0100
0000
,
0001
1000
0100
0000
0001
0000
1000
0010
1000
0000
0100
0000
0101
0000
0000
0000
,
0020
0001
0031
0012
0000
0103
0010
1000
,
0001
0101
0110
1100
0101
0000
1001
0000
,
1010
0010
0001
0012
0000
0103
1000
0010
,
0101
0100
0010
2010
0000
3100
0010
0001
,
0011
0010
1000
0102
0000
0103
1000
0001
,
1000
1100
0010
0011
0110
0000
1001
0000
,
0011
0010
1000
2010
0000
3100
0001
0010
,
1100
0100
0010
0012
0000
0103
0010
1000
,
1010
0010
0001
2100
0000
3100
0001
1000
,
1000
1100
0000
0011
0001
0100
1100
0000
,
0001
0010
1000
0210
0000
0301
1100
0000
,
0001
0010
0100
1200
0000
0301
0110
0000
,
0001
0010
1000
0102
0000
0103
1010
0000
,
1100
0011
1010
0101
,
1000
0010
0001
0210
0000
1300
0101
0000
,
1000
0010
0100
0201
0000
1300
0110
0000
,
1000
0010
0001
2100
0000
3100
0011
0000
,
1000
0001
0100
0010
1000
0100
0110
0000
,
2000
0100
0000
0001
0000
0100
0000
3001
0200
0010
0000
0001
0000
1000
0000
1300
,
0002
0010
0000
0100
0000
0010
0000
0013
0200
1000
0000
1000
0000
0001
0000
0301
,
2000
0100
0000
0001
0000
0100
0000
3001
0200
0010
0000
0001
0000
1000
0000
1300
,
0002
0010
0000
0100
0000
0010
0000
0013
1000
0010
0100
0001
0100
0000
0110
0000
,
1200
0000
0000
1300
0010
0000
0100
0000
0001
1000
0100
0000
0001
0000
0100
0000
,
1000
0001
0100
0000
1000
0000
0001
0010
0001
0000
0100
0000
1100
0000
0000
0000
,
0020
1000
1030
0020
0100
0130
0010
1000
,
0010
1000
0100
0110
0000
0001
0100
0010
,
1000
1100
0000
0110
0000
0011
1000
0100
,
0010
0000
0011
0000
0000
0000
0110
0000
0000
0000
1100
0000
0010
0000
0001
0200
,
0010
0000
0000
0000
0310
0100
0001
1000
0200
0000
0000
0000
0310
0000
0001
0200
,
0010
0000
0000
0000
0310
0100
0001
1000
0200
0000
0000
0000
0310
0000
0001
0100
,
1000
0000
0000
0000
0100
0000
0010
1000
0100
0000
0010
0001
0100
0000
0010
0000
,
0000
1100
0110
0101
1001
0000
0220
0000
,
0000
0000
0000
0330
,
0000
0000
0000
0000
;
#NOTES:
     dance-single:
     :
     Challenge:
     18:
     :
0000
0000
0000
0000
,
0000
0000
0000
0000
,
0000
0000
0000
0000
,
0000
0000
0000
0000
,
0000
0000
0000
0000
,
2001
0000
0002
3000
,
2000
0003
0020
3000
0200
0000
0330
0110
,
0001
1000
0010
0000
0110
0000
0100
0001
1000
0000
1100
0000
0100
0010
0001
0000
,
1000
0010
0100
0000
0101
0000
0001
0010
0100
0000
1100
0000
1000
0001
0100
0000
,
0010
1000
0001
0000
0011
0000
0010
0100
1000
0000
1010
0000
0010
0100
0001
0000
,
1000
0100
0010
0001
1000
0100
1000
0010
0100
0001
0010
0001
1000
0010
0100
0001
,
1000
0000
0100
0000
1000
0000
0010
0000
1000
0000
0100
0000
1000
0000
0010
0100
,
0001
0000
0010
0000
0001
0000
0100
0000
0001
0000
0010
0000
0001
0000
0100
0010
,
2000
0000
0010
0000
0001
0000
3100
0010
0002
0000
0010
0000
1000
0000
0103
0010
,
1000
0000
0100
0000
1000
0000
0010
0000
0100
0000
0001
0000
0010
0000
0100
1000
,
0001
0000
0100
0000
0010
0000
0100
0000
0001
0000
0010
0000
0100
0000
1000
0010
,
0100
0001
1000
0100
1000
0001
0100
0010
,
1000
0001
0010
0100
0010
0001
1000
0010
0100
0001
1000
0100
0010
0100
1000
0001
,
0100
0010
1000
0100
1000
0001
0100
0001
1000
0100
1000
0010
0100
0001
0010
0100
,
1000
0000
0001
0000
1000
0000
0010
1000
0001
0000
0010
0100
0001
0000
0100
0000
,
1000
0000
0001
0000
1000
0000
0100
1000
0001
0000
0100
0010
0001
0000
0010
0000
,
1000
0001
0020
0000
0100
0000
0031
1000
0200
0000
0010
0000
1300
0001
0100
0000
,
0001
1000
0020
0000
0100
0000
1030
0001
0200
0000
0010
0000
0301
0000
1000
0000
,
0001
0000
0010
0000
0100
0000
1000
0010
0100
0000
1000
0100
0001
0000
1000
0001
,
0010
0000
0100
0000
1000
0000
0001
0010
0100
0000
0001
0100
1000
0000
0001
1000
,
0010
1000
0100
0020
0000
0001
0000
0130
,
0110
0011
1100
1001
,
1000
0001
0010
0200
0001
0000
1300
0000
0001
1000
0010
0000
0100
0001
1000
0000
,
0001
1000
0100
0020
1000
0000
0031
0000
1000
0001
0100
0000
0010
1000
0001
0000
,
1000
0001
0010
0000
0110
0000
0100
1000
0001
0000
0101
0000
0100
0010
0001
0000
,
0010
1000
0001
0010
0100
0000
1000
0000
0010
0000
1000
0000
0001
0000
0010
0000
,
0001
1000
0010
0200
1000
0000
0301
0000
1000
0001
0010
0000
0100
1000
0001
0000
,
1000
0001
0100
0020
0001
0000
1030
0000
0001
1000
0100
0000
0010
0001
1000
0000
,
0100
1000
0010
0000
0110
0000
0200
0000
0000
0000
1300
0000
0100
0000
0001
0000
,
0011
1000
1100
0001
1001
0000
0110
0000
,
0001
1000
0100
0020
1000
0000
0031
0000
1000
0001
0100
0000
0010
1000
0001
0000
,
1000
0001
0010
0200
0001
0000
1300
0000
0001
1000
0010
0000
0100
0001
1000
0000
,
0001
1000
0100
0000
0110
0000
0010
0001
1000
0000
1010
0000
0010
0100
1000
0000
,
0100
0001
1000
0100
0010
0000
0001
0000
0100
0000
0001
0000
0010
0000
0100
0000
,
1000
0001
0100
0020
0001
0000
1030
0000
0001
1000
0100
0000
0010
0001
1000
0000
,
0001
1000
0010
0200
1000
0000
0301
0000
1000
0001
0010
0000
0100
1000
0001
0000
,
1000
0000
0010
0000
0100
0000
0001
0000
0010
0100
1000
0001
0100
0010
1000
0001
,
0010
0011
1100
1001
0110
0000
1001
0000
,
0001
1000
0100
0010
0001
0000
1000
0010
0100
0001
1000
0100
0001
0000
0100
0000
,
1000
0001
0100
0010
0001
0000
0010
1000
0001
0010
0100
1000
0001
0000
0100
0000
,
0001
1000
0100
0010
1000
0000
0010
0001
1000
0010
0100
0001
0010
0000
0100
0000
,
2000
0001
3002
1003
1001
0000
2002
3003
,
1000
0001
0100
0010
1000
0000
0001
0010
0100
1000
0001
0100
1000
0000
0100
0000
,
0001
1000
0100
0010
1000
0000
0010
0001
1000
0010
0100
0001
1000
0000
0001
0000
,
0102
1003
2100
3001
0102
1003
2100
3001
,
1000
0001
0100
0010
0100
0001
1000
0100
1000
0001
0100
0010
1000
0100
0010
0001
,
1000
0000
0001
0010
0100
0000
1000
0010
0100
0000
0001
0010
0100
1000
0010
1000
,
0001
0000
1000
0020
0100
0000
0031
0020
0100
0000
1030
0010
0100
0010
1000
0001
,
0010
0000
0001
0100
0010
0000
1000
0100
0010
0000
0001
0100
0010
1000
0100
0010
,
0001
0000
1000
0020
0100
0000
0031
0020
0100
0000
1030
0010
0100
0001
1000
0100
,
0010
0000
0001
0010
0100
0000
1000
0010
0100
0000
0001
0010
0100
1000
0010
1000
,
0001
0000
1000
0200
0010
0000
0301
0200
0010
0000
1300
0100
0010
0100
1000
0001
,
0100
0000
0001
0010
0100
0000
1000
0010
0100
0000
0001
0010
0100
1000
0010
0100
,
0001
0010
0100
1000
0001
0000
1001
0000
,
0001
0000
0100
0000
0020
0000
1000
0000
0000
0000
0100
0000
0000
0000
1030
0001
0010
0000
0100
0000
2000
0000
0010
0000
0000
0000
3100
0000
1000
0000
0001
0100
,
0010
0000
1000
0000
0200
0000
0001
0000
0000
0000
1300
0000
0020
0000
0001
0000
0000
0000
1030
0000
0200
0000
0001
0000
0000
0000
0310
0000
0100
0000
1000
0001
,
1000
0000
0010
0000
0200
0000
0001
0000
0000
0000
0010
0000
0000
0000
0301
1000
0100
0000
0010
0000
0002
0000
0100
0000
0000
0000
0013
0000
0001
0000
1000
0010
,
0100
0000
0001
0000
0020
0000
1000
0000
0000
0000
0031
0000
0100
0000
0010
0000
1000
0001
0010
0001
1000
0010
0100
0001
1000
0000
0000
0000
1001
0000
0000
0000
,
0001
1000
0001
1000
0200
0000
0010
0000
1300
0001
0100
0000
0001
1000
0100
0000
,
1000
0001
0010
0000
0011
0000
0001
1000
0010
0000
1010
0000
1000
0001
0100
0000
,
0110
0000
1000
0200
0001
0000
0310
0000
0110
0000
0001
0200
1000
0000
0310
0000
,
0110
0000
1000
0001
1000
0000
0001
0000
0100
0000
0010
0000
1000
0000
0001
0000
,
1000
0200
0001
0000
1300
0020
0001
0000
1030
0200
0001
0000
1300
0020
0001
0000
,
1030
0200
0001
0000
1300
0020
0001
0000
1030
0100
0010
0000
0001
1000
0001
0200
,
1000
0000
0000
0000
0310
1000
0001
1000
0100
0000
0110
0000
1001
0000
1000
0200
,
0001
0000
0000
0000
0310
0001
1000
0001
0100
0000
0110
0000
1001
0000
0001
0020
,
1000
0000
0000
0000
0130
0000
0110
0000
0000
0000
1001
0000
1000
0010
0001
0000
,
0000
0110
0101
1010
1001
0000
0220
0000
,
0000
0000
0000
0000
,
0330
0000
0000
0000
,
0000
0000
0000
0000
;
#NOTES:
     dance-double:
     :
     Easy:
     7:
     :
00000000
00000000
00000000
00000000
,
00000000
00000000
00000000
00000000
,
00000000
00000000
00000000
00000000
,
00000000
00000000
00000000
00000000
,
00000000
00000000
00000000
00000000
,
00011000
00100000
01000000
10000000
,
00010000
00000000
00001000
00000000
00000010
00000100
00000100
00000000
,
00001001
00000000
00000100
00000000
,
00000001
00001000
00000100
00000000
,
00010000
00001000
00100000
00000000
,
00010000
10000000
20020000
30030000
,
10000000
10000000
01000000
00000000
,
00010000
00010000
01000000
00000000
,
10000000
00010000
00100000
01000000
,
00010000
00001000
00010000
00000000
,
00001000
00001000
00000010
00000000
,
00000001
00000001
00000100
00000000
,
00001000
00000010
00000001
00000100
,
00001000
00010000
00001000
00000000
,
00100000
00010000
00100000
00000000
,
01000000
10000000
01000000
00000000
,
00200000
00320000
20030000
32000000
,
03200000
00302000
00013000
00000000
,
00000100
00001000
00000100
00000000
,
00000010
00000001
00000010
00000000
,
00000010
00000001
00000100
00001000
,
00010000
00001000
00011000
00000000
,
00200000
00010000
00010000
00300000
,
10010000
00000000
00100000
00010000
,
20000000
31000000
00020000
00031000
,
00000200
00000310
00002000
00003001
,
00000020
00000100
00000100
00000030
,
00001001
00000000
00000010
00000100
,
00000002
00001003
00000020
00000130
,
00002000
00013000
00100000
01000000
,
20010000
00010000
00010000
30000000
,
11000000
00000000
00100000
00010000
,
20000000
30010000
00200000
00301000
,
00010000
00000100
00000010
00000001
,
00001002
00001000
00001000
00000003
,
00000101
00000000
00001000
00000010
,
00000200
00000301
00002000
00003100
,
00001001
00001001
00001001
00000000
,
00000001
00000100
00000010
00000000
,
00001000
00000010
00000100
00000000
,
00002000
00003000
00020000
00030000
,
00100000
00100000
01000000
00100000
,
01000000
00010000
10000000
00000000
,
00010000
00100000
01000000
00000000
,
00020000
00030000
00002000
00003000
,
00000010
00000100
00000110
00000000
,
00000002
00000000
00000013
00000100
,
00002000
00000000
00003010
00000100
,
00002000
00000000
00103000
00001000
,
00020000
00000000
00130000
00001000
,
00020000
00000000
00130000
01000000
,
20000000
00000000
30100000
01000000
,
20000000
00000000
31000000
00010000
,
10010000
00000000
00000000
00000000
,
00020000
00000000
01000000
00000000
,
10000000
00000000
00130000
00000000
,
00002000
00000000
00000100
00000000
,
00000001
00000000
00000000
00000000
00003010
00000100
00000100
00000000
,
00000002
00001000
00001000
00000003
,
00000101
00000000
00001000
00000100
,
00020000
00031000
02000000
03010000
,
00200000
01300000
00100000
00000000
,
00010000
10000000
00010000
10000000
,
00010000
10010000
10000000
10010000
,
00200000
01000000
02000000
03300000
,
00020000
00001000
00002000
00033000
,
00000020
00000130
00000200
00000310
,
00000001
00001000
00000110
00002002
,
00000000
00000000
00000000
00003003
,
00000000
00000000
00000000
00000000
;
#NOTES:
     dance-double:
     :
     Medium:
     12:
     :
00000000
00000000
00000000
00000000
,
00000000
00000000
00000000
00000000
,
00000000
00000000
00000000
00000000
,
00000000
00000000
00000000
00000000
,
00000000
00000000
00000000
00000000
,
00000010
00000000
00000100
00000002
00000000
00000000
00001003
00000000
00000010
00000000
00000100
00002000
00000000
00000000
00013000
00000000
,
00100000
00000000
01000000
00020000
00000000
00000000
10030000
00000000
00200000
00000000
20300000
00000000
30010000
00000000
10010000
00000000
,
00100000
10000000
01000000
00200000
00000000
00301000
00010000
00000000
,
00000100
00001000
00000010
00000200
00000000
00000301
00001000
00000000
,
00000100
00000010
00000001
00002000
00000000
00003100
00010000
00000000
,
00001000
00010000
00001000
00000000
00011000
00000000
00011000
00000000
,
00200000
00000000
00010000
00000000
01300000
10000000
01000000
00000000
,
02000000
00000000
10000000
00000000
03100000
00010000
00100000
00000000
,
00001000
00010000
01000000
00000000
00010000
00001000
00000100
00000010
,
00000200
00000001
00001000
00000310
,
00000002
00000000
00000010
00000000
00001003
00000100
00001000
00000000
,
00002000
00000000
00000100
00000000
00003001
00000010
00000001
00000000
,
00000010
00000001
00001000
00000001
00000100
00001000
00010000
00000000
,
00110000
01100000
10100000
10010000
,
01000000
00000000
00010000
10000000
00000000
00100000
01000000
00010000
,
01000000
00000000
00010000
00100000
00000000
00001000
00010000
00000100
,
00000010
00000001
00000010
00000100
00000010
00001000
00000010
00000001
,
00000200
00000001
00000010
00001300
,
00010000
00000000
00001000
00010000
00000000
00100000
01000000
00010000
,
01000000
00000000
00100000
01000000
00010000
10000000
00100000
00000000
,
10100000
10010000
00110000
00101000
,
00010010
00001010
00001001
00000000
,
00000010
00000000
00000001
00000200
00000000
00000310
00001000
00000010
,
00000002
00000000
00000013
00002000
00000000
00003100
00000010
00000100
,
00001000
00000001
00000100
00000010
00000000
00000100
00001000
00010000
,
00200000
00010000
02300000
00010000
,
03100000
00000000
10000000
02000000
00000000
03100000
00010000
00100000
,
20000000
00000000
30100000
00020000
00000000
01030000
00100000
01000000
,
00010000
10000000
00100000
02000000
00000000
03100000
10000000
00100000
,
01000000
00010000
00100000
00001000
00010000
00000000
00011000
00000000
,
00000010
00000000
00000100
00000020
00000000
00000130
00001000
00000100
,
00000002
00000000
00000103
00002000
00000000
00003010
00000100
00000010
,
00001000
00000001
00000100
00000010
00001000
00000100
00010000
00001000
,
00200000
00010000
02300000
00010000
,
03100000
00000000
01000000
00200000
00000000
01300000
00010000
01000000
,
20000000
00000000
31000000
00020000
00000000
00031000
00010000
00001000
,
00000010
00000100
00000010
00000001
00000000
00000001
00000010
00000100
,
00001000
00000100
00000010
00000010
00000110
00000000
00001001
00000000
,
00000001
00000100
00000010
00002000
00000000
00003010
00000100
00000000
,
00000100
00001000
00010000
00002000
00000000
00103000
00010000
00000000
,
00010000
01000000
00100000
02000000
00000000
03100000
01000000
00100000
,
10000000
10000000
00010000
00010000
02000000
00000000
03100000
00000000
,
10000000
01000000
00100000
00020000
00000000
00130000
01000000
00000000
,
01000000
00010000
00001000
00020000
00000000
00030100
00001000
00000000
,
00001000
00000100
00000010
00000200
00000000
00000310
00000100
00000000
,
00000100
00001000
00000001
00000100
00000010
00000000
00000110
00000000
,
00001000
00000010
00000200
00000001
00000000
00000010
00000310
00000000
,
00001000
00000100
00020000
00001000
00000000
00000100
00030100
00000000
,
00001000
00100000
00020000
10000000
00000000
01000000
02030000
00000000
,
03200000
20300000
00010000
30100000
,
00010000
00100000
02000000
10000000
00000000
00100000
03100000
00000000
,
00001000
00010000
00000200
00001000
00000000
00010000
00010300
00000000
,
00000010
00000001
00000200
00001000
00000000
00000010
00000320
00000000
,
00020030
00032000
00100000
01003000
,
00100000
01100000
00000000
00000000
00100000
01100000
01000000
10000000
,
00010000
00100000
00010000
00000000
00001000
00010000
00001000
00000000
00000100
00001000
00000100
00000000
00000010
00000000
00000001
00000000
,
00000100
00000110
00000000
00000100
00000100
00000110
00001000
00000001
,
00001000
00000100
00001000
00000000
00010000
00001000
00010000
00000000
00100000
00010000
00100000
01000000
10000000
00000000
10010000
00000000
,
00100000
00000000
10000000
02000000
00000000
03100000
00010000
00100000
,
20000000
00000000
30100000
00020000
00000000
01030000
00100000
01000000
,
00010000
10000000
01000000
00100000
00000000
01000000
00010000
00001000
,
00000020
00001000
00000230
00001000
,
00000310
00000011
00000000
00000101
00000000
00001100
00000000
00000101
,
00000000
00000011
00000000
00001010
00000000
00010010
00000000
00011000
,
00002000
00000000
00000000
00010000
00013000
00001000
00100000
01000000
,
02000000
00000000
00000000
00100000
03100000
00010000
10000000
00010000
,
10010000
00000000
00000000
01100000
00000000
00101000
00000000
00011000
,
00000000
00010000
00001000
00000010
00000001
00000000
00002002
00000000
,
00000000
00000000
00000000
00003003
,
00000000
00000000
00000000
00000000
;
#NOTES:
     dance-double:
     :
     Hard:
     15:
     :
00000000
00000000
00000000
00000000
,
00000000
00000000
00000000
00000000
,
00000000
00000000
00000000
00000000
,
00000000
00000000
00000000
00000000
,
00000000
00000000
00000000
00000000
,
00000001
00000010
00000200
00001000
00000000
00000310
00000001
00001000
00000010
00000100
00002000
00010000
00000000
00103000
00010000
01000000
,
00100000
10000000
00020000
00100000
00000000
01030000
00100000
10000000
00010000
00010000
10000000
10000000
11000000
00000000
00110000
00000000
,
10000000
01000000
00010000
00002000
00003010
00000001
00000100
00000010
,
00001000
00000001
00000100
00000020
00000130
00001000
00010000
00100000
,
01000000
00010000
01000000
00200000
10300000
01000000
00100000
01000000
,
00010000
00000000
00001000
00000000
00010000
00000000
00000100
00000000
00001100
00000000
00000000
00000100
00000010
00000000
00000001
00000000
,
00001001
00000000
00000100
00000020
00000000
00001030
00001000
00000100
,
00000010
00000001
00000100
00000020
00000000
00000130
00001000
00010000
,
00001000
00100000
00001000
00010000
00001000
01000000
00010000
10000000
,
10010000
00000000
11000000
00000000
00110000
00010000
01010000
00000000
,
10000000
01000000
00100000
02000000
00000000
03010000
01000000
10000000
,
00100000
01000000
00001000
00020000
00000000
00031000
00010000
00000100
,
00000010
00000001
00000100
00000010
00001000
00000001
00000010
00000100
,
00001000
00001000
00000001
00000001
00000100
00000010
00000110
00000000
,
00001000
00000100
00000001
00000200
00000000
00001300
00010000
00100000
,
10000000
00100000
00010000
00200000
00000000
10300000
00010000
01000000
,
00200000
10000000
10300000
01000000
00100000
00001000
00010000
00000100
,
00000010
00000100
00000100
00000100
00000000
00000100
00000010
00000001
,
00000100
00001000
00010000
00012000
00000000
00003100
00000010
00010000
,
00001000
00100000
00010000
02010000
00000000
03100000
10000000
00010000
,
20000000
01000000
31000000
00100000
00010000
00001000
00000100
00000010
,
00000000
00000010
00000100
00000010
00000110
00000000
00001001
00000000
,
00001020
00000000
00000000
00001030
00000100
00000000
00000010
00000000
00000001
00001000
00000001
00000000
00000100
00000000
00001000
00000000
,
00010000
00000000
00010000
00000000
00001000
00000000
00100000
00010000
00100000
00000000
01000000
00000000
11000000
00000000
00000000
00000000
,
02000000
10000000
13000000
02000000
00010000
03010000
01000000
10000000
,
00100000
00010000
00001000
00011000
00000000
00010000
00001000
00000010
,
00000210
00000000
00000000
00000310
00000001
00000000
00001000
00000000
00000001
00000100
00000001
00000000
00000100
00000000
00000010
00000000
,
00010000
00000000
00001000
00000000
00001000
00000000
01000000
00010000
01000000
00000000
00100000
00000000
10100000
00000000
00000000
00000000
,
02000000
00010000
00010000
00020000
03000000
10030000
00100000
00010000
,
00001000
00010000
00100000
01000000
01100000
00000000
10010000
00000000
,
02010000
00000000
00000000
03010000
00100000
00000000
01000000
00000000
10000000
00010000
10000000
00000000
01000000
00000000
00010000
00000000
,
00001000
00010000
00001000
00000000
00010000
00000000
00000100
00001000
00000100
00000000
00000010
00000000
00000001
00000010
00000001
00000000
,
00000020
00000001
00000031
00000020
00001000
00001030
00000010
00000001
,
00000100
00001000
00010000
00011000
00000000
00001000
00010000
01000000
,
01200000
00000000
00000000
01300000
10000000
00000000
00010000
00000000
10000000
00100000
10000000
00000000
00100000
00000000
01000000
00000000
,
00001000
00010000
00001000
00000000
00010000
00000000
00000010
00001000
00000010
00000000
00000100
00000000
00000001
00000100
00000001
00000000
,
00000020
00000100
00000130
00002100
00000000
00003001
00000100
00001000
,
00010000
00010000
00011000
00001000
00011000
00000000
01100000
00000000
,
10000000
00100000
01000000
00020000
10000000
10030000
01000000
00010000
,
00001000
00000100
00000010
00000200
00000001
00000301
00000100
00000001
,
00000010
00001000
00010000
00002000
00010000
00013000
00000010
00001000
,
00000100
00000100
00010000
00010000
00010100
00000000
00011000
00000000
,
00001000
00010000
00100000
20000000
01000000
31000000
00100000
00010000
,
01000000
00100000
10000000
00020000
00100000
00130000
00001000
00010000
,
00000100
00001000
00000001
00000200
00000010
00000310
00000100
00001000
,
00010000
00100000
10000000
00010000
10000000
00000000
10010000
00000000
,
10000000
01000000
00010000
00002000
00000000
00013000
00000100
00000010
,
00000001
00000100
00001000
00020000
00000000
00031000
00011000
00000000
,
00001000
00010000
00100000
20000000
00000000
31000000
01100000
00000000
,
00101000
00011000
00010100
00001100
,
00001000
00000001
00000100
00002000
00000000
00013000
00101000
00000000
,
00010000
10000000
01000000
00020000
00000000
00031000
00010100
00000000
,
00001000
00000001
00000010
00002000
00000000
00013000
01001000
00000000
,
00100000
00010000
01000000
00100000
10000000
00010000
01000000
00000000
,
00020000
01000000
00000000
10000000
00000000
01000000
00000000
10030000
02000000
00100000
00000000
00010000
00000000
00100000
00000000
03010000
,
00002000
00010000
00000000
00000100
00000000
00010000
00000000
00003100
00000020
00000001
00000000
00000100
00000000
00000001
00000000
00000130
,
00002000
00010000
00000000
01000000
00000000
00010000
00000000
01003000
00200000
10000000
00000000
01000000
00000000
10000000
00000000
01300000
,
00020000
01000000
00000000
10000000
00000000
00100000
00000000
00031000
00000100
00000010
00000001
00000100
00000010
00000000
00000110
00000000
,
00001020
00000000
00000000
00001030
00000100
00000000
00000010
00000000
00000001
00000100
00000010
00000000
00000100
00000000
00001000
00000000
,
00010000
00001000
00010000
00000000
00001000
00000000
00100000
00010000
01000000
00000000
00100000
00000000
10100000
00000000
00000000
00000000
,
02000000
00010000
03010000
02000000
10000000
13000000
01000000
00010000
,
00100000
00001000
00010000
00010100
00000000
00001000
00000100
00000010
,
00000001
00000101
00000000
00000011
00000000
00001010
00000000
00011000
,
00000000
00110000
00000000
10100000
00000000
11000000
00000000
01010000
,
00012000
00000000
00000000
00000000
00013000
00000100
00001000
00000000
00000020
00000000
00000000
00000000
00001030
00000000
00000001
00000000
,
00001002
00000000
00000000
00000000
00000103
00000010
00001000
00000000
00000200
00000000
00000000
00000000
00010300
00000000
00001000
00000000
,
00021000
00000000
00000000
00000000
00031000
00100000
00010000
00000000
01000000
00000000
00100000
00000000
10000000
00010000
10000000
00000000
,
00000000
11000000
10010000
00110000
00101000
00000000
00022000
00000000
,
00000000
00000000
00000000
00033000
,
00000000
00000000
00000000
00000000
;
#NOTES:
     dance-double:
     :
     Challenge:
     18:
     :
00000000
00000000
00000000
00000000
,
00000000
00000000
00000000
00000000
,
00000000
00000000
00000000
00000000
,
00000000
00000000
00000000
00000000
,
00000000
00000000
00000000
00000000
,
00022000
00000000
00000000
00000000
,
00000000
00000000
00000000
00000000
00000000
00000000
00000000
00033000
,
00010000
00001000
00100000
00000000
00110000
00000000
00010000
01000000
00100000
00000000
10100000
00000000
10000000
01000000
00100000
00000000
,
00001000
00010000
00000010
00000000
00001010
00000000
00001000
00000100
00000010
00000000
00000011
00000000
00000001
00000100
00000010
00000000
,
00010000
00001000
01000000
00000000
01010000
00000000
00010000
00100000
01000000
00000000
11000000
00000000
10000000
00010000
01000000
00000000
,
00100000
01000000
00010000
10000000
01000000
00100000
00010000
00100000
00001000
00010000
00001000
00010000
00000100
00001000
00000010
00000100
,
00000001
00000000
00001000
00000000
00000100
00000000
00001000
00000000
00000010
00000000
00001000
00000000
00000100
00000000
00010000
00001000
,
00100000
00000000
00010000
00000000
01000000
00000000
00010000
00000000
00100000
00000000
00010000
00000000
01000000
00000000
00001000
00010000
,
00000100
00000000
00001000
00000000
00000010
00000000
00001000
00000000
00000100
00000000
00001000
00000000
00000010
00000000
00010000
00001000
,
01000000
00000000
00010000
00000000
00100000
00000000
00010000
00000000
01000000
00000000
00010000
00000000
00100000
00000000
00001000
00010000
,
00000100
00000000
00001000
00000000
00000010
00000000
00010000
00000000
00001000
00000000
00000100
00000000
00000010
00000000
00010000
00001000
,
00100000
00010000
01000000
00001000
00010000
01000000
00100000
00001000
,
00010000
00001000
00010000
00001000
00010000
00001000
01000000
00010000
00100000
00001000
00010000
00001000
00010000
00000100
00001000
00000010
,
00010000
00001000
00010000
00001000
01000000
00010000
00100000
00001000
00010000
00001000
01000000
00010000
00100000
01000000
10000000
00010000
,
01000000
00000000
00100000
00000000
10000000
00000000
01000000
00100000
00010000
00000000
01000000
00100000
00010000
00000000
00001000
00010000
,
00000010
00000000
00001000
00000000
00000001
00000000
00000100
00000010
00001000
00000000
00000100
00000010
00001000
00000000
00000010
00000000
,
00000001
00001000
00000020
00000000
00000100
00000000
00001030
00000001
00000200
00000000
00000010
00000000
00000301
00001000
00000100
00000000
,
00010000
00001000
00200000
00000000
00010000
00000000
00301000
01000000
00020000
00000000
00100000
00000000
10030000
00010000
01000000
00000000
,
00010000
00000000
10000000
00000000
01000000
00000000
00100000
10000000
00100000
00000000
00001000
00010000
00000100
00000000
00001000
00000100
,
00000010
00000000
00000001
00000000
00000100
00000000
00000010
00000001
00000010
00000000
00010000
00001000
01000000
00000000
00010000
01000000
,
00100000
10000000
00010000
10000000
01000000
00010000
00001000
00010000
,
00000010
00001000
00000100
00000010
00000001
00000000
00001001
00000000
,
00001000
00000001
00000010
00000200
00000001
00000000
00001300
00000000
00000100
00010000
00001000
00000000
00100000
01000000
10000000
00000000
,
00010000
10000000
00100000
02000000
10000000
00000000
03010000
00000000
10000000
00010000
00100000
00000000
01000000
10000000
00010000
00000000
,
10000000
01000000
00010000
00000000
00001000
00000000
00010000
00001000
00000010
00000000
00000001
00000000
00000100
00001000
00010000
00000000
,
00100000
10000000
00100000
01000000
00010000
00000000
10000000
00000000
01000000
00000000
00100000
00000000
00010000
00000000
01000000
00000000
,
00010000
10000000
01000000
00200000
10000000
00000000
00310000
00000000
00100000
00001000
00010000
00000000
00000100
00000010
00000001
00000000
,
00001000
00000001
00000100
00000020
00000001
00000000
00001030
00000000
00000010
00010000
00001000
00000000
00010000
00001000
00100000
00000000
,
01000000
10000000
00100000
00000000
01100000
00000000
02000000
00000000
00000000
00000000
13000000
00000000
01000000
00000000
00010000
00000000
,
00110000
00100000
01000000
10000000
10100000
00000000
10010000
00000000
,
00010000
10000000
00100000
02000000
10000000
00000000
03010000
00000000
01000000
00001000
00010000
00000000
00000010
00000100
00000001
00000000
,
00001000
00000001
00000010
00000200
00000001
00000000
00001300
00000000
00000001
00001000
00000010
00000000
00000100
00000001
00001000
00000000
,
00000001
00000100
00001000
00000000
00010000
00000000
00001000
00010000
00100000
00000000
10000000
00000000
01000000
00010000
00001000
00000000
,
00000010
00000001
00000010
00000100
00001000
00000000
00000001
00000000
00000100
00000000
00000010
00000000
00001000
00000000
00000100
00000000
,
00001000
00000001
00000100
00000020
00000001
00000000
00001030
00000000
00000010
00010000
00001000
00000000
01000000
00100000
10000000
00000000
,
00010000
10000000
01000000
00200000
10000000
00000000
00310000
00000000
00100000
00001000
00010000
00000000
00000100
00000010
00000001
00000000
,
00001000
00000001
00000100
00000000
00000010
00000000
00001000
00000100
00001000
00000001
00000100
00000001
00000010
00000100
00001000
00000000
,
00001010
00010000
00011000
01000000
01010000
00000000
10010000
00000000
,
10000000
00100000
01000000
00010000
00100000
00000000
00001000
00010000
01000000
00000000
00100000
00000000
00001000
00010000
00000100
00000000
,
00001000
00000010
00000100
00000001
00001000
00000000
00000010
00000100
00001000
00000000
00010000
00000000
00001000
00100000
00010000
00000000
,
10000000
00100000
01000000
00010000
00100000
00000000
01000000
10000000
00100000
00000000
00010000
00000000
00001000
00100000
00010000
00000000
,
00120000
10030000
02010000
03001000
00120000
10030000
02010000
03001000
,
00010000
00001000
00010000
00000100
00001000
00000000
00000010
00010000
00001000
00000000
00010000
00000000
00001000
00000010
00000100
00000000
,
00010000
00001000
00010000
00000010
00001000
00000000
00000100
00010000
00001000
00000000
00010000
00000000
00001000
00000100
00000010
00000000
,
00001000
00001100
00000001
00000101
00001000
00001100
00000001
00000101
,
00001000
00000001
00000010
00000100
00001000
00000100
00010000
00001000
00010000
00001000
00100000
00010000
00100000
01000000
10000000
00010000
,
01000000
00000000
00100000
00000000
10000000
00000000
00010000
10000000
01000000
00000000
00100000
00001000
00010000
00000000
00001000
00000010
,
00000001
00000000
00001000
00000000
00000010
00000000
00000100
00000001
00001000
00000000
00000010
00010000
00001000
00000000
00010000
00100000
,
10000000
00000000
01000000
00000000
00100000
00000000
00010000
10000000
01000000
00000000
00010000
00001000
00010000
00000000
00000100
00000010
,
00000001
00000000
00000010
00000000
00000100
00000000
00001000
00000001
00000100
00000000
00001000
00010000
00001000
00000000
01000000
00100000
,
10000000
00000000
00010000
00000000
01000000
00000000
00010000
10000000
01000000
00000000
00010000
00001000
00000010
00000000
00000001
00001000
,
00000010
00000000
00000100
00000000
00000001
00000000
00001000
00000001
00000100
00000000
00001000
00010000
00100000
00000000
10000000
00010000
,
01000000
00000000
00100000
00000000
10000000
00000000
00010000
10000000
01000000
00000000
00010000
00001000
00000010
00000000
00000001
00000100
,
00000010
00000000
00001000
00000000
00000001
00000010
00000100
00001000
00000010
00010000
00001000
01000000
00200000
00000000
00000000
00000000
,
10300000
01000000
00100000
00010000
01000000
00100000
00010000
00001000
00100000
00010000
00001000
00000100
00000010
00000001
00001000
00000010
,
00000100
00001000
00010000
00000100
00001000
00010000
00100000
01000000
10000000
00010000
01000000
00100000
00010000
00001000
00000100
00000010
,
00010000
00000000
00001000
00020000
00000000
00000000
00030100
00000000
00001000
00000100
00000010
00000001
00000000
00000100
00000010
00001000
,
00000100
00010000
00001000
00000010
00000000
00000100
00000000
00010000
00001000
00010000
00100000
01000000
00010000
00000000
10010000
00000000
,
10000000
01000000
00100000
00010000
00100000
00000000
01000000
00000000
00010000
00001000
00000010
00000000
00000001
00001000
00000010
00000000
,
00000100
00000001
00000100
00000010
00001000
00000000
00000010
00000000
00000100
00001000
00010000
00000000
00100000
10000000
00010000
00000000
,
10000000
02000000
00010000
00000000
03100000
00000000
01100000
00000000
00100000
00001000
00010000
00000000
00000100
00000000
00000010
00000000
,
00000001
00000200
00001000
00000000
00000310
00000000
00000110
00000000
00001000
00000010
00010000
00000000
00001000
00000000
00100000
00000000
,
00001000
00020000
00100000
00000000
00031000
00020000
00000010
00000000
00031000
00020000
00000100
00000000
00031000
00020000
01000000
00000000
,
00031000
00020000
00000100
00000000
00031000
00020000
00000010
00000000
00031000
00010000
00100000
00000000
01000000
00010000
00100000
00000000
,
00001000
00000000
00010000
00000000
00010000
00000000
00001000
00000000
00000100
00000000
00000000
00000000
00000001
00000010
00000100
00001000
,
00000010
00000000
00010000
00000000
00001000
00000000
00010000
00000000
01000000
00000000
00000000
00000000
10000000
00100000
01000000
00010000
,
00100000
00000000
00001000
00000000
00010000
00000000
00001000
00000000
00000000
00000000
00000100
00000001
00000010
00000100
00001000
00000000
,
00000000
00011000
00010010
00011000
00101000
00000000
00022000
00000000
,
00000000
00000000
00000000
00000000
,
00033000
00000000
00000000
00000000
,
00000000
00000000
00000000
00000000
;
