
//----- song ID: sasu -----//
#TITLE:Sakura Sunrise;
#ARTIST:Ryu☆;
#BANNER:Sakura Sunrise.png;
#BACKGROUND:Sakura Sunrise-bg.png;
#CDTITLE:./CDTitles/DDR X2.png;
#MUSIC:Sakura Sunrise.ogg;
#SAMPLESTART:11.94;
#SAMPLELENGTH:15;
#BPMS:0=181;
#NOTES:
     dance-single:
     :
     Beginner:
     3:
     :
0000
0000
0000
0000
,
0000
0000
0000
0000
,
0000
0000
0000
0000
,
0000
0000
0000
0000
,
0000
0000
0000
0000
,
0010
0000
0000
0000
,
1000
0000
0000
0000
,
0001
0000
0000
0000
,
0100
0000
0000
0000
,
0010
0000
0000
0000
,
1000
0000
1000
0000
,
0010
0000
0000
0000
,
0001
0000
0001
0000
,
0010
0000
0000
0000
,
1000
0000
1000
0000
,
0010
0000
0000
0000
,
0001
0000
0001
0000
,
0100
0000
0000
0000
,
1000
0000
1000
0000
,
0100
0000
0000
0000
,
0001
0000
0001
0000
,
0010
0000
0000
0000
,
0100
0000
0100
0000
,
0100
0000
0000
0000
,
0010
0000
0010
0000
,
1001
0000
0000
0000
,
1001
0000
0000
0000
,
1001
0000
0000
0000
,
1001
0000
0000
0000
,
0110
0000
0000
0000
,
0110
0000
0000
0000
,
0110
0000
0000
0000
,
0110
0000
0000
0000
,
1000
1000
0000
0000
,
0100
0100
0000
0000
,
0001
0001
0000
0000
,
0010
0010
0000
0000
,
1000
1000
0000
0000
,
0100
0100
0000
0000
,
0010
0010
0000
0000
,
0001
0001
0000
0000
,
1000
0000
0000
0000
,
0001
0000
0000
0000
,
0010
0000
0000
0000
,
0100
0000
0000
0000
,
1000
0000
0000
0000
,
0001
0000
0000
0000
,
0010
0000
0000
0000
,
1001
0000
0000
0000
,
1001
0000
0000
0000
,
0000
0000
0000
0000
,
0010
0010
0010
0000
,
0010
0000
0000
0000
,
1000
0000
1000
0000
,
0010
0000
0000
0000
,
0001
0000
0001
0000
,
0100
0000
0000
0000
,
1000
0000
1000
0000
,
0100
0000
0000
0000
,
0001
0000
0001
0000
,
0010
0010
0010
0000
,
1000
0000
1000
0000
,
0010
0010
0010
0000
,
0001
0000
0001
0000
,
0100
0100
0100
0000
,
1000
0000
1000
0000
,
0100
0100
0100
0000
,
0001
0000
1000
0000
,
1001
0000
0000
0000
,
0000
0000
0000
0000
;
#NOTES:
     dance-single:
     :
     Easy:
     7:
     :
0000
0000
0000
0000
,
0000
0000
0000
0000
,
0000
0000
0000
0000
,
0000
0000
0000
0000
,
0000
0000
0000
0000
,
0010
0010
1000
1000
,
0001
0100
0010
0000
,
0001
0001
0100
0100
,
0000
0001
1000
0001
0000
0100
0100
0000
,
0010
1000
0001
0100
,
1001
0110
1001
0000
,
0010
0001
1000
0100
,
1001
0110
1001
0000
,
1000
0100
0010
0001
,
0110
1001
0110
0000
,
0001
0100
0010
1000
,
0000
0010
0100
0010
0000
0100
0100
0000
,
1000
1000
0001
0001
,
0110
1001
0110
0000
,
0010
0010
0100
0100
,
1001
0110
1001
0000
,
0002
1003
2000
3001
,
0110
1001
0110
0000
,
0010
0100
0001
1000
,
0000
0010
0100
0010
0000
0100
0100
0000
,
1000
1000
0100
0100
,
0010
0010
0001
0001
,
0010
1000
0100
0010
,
0001
0100
1000
0000
,
0010
1000
0010
0010
,
1000
0100
0010
0010
,
0001
0100
0010
0010
,
1000
0001
1001
0000
,
1000
0100
1000
0000
,
0001
0100
0001
0000
,
0010
1000
0010
0000
,
0010
0001
0010
0000
,
0010
1000
0002
2003
,
3001
1000
0020
0230
,
0310
0100
0002
2003
,
3001
1000
0200
0320
,
0032
0000
2003
0000
,
3001
0010
1001
0000
,
0002
0000
2003
0000
,
3001
0010
1001
0000
,
1000
1000
0001
0001
,
0010
0010
0100
0100
,
0001
1000
0001
0000
1000
0001
1000
0000
,
0000
0010
0100
0010
0000
0100
0100
0000
,
0000
0100
0010
0100
0000
0010
0010
0000
,
2000
0000
0002
3003
,
0010
0100
2002
3003
,
0010
1000
0001
0100
,
1001
0110
1001
0000
,
0010
0001
1000
0100
,
1001
0110
1001
0000
,
1000
0100
0010
0001
,
0110
1001
0110
0000
,
0001
0100
0010
1000
,
0000
0010
0100
0010
0000
0100
0100
0000
,
1000
0010
0100
0001
,
1000
0001
1000
0000
1001
0000
0000
0000
,
0001
0100
0010
1000
,
0001
1000
0001
0000
1001
0000
0000
0000
,
1000
0001
0010
0100
,
0010
0100
0010
0000
1001
0000
0000
0000
,
0010
0100
0001
1000
,
0000
0010
0100
0010
0000
0100
0100
0000
,
2002
0000
0000
0000
,
0000
0000
0000
3003
,
0000
0000
0000
0000
;
#NOTES:
     dance-single:
     :
     Medium:
     10:
     :
0000
0000
0000
0000
,
0000
0000
0000
0000
,
0000
0000
0000
0000
,
0000
0000
0000
0000
,
0000
0000
0000
0000
,
1000
1100
0001
0101
,
0010
0100
2002
3003
,
0001
0101
1000
1100
,
0000
0010
0001
0100
0000
0010
0010
0000
,
1000
0100
2000
0000
3001
0010
0001
1000
,
0001
0100
0001
0010
0001
0000
1000
0010
,
0100
0001
0100
0000
1000
0010
1000
0001
,
2000
0000
3002
0000
2003
0000
3010
0100
,
0001
0100
0001
0000
1000
0010
1000
0001
,
1000
0100
1000
0010
2000
0000
3001
0010
,
0100
1000
0100
0000
1000
0010
0100
0001
,
0000
0100
0010
0100
0000
0010
0010
0000
,
0001
0010
0100
0000
1000
0010
0100
0000
,
0110
0000
1001
0000
0110
0000
0001
0010
,
0100
1000
0100
0000
1000
0010
0100
0000
,
1001
0000
0110
0000
1001
0000
1000
0010
,
0100
0001
0010
0000
0001
0100
0010
0000
,
0110
0000
1001
0000
0110
0000
0010
0100
,
0010
1000
0001
0000
0100
0010
0001
1000
,
0000
0001
0010
0100
0000
0010
0010
0000
,
0001
0000
0100
0000
1000
0010
1000
0000
,
0100
0000
1000
0000
0001
0010
0001
0000
,
0010
0000
0100
0000
1000
0001
1000
0000
,
1010
0011
2002
3003
,
0010
0000
0100
0000
1000
1000
0100
0000
,
0010
0000
0100
0000
0001
0001
0100
0000
,
0001
0000
1000
0000
0100
0100
0010
0000
,
1001
0000
1001
0000
0010
0010
0100
0000
,
0010
0000
1100
0000
0001
0010
0001
0000
,
0100
0000
0011
0000
1000
0100
1000
0000
,
0100
0000
1010
0000
0001
0100
0001
0000
,
0000
0010
0000
0100
0000
1000
0001
1000
,
0010
0000
1100
0000
0001
0010
0001
0000
,
0010
0000
0101
0000
1000
0100
1000
0000
,
0000
0001
0000
1000
0000
0010
0100
0010
,
0000
1000
0100
0010
0000
0100
1001
0000
,
2000
3100
0002
0103
,
0010
0000
0100
0000
1001
0000
0001
0100
,
0002
0103
2000
3100
,
0010
0000
0100
0000
1001
0000
1000
0100
,
1000
0100
0010
0000
0001
0100
0010
0000
,
1010
0000
0011
0000
1001
0000
0001
0010
,
0100
1000
0100
0000
1000
0100
0010
0001
,
0000
1000
0100
1000
0000
0010
0010
0000
,
0000
0001
0100
0001
0000
0010
0010
0000
,
0002
0000
2000
3003
,
0010
0100
2002
3003
,
0001
0010
0002
0000
1003
0100
1000
0001
,
1000
0010
1000
0100
1000
0000
0001
0100
,
0010
1000
0010
0000
0001
0100
0001
1000
,
0002
0000
2003
0000
3002
0000
0103
0010
,
1000
0010
1000
0000
0001
0100
0001
1000
,
0001
0010
0001
0100
0002
0000
1003
0100
,
0010
0001
0010
0000
0001
0100
0010
1000
,
0000
0100
0010
0100
0000
0010
0010
0000
,
1000
0100
0010
0000
0001
0100
0010
0000
,
1010
0000
1100
0000
1001
0000
1000
0100
,
0010
0001
0010
0000
1000
0100
0010
0000
,
0011
0000
0101
0000
1001
0000
0001
0010
,
0100
1000
0010
0000
0100
0001
0010
0000
,
0110
0000
1001
0000
0110
0000
0001
0010
,
0100
0010
0001
0000
1000
0100
0010
0100
,
0000
0001
0010
0100
0000
0010
0010
0000
,
2002
0000
0000
0000
,
0000
0000
0000
3003
,
0000
0000
0000
0000
;
#NOTES:
     dance-single:
     :
     Hard:
     14:
     :
0000
0000
0000
0000
,
0000
0000
0000
0000
,
0000
0000
0000
0000
,
0000
0000
0000
0000
,
0000
0000
0000
0000
,
0002
0000
0103
0000
1000
0100
0001
0000
,
1000
0010
0001
0000
0200
0000
1300
0000
,
0002
0000
1003
0000
1000
0010
0001
0010
,
0000
0100
0010
0100
0000
1001
1001
0000
,
1000
0100
0010
0000
0001
0100
0010
1000
,
1010
0000
1100
0000
2001
0000
3001
0010
,
0001
0100
0010
0000
1000
0010
0100
0001
,
0011
0000
0101
0000
1002
0000
1003
0100
,
0001
0100
1000
0000
0001
0010
1000
0010
,
0100
1000
0010
0100
0002
0000
1003
0010
,
0001
0010
1000
0000
0001
0100
1000
0100
,
0000
0010
0100
0010
0000
1001
1001
0000
,
0010
1000
0100
0000
0010
0001
0100
0010
,
1010
0000
1100
0010
0012
0000
1003
0100
,
0010
0001
0100
0000
0010
1000
0100
0010
,
0011
0000
0101
0010
2010
0000
3001
0010
,
1000
0010
0100
0000
0100
0001
0100
1000
,
1010
0000
0110
0100
0102
0000
1003
0100
,
0001
0100
2000
0000
3001
0100
1000
0100
,
0000
0010
0100
0010
0000
1001
1001
0000
,
1000
0001
0010
0100
0010
0001
0001
0100
,
0010
0001
0100
1000
1000
0010
0001
0001
,
0020
0000
1000
1030
0200
0010
0310
0000
,
1001
0000
0110
0000
1001
0100
0010
0000
,
0020
0000
1030
0100
0010
0001
0100
0000
,
0001
0010
0001
0100
1000
0200
0000
0310
,
1000
0100
1000
0000
0001
0100
0001
0000
,
0010
0100
0001
0100
1000
0100
1001
0000
,
1000
0000
0010
0000
0010
0000
1000
0000
0010
0000
1000
0010
0000
1000
0010
0000
,
1000
0000
0100
0000
0100
0000
0010
0000
0001
0000
0100
0001
0000
0100
0001
0000
,
0010
0000
1000
0000
1000
0000
0010
0000
0001
0000
0100
0001
0000
0100
0001
0000
,
0100
0000
1000
0000
1000
0000
0100
0000
0001
0000
0100
0010
0000
0100
0001
0000
,
0010
0000
0100
0000
0100
0000
0010
0000
0001
0000
0100
0010
0000
0100
0010
0000
,
1000
0000
0100
0000
0100
0000
1000
0000
0001
0000
0010
0100
0000
0010
0100
0000
,
1000
0000
0010
0000
0010
0000
0001
0000
0010
0000
1000
0010
0000
1000
0100
0000
,
0010
0000
0001
0000
0001
0000
0010
0000
0100
0000
1000
0010
0000
0100
0001
0000
,
2000
0000
0000
3000
,
1010
0101
1100
0000
,
0002
0000
0000
0003
,
0011
0000
1100
0000
0101
0000
0001
0010
,
1000
0010
0001
0100
1000
0100
0001
0010
,
1000
0010
0001
0100
0110
0000
1000
0010
,
0001
0010
2000
0000
3010
1000
0100
0010
,
0000
0001
0010
0100
0000
1001
1001
0000
,
0000
1000
0010
0100
0000
1001
1001
0000
,
0002
0000
2000
3003
,
0010
0100
2002
3003
,
0100
0001
0010
0000
0100
1000
0010
0100
,
0101
0000
0011
0100
2100
0000
3001
0010
,
0100
1000
0010
0000
0100
0001
0010
0100
,
1100
0000
1010
0100
0102
0000
1003
0100
,
0001
0100
0010
0000
0010
1000
0010
0001
,
0101
0000
0110
0010
2010
0000
3001
0010
,
1000
0010
0002
0000
1003
0010
0001
0010
,
0000
0100
0010
0100
0000
1001
1001
0000
,
0001
0010
2000
0000
3010
0001
0100
0010
,
1010
0001
0011
0010
0110
0000
0001
0100
,
1000
0100
0010
0000
0010
1000
0100
0010
,
0011
1000
1010
0100
1100
0000
1000
0100
,
1000
0100
0010
0000
0001
0100
0010
0100
,
1010
1000
1100
0001
2001
0000
3001
0100
,
0010
0000
1000
0000
0010
0100
0010
0100
0010
0000
1000
0000
0001
0000
0100
0000
,
0000
0010
1000
0100
0000
0110
0110
0000
,
2002
0000
0000
0000
,
0000
0000
0000
3003
,
0000
0000
0000
0000
;
#NOTES:
     dance-single:
     :
     Challenge:
     16:
     :
0000
0000
0000
0000
,
0000
0000
0000
0000
,
0000
0000
0000
0000
,
0000
0000
0000
0000
,
0000
0000
0000
0000
,
1000
0000
0100
0000
0020
0000
0000
0000
0130
0010
0100
0000
1000
0000
0001
0000
,
0100
0010
0100
0000
0010
0000
1000
0000
0002
0000
0000
0000
1003
0000
0010
0000
,
0100
0010
0100
0000
0002
0000
0000
0000
1003
0010
0100
0000
0001
0000
0010
0000
,
0000
1000
0010
0001
0000
0110
0110
0000
,
0010
0001
0010
0000
0021
0000
0000
0000
0031
0100
0010
0000
1000
0000
0100
0000
,
1000
0100
0010
0000
0001
0100
0010
0000
2000
0000
0100
0000
0100
0000
3100
0000
,
0010
0001
1000
0000
1020
0000
0000
0000
1030
0010
0100
0000
0001
0000
0100
0000
,
0002
0013
2000
3010
0200
0010
0010
0310
,
0100
1000
0001
0000
2001
0000
0000
0000
3001
1000
0010
0000
0100
0000
0010
0000
,
1000
0001
0010
0000
0001
1000
0100
0000
0020
0000
0100
0000
0100
0000
0130
0000
,
0010
0001
1000
0000
1002
0000
0000
0000
1003
0001
0010
0000
0001
1000
0010
0000
,
0000
1100
0101
0110
0000
1001
1001
0000
,
0001
0000
0010
0000
1020
0000
0000
0000
1030
0010
1000
0010
0100
0001
0100
0001
,
0010
0001
0011
0010
2100
0000
3100
0010
,
0110
0000
0100
0000
2100
0000
0000
0000
3001
0010
0001
0010
0100
1000
0100
1000
,
0010
0010
0100
0100
0210
0000
0310
1000
,
0011
0000
0010
0000
0102
0000
0000
0000
1003
0010
1000
0010
0100
0001
0100
0001
,
0010
0100
1100
0010
0012
0000
1003
0010
,
0100
0010
0100
0000
0120
0000
0000
0000
1030
0000
0010
0000
0001
0000
0010
0000
,
0000
0110
1100
0101
0000
0110
0110
0000
,
1000
0010
1000
0000
0100
0000
0010
0000
0100
0000
0100
0000
0010
0000
0000
0000
,
0001
0010
0001
0000
0100
0000
0000
0000
0010
1000
0010
0000
0100
0000
0000
0000
,
1001
0000
0100
1001
0010
1001
0100
0000
,
1001
0010
1001
0100
0010
1000
1001
0000
,
1001
0000
0010
1000
0100
0010
0010
0000
,
0001
0010
0001
0000
0100
0000
0100
0000
0010
0000
0100
0000
0100
0000
0100
0000
,
1001
0000
0000
0000
0100
0000
0010
0000
0001
0100
0001
0000
1001
0000
0000
0000
,
1001
0100
1001
0100
0001
0010
0110
0000
,
1000
0000
0100
0000
0100
0000
1000
0000
0100
0000
1000
0100
0000
1000
0001
0000
,
0010
0000
0001
0000
0001
0000
0010
0000
0001
0000
0010
0001
0000
1000
0001
0000
,
1000
0000
0001
0000
0001
0000
1000
0000
0001
0000
1000
0010
0000
0100
0001
0000
,
0100
0110
0000
1010
0000
0101
1010
0110
,
0010
0000
0100
0000
0100
0000
0010
0000
0100
0000
0010
1000
0000
0010
0100
0000
,
0001
0000
0100
0000
0100
0000
0001
0000
0100
0000
0001
0100
0000
0001
0010
0000
,
0001
0011
0000
1100
0000
1001
0110
0101
,
0000
1001
0110
1010
0000
1001
1001
0000
,
1000
0010
0200
0000
0301
0010
1000
0010
,
0001
1000
0010
0001
0020
0000
0130
0001
,
0010
0001
2000
0000
3001
0010
1000
0010
,
0011
0000
1100
0000
0101
0000
0010
0100
,
0010
1000
0010
1000
0001
0100
0001
0100
,
0001
0010
0001
0010
0100
1000
0100
1000
,
0010
1000
0010
1000
0001
0100
0001
0100
0001
0010
0001
0010
0100
1000
0100
1000
,
0000
0010
0100
0010
0000
0110
0110
0000
,
0000
0001
1000
0001
0000
1001
1001
0000
,
0002
0000
2000
3003
,
0010
0100
2002
3003
,
0010
1000
0010
0000
1020
0000
0000
0000
1030
0100
0010
0000
0001
0000
0100
0000
,
0001
0100
0010
0000
1000
0100
0010
0000
0002
0000
0100
0000
0100
0000
0103
0000
,
0010
1000
0001
0000
0021
0000
0000
0000
0031
0010
0100
0000
1000
0000
0100
0000
,
2000
3010
0002
0013
0200
0010
0010
0310
,
0100
0001
1000
0000
1002
0000
0000
0000
1003
0001
0010
0000
0100
0000
0010
0000
,
0001
1000
0010
0000
1000
0001
0100
0000
0020
0000
0100
0000
0100
0000
0130
0000
,
0010
1000
0001
0000
2001
0000
0000
0000
3001
1000
0010
0000
1000
0001
0010
0000
,
0000
0101
1100
0110
0000
1001
1001
0000
,
1000
0000
0010
0000
0021
0000
0000
0000
0031
0010
0001
0010
0100
1000
0100
1000
,
0010
1000
0010
0000
0100
0001
0100
0000
2001
0000
0000
0000
3010
0000
0100
0000
,
0110
0000
0100
0000
0102
0000
0000
0000
1003
0010
1000
0010
0100
0001
0100
0001
,
0010
0001
0010
0000
0100
1000
0100
0000
0210
0000
0000
0000
0310
0000
0001
0000
,
1001
0000
0100
0000
2100
0000
0000
0000
3001
0010
0001
0010
0100
1000
0100
1000
,
0010
1000
0100
0000
0010
0001
0100
0000
2001
0000
0000
0000
3001
0000
0010
0000
,
0100
0010
0100
0000
1000
0010
0100
0001
0010
0000
0100
0000
1000
0000
0010
0000
,
0000
0110
0101
1100
0000
0110
0110
0000
,
1001
0000
0000
0000
,
0000
0000
0000
0000
;
#NOTES:
     dance-double:
     :
     Easy:
     8:
     :
00000000
00000000
00000000
00000000
,
00000000
00000000
00000000
00000000
,
00000000
00000000
00000000
00000000
,
00000000
00000000
00000000
00000000
,
00000000
00000000
00000000
00000000
,
00010000
01000000
10000000
01000000
,
00001000
00010000
00000100
00000000
,
00000100
00000000
00001000
00000000
00010000
00010000
00001000
00001000
,
00000000
00010000
00010000
00001000
00000000
00010000
00001000
00000000
,
00010000
00001000
00000010
00000001
,
00002000
00003001
00011000
00000000
,
00001000
00010000
00100000
10000000
,
20000000
30010000
00011000
00000000
,
00001000
00000020
00000031
00000100
,
00001000
00020000
00031000
00000000
,
00010000
00200000
10300000
01000000
,
00000000
00010000
00010000
00001000
00000000
00010000
00001000
00000000
,
00001000
00000100
00000001
00001000
,
00001001
00001001
00011000
00000000
,
00010000
01000000
10000000
00010000
,
10010000
10010000
00011000
00000000
,
00001000
00000010
00000001
00001000
,
00001001
00001001
00011000
00000000
,
00010000
00100000
10000000
00010000
,
00000000
00001000
00001000
00010000
00000000
00001000
00010000
00000000
,
00010000
00010000
00001000
00001000
,
00000100
00000100
00000001
00000001
,
00000100
00001000
00010000
00010000
,
01100000
00011000
00011000
00000000
,
00010000
00010000
00001000
00000010
,
00000100
00000010
00000110
00000000
,
00000010
00001000
00001000
00010000
,
00100000
00010000
00001000
00000100
,
00000001
00000000
00000010
00000000
00000001
00000010
00000100
00000000
,
00000010
00000100
00001000
00000110
,
00001000
00000000
00000010
00000000
00000010
00010000
00001000
00000000
,
00001000
00010000
01000000
10000000
,
10000000
00000000
00100000
00000000
10000000
00100000
01000000
00000000
,
00100000
01000000
00010000
01100000
,
00100000
00000000
00010000
00000000
00100000
00001000
00010000
00000000
,
00010000
00001000
00000100
00000001
,
00000002
00000000
00002003
00003000
,
00020000
02030000
23000000
30000000
,
20000000
00000000
30020000
00030000
,
00002000
00003200
00000302
00000003
,
00000001
00000010
00001000
00000100
,
00000001
00000100
00001000
00000000
00001000
00000000
00010000
00000000
,
01000000
10000000
00100000
10000000
,
00000000
00100000
00100000
01000000
00000000
00001000
00010000
00000000
,
00000000
00010000
00010000
00001000
00000000
00001000
00010000
00000000
,
02000000
03000000
00000200
00000300
,
00010000
00001000
00022000
00033000
,
00001000
00000100
00000001
00001000
,
00001001
00001001
00011000
00000000
,
00010000
01000000
10000000
00010000
,
10010000
10010000
00011000
00000000
,
00001000
00000010
00000001
00000100
,
00001001
00001001
00011000
00000000
,
00010000
00100000
10000000
01000000
,
00000000
00010000
00010000
00001000
00000000
00010000
00001000
00000000
,
00001000
00000000
00000100
00000000
00000010
00001000
00000001
00000000
,
00000110
00001001
00011000
00000000
,
00010000
00000000
01000000
00000000
00100000
00010000
10000000
00000000
,
01100000
10010000
00011000
00000000
,
00010000
00000000
01000000
00000000
10000000
01000000
00010000
00000000
,
00011000
00011000
00011000
00000000
,
00001000
00000010
00000001
00000100
,
00000000
00001000
00010000
00001000
00000000
00010000
00001000
00000000
,
00022000
00000000
00000000
00000000
,
00000000
00000000
00000000
00033000
,
00000000
00000000
00000000
00000000
;
#NOTES:
     dance-double:
     :
     Medium:
     10:
     :
00000000
00000000
00000000
00000000
,
00000000
00000000
00000000
00000000
,
00000000
00000000
00000000
00000000
,
00000000
00000000
00000000
00000000
,
00000000
00000000
00000000
00000000
,
20000000
00000000
30100000
00000000
00100000
00010000
00001000
00000000
,
00000010
00000000
00001000
00000100
00000010
00000000
00000002
00000000
,
00000013
00002000
00003100
00010000
,
00000000
00001000
00010000
00000100
00000000
00011000
00011000
00000000
,
00100000
00010000
01000000
00000000
00100000
10000000
01000000
00000000
,
00110000
00011000
01001000
00000000
,
00000010
00001000
00000100
00000000
00000010
00000001
00000100
00000000
,
00001010
00011000
00010010
00000000
,
00001000
00010000
01000000
00000000
01000000
10000000
00100000
00000000
,
10100000
10010000
10100000
00000000
,
01000000
00010000
00001000
00000000
00010000
00001000
00000100
00000001
,
00000000
00000001
00000010
00000100
00000000
00001001
00001001
00000000
,
00000010
00000100
00000010
00000000
00000010
00000001
00000100
00000000
,
00001010
00000000
00011000
00000000
00120000
00000000
01030000
00100000
,
01000000
00100000
01000000
00000000
01000000
00010000
00100000
00000000
,
01010000
00000000
00011000
00000000
00002100
00000000
00003010
00000100
,
00000010
00000100
00000010
00000000
00000010
00001000
00000100
00000010
,
00000002
00000000
00000203
00000000
00002300
00000000
00013000
01000000
,
10000000
01000000
00100000
00000000
00100000
00010000
01000000
10000000
,
00000000
10000000
01000000
00010000
00000000
00001000
00010000
00000000
,
00001000
00010000
00000100
00000000
00000100
00001000
00000010
00000000
,
00000010
00001000
00000001
00000000
00000001
00000010
00000100
00000000
,
00000100
00001000
00010000
01000000
,
01000000
00010000
00001000
00000100
00000010
00000000
00000110
00000000
,
00000100
00001000
00010000
01000000
,
01000000
00010000
00001000
00000100
00000010
00000100
00000000
00000000
,
00000100
00001000
00010000
01000000
,
01000000
00010000
00001000
00000100
00000010
00000100
00000010
00000000
,
00000010
00000000
00001001
00000000
00000001
00000100
00000001
00000000
,
00000010
00000000
00001100
00000000
00001000
00000100
00001000
00000000
,
00000100
00000000
00011000
00000000
00001000
00010000
00001000
00000000
,
00100000
00010000
00000000
10000000
00000000
10000000
01000000
00010000
,
01000000
00000000
10010000
00000000
10000000
01000000
10000000
00000000
,
00100000
00000000
01010000
00000000
00010000
01000000
00010000
00000000
,
01000000
00010000
00000000
00001000
00000000
00010000
00001000
00000100
,
00000000
00001000
00000100
00000001
00000000
00000001
00000100
00000000
,
00000001
00001000
00000010
00001000
,
00000100
00010000
00120000
00030000
,
10000000
00010000
00100000
00010000
,
01000000
00000000
00011000
00000000
00001020
00000000
00001030
00000001
,
00000100
00000001
00000100
00000000
00001000
00000100
00001000
00000100
,
00010000
00001000
00100000
00010000
10000000
00000000
00010000
01000000
,
00100000
10000000
00010000
00000000
10000000
01000000
00010000
00001000
,
00000000
00010000
00001000
00000100
00000000
00000010
00000100
00000000
,
00000000
00000100
00001000
00010000
00000000
00001000
00010000
00000000
,
02000000
03000000
00000200
00000300
,
00010000
00001000
00022000
00033000
,
00100000
00010000
01000000
00000000
00100000
10000000
01000000
00000000
,
00110000
00011000
01001000
00000000
,
00000010
00001000
00000100
00000000
00000010
00000001
00000100
00000000
,
00001010
00011000
00010010
00000000
,
00001000
00010000
01000000
00000000
01000000
10000000
00100000
00000000
,
10100000
10010000
10100000
00000000
,
01000000
00010000
00001000
00000000
00010000
00001000
00000100
00000001
,
00000000
00000001
00000010
00000100
00000000
00001001
00001001
00000000
,
00000010
00000001
00000100
00000000
00000010
00000001
00000100
00001000
,
00010000
01000000
10000000
01000000
00100000
00000000
00100000
00010000
,
01000000
10000000
01000000
00000000
00100000
10000000
01000000
00100000
,
00020000
00000000
10030000
00000000
01100000
00000000
01000000
00010000
,
00100000
00010000
01000000
00000000
00100000
10000000
01000000
00010000
,
00001000
00000100
00000001
00000010
00000100
00000000
00001000
00000001
,
00000100
00000001
00000010
00000000
00000010
00000100
00001000
00000100
,
00000000
00001000
00000100
00010000
00000000
00011000
00011000
00000000
,
00022000
00000000
00000000
00000000
,
00000000
00000000
00000000
00033000
,
00000000
00000000
00000000
00000000
;
#NOTES:
     dance-double:
     :
     Hard:
     15:
     :
00000000
00000000
00000000
00000000
,
00000000
00000000
00000000
00000000
,
00000000
00000000
00000000
00000000
,
00000000
00000000
00000000
00000000
,
00000000
00000000
00000000
00000000
,
00002000
00003100
00020000
00030010
,
00000100
00000000
00000100
00000010
00001000
00000000
00000100
00000000
,
00001000
00000000
00010000
00000000
00010000
00100000
10000000
00100000
,
00000000
00100000
00010000
01000000
00000000
00100000
01000000
00000000
,
10000000
01000000
10000000
00000000
10000000
01000000
10000000
00100000
,
00010000
00000010
00001000
00000010
00000100
00000000
00000010
00000100
,
00000001
00000010
00000100
00000000
00000001
00000010
00001000
00100000
,
00101000
00000000
01010000
00000000
10010000
00000000
00100000
00010000
,
10000000
01000000
00010000
00000000
10000000
01000000
00010000
00000100
,
00001000
00000100
00000010
00000001
00000100
00000000
00000100
00001000
,
00000010
00000100
00000001
00000000
00000001
00000100
00001000
00010000
,
00000000
10000000
01000000
00010000
00000000
01000000
00100000
00000000
,
10000000
00010000
01000000
00000000
01000000
00100000
00010000
00001000
,
00000100
00000010
00000001
00000010
00000100
00000000
00000110
00000001
,
00000100
00001000
00010000
00000000
00010000
01000000
10000000
00100000
,
01100000
00000000
10010000
00000000
00102000
00000000
01003000
00100000
,
00010000
00001000
00000100
00000000
00000100
00000001
00000010
00001000
,
00010000
00000010
00000100
00000010
00000110
00000000
00000001
00000010
,
00000100
00010000
00002000
00000000
00013000
00100000
10000000
01000000
,
00000000
10000000
01000000
10000000
00000000
10010000
10010000
00000000
,
10000000
01000000
00100000
00010000
00100000
01000000
01000000
00010000
,
01000000
01000000
10010000
00000000
00100000
00100000
00011000
00000000
,
00001000
00001000
00000010
00000010
00000001
00000010
00001000
00000010
,
00000001
00000100
00001000
00100000
01000000
00010000
01000000
00000000
,
02100000
00000000
03010000
01000000
10000000
00100000
00010000
00000000
,
00100000
00100000
00010000
00010000
00001000
00001000
00000100
00000000
,
00000100
00001000
00100000
00010000
00100000
00001000
00000100
00000001
,
00000010
00001000
00100000
00010000
01000000
00100000
10010000
00000000
,
00100000
00000000
01000000
00000000
00010000
00000000
00000100
00000000
00000010
00000000
00001000
00000100
00000000
00001000
00000001
00000000
,
00000010
00000000
00000100
00000000
00001000
00000000
00000100
00000000
00000010
00000000
00000001
00000100
00000000
00000001
00000100
00000000
,
00010000
00000000
01000000
00000000
00100000
00000000
10000000
00000000
01000000
00000000
10000000
01000000
00000000
10000000
00010000
00000000
,
00100000
00110000
00000000
00011000
00000000
00001010
00000000
00000010
,
00001000
00000000
00000100
00000000
00010000
00000000
01000000
00000000
00010000
00000000
00001000
00010000
00000000
00001000
00000100
00000000
,
00000001
00000000
00000010
00000000
00000100
00000000
00001000
00000000
00000100
00000000
00010000
00000100
00000000
00010000
00001000
00000000
,
00010000
00000000
01000000
00000000
10000000
00000000
00100000
00000000
00010000
00000000
00100000
01000000
00000000
00100000
00010000
00000000
,
00001000
00000000
00000100
00000000
00000001
00000000
00000010
00000000
00001000
00000000
00010000
00001000
00000000
00010000
01000000
00000000
,
10000000
00100000
01000000
00000000
00010000
00100000
10000000
00000000
,
00110000
00011000
00002020
00003030
,
00001000
00000100
00000001
00000000
00000001
00000010
00001000
00000000
,
00110000
00011000
00002020
00003030
,
00000001
00000010
00000100
00000010
00001000
00010000
00100000
01000000
,
00100000
00010000
00100000
10000000
01000000
00010000
00001000
00000100
,
00000001
00000010
00000100
00001000
00010000
00100000
00010000
00001000
,
00000000
00101000
00011000
01001000
00000000
00011000
00011000
00000000
,
00000000
00010010
00011000
00010100
00000000
00011000
00011000
00000000
,
02000000
03000000
00000200
00000300
,
00010000
00001000
00022000
00033000
,
00100000
10000000
00100000
00010000
00001000
00000100
00010000
00000100
,
00000001
00000010
00000100
00001000
00001200
00000000
00000301
00000100
,
00001000
01000000
00010000
10000000
00100000
00010000
01000000
00100000
,
01100000
00000000
00110000
00000000
00011000
00000000
00000001
00001000
,
00000100
00000001
00000100
00001000
00010000
00100000
00001000
00100000
,
10000000
01000000
00100000
00010000
00210000
00000000
10300000
00100000
,
00010000
00000010
00001000
00000001
00000100
00001000
00000010
00000100
,
00000000
00000010
00001000
00001010
00000000
00011000
00011000
00000000
,
00001000
00100000
00020000
00000000
00130000
00010000
01000000
10000000
,
11000000
00010000
01100000
01000000
01020000
00000000
10030000
01000000
,
00010000
00001000
00000020
00000000
00000031
00000010
00001000
00000010
,
00000011
00000100
00001001
00001000
00001200
00000000
00001300
00000100
,
00000010
00001000
00000002
00000000
00000103
00001000
00000001
00000010
,
00000110
00000100
00010100
00000100
00001200
00000000
00000310
00000100
,
00001000
00000000
00000100
00000000
00010000
00000010
00010000
00000010
00010000
00000000
00001000
00000000
00010000
00000000
01000000
00000000
,
00000000
00100000
00010000
00001000
00000000
00011000
00011000
00000000
,
00022000
00000000
00000000
00000000
,
00000000
00000000
00000000
00033000
,
00000000
00000000
00000000
00000000
;
#NOTES:
     dance-double:
     :
     Challenge:
     16:
     :
00000000
00000000
00000000
00000000
,
00000000
00000000
00000000
00000000
,
00000000
00000000
00000000
00000000
,
00000000
00000000
00000000
00000000
,
00000000
00000000
00000000
00000000
,
00000001
00000000
00000010
00000000
00000200
00000000
00000000
00000000
00000310
00000100
00000010
00000000
00000001
00000000
00000100
00000000
,
00000010
00001000
00000010
00000000
00010000
00000000
00001000
00000000
00020000
00000000
00000000
00000000
00130000
00000000
10000000
00000000
,
01000000
00100000
01000000
00000000
20000000
00000000
00000000
00000000
30010000
00100000
01000000
00000000
10000000
00000000
00100000
00000000
,
00000000
00010000
00001000
00010000
00000000
00011000
00011000
00000000
,
00000100
00001000
00000100
00000000
00001200
00000000
00000000
00000000
00001300
00000010
00000100
00000000
00000001
00000000
00000010
00000000
,
00000100
00010000
00001000
00100000
02000000
10000000
10000000
13000000
,
01000000
00100000
00010000
00000000
02010000
00000000
00000000
00000000
03010000
10000000
00100000
00000000
01000000
00000000
00100000
00000000
,
00020000
00031000
00000200
00000301
00000010
00000100
00000100
00000100
,
00000010
00000001
00001000
00000000
00001002
00000000
00000000
00000000
00001003
00000001
00000100
00000000
00000010
00000000
00000100
00000000
,
00001000
00010000
00100000
10000000
02000000
00100000
00100000
03100000
,
01000000
10000000
00010000
00000000
20010000
00000000
00000000
00000000
30010000
10000000
00100000
00000000
01000000
00000000
00001000
00000000
,
00000000
00011000
00001000
00001010
00000000
00001001
00001001
00000000
,
00000100
00000000
00000010
00000000
00000021
00000000
00000000
00000000
00000031
00000010
00000001
00000010
00000100
00001000
00000100
00000000
,
00010000
00001000
00011000
00001000
02010000
00000000
03010000
00100000
,
01100000
00000000
01000000
00000000
21000000
00000000
00000000
00000000
31000000
10000000
01000000
10000000
00010000
00100000
00010000
00000000
,
00100000
00100000
00001000
00001000
00012000
00000000
00013000
00000010
,
00001100
00000000
00000100
00000000
00000012
00000000
00000000
00000000
00001003
00000010
00001000
00000010
00000100
00000001
00000100
00000000
,
00000010
00001000
00001100
00010000
00021000
00000000
00031000
01000000
,
00100000
01000000
00100000
00000000
02100000
00000000
00000000
00000000
13000000
00000000
01000000
00000000
00010000
00000000
01000000
00000000
,
00000000
01100000
01000000
01010000
00000000
00011000
00011000
00000000
,
00000010
00001000
00000010
00000000
00000100
00000000
00000001
00000000
00000100
00000000
00000100
00000000
00000010
00000000
00000000
00000000
,
00010000
00001000
00010000
00000000
00000100
00000000
00000000
00000000
00010000
00001000
00010000
00000000
00000010
00000000
00000000
00000000
,
00011000
00000000
00100000
00011000
01000000
00011000
00100000
00000000
,
10010000
00100000
10010000
01000000
00100000
10000000
10010000
00000000
,
01100000
00000000
10000000
01000000
00010000
00001000
00001000
00000000
,
00000010
00000001
00000010
00000000
00000100
00000000
00000100
00000000
00000010
00000000
00000100
00000000
00000100
00000000
00000100
00000000
,
00001001
00000000
00000010
00000001
00000100
00001000
00010000
00000000
,
01010000
00100000
01010000
00100000
10000000
01000000
01100000
00000000
,
10000000
00000000
01000000
00000000
01000000
00000000
00100000
00000000
00010000
00000000
00100000
00010000
00000000
00100000
00001000
00000000
,
00010000
00000000
00001000
00000000
00001000
00000000
00010000
00000000
00000010
00000000
00001000
00000010
00000000
00001000
00000001
00000000
,
00000100
00000000
00000010
00000000
00000010
00000000
00001000
00000000
00000100
00000000
00000010
00000001
00000000
00001000
00000100
00000000
,
00010000
00011000
00000000
00110000
00000000
11000000
00110000
01100000
,
00100000
00000000
01000000
00000000
01000000
00000000
10000000
00000000
00100000
00000000
01000000
00100000
00000000
01000000
00010000
00000000
,
00100000
00000000
00001000
00000000
00001000
00000000
00010000
00000000
00000010
00000000
00001000
00000010
00000000
00000100
00000010
00000000
,
00000100
00000101
00000000
00001010
00000000
00001001
00000110
00001100
,
00000000
00011000
00110000
01010000
00000000
10010000
10010000
00000000
,
00010000
00100000
02000000
00000000
13000000
00100000
00010000
00001000
,
00000100
00000001
00001000
00000100
00000020
00000000
00000130
00001000
,
00000010
00001000
00000200
00000000
00000310
00001000
00010000
01000000
,
11000000
00000000
00110000
00000000
10100000
00000000
00100000
10000000
,
01000000
00100000
01000000
00100000
00010000
00100000
00010000
00100000
,
00001000
00010000
00001000
00010000
00000100
00001000
00000100
00001000
,
00000001
00000010
00000001
00000010
00000100
00001000
00000100
00000000
00010000
00001000
00010000
00001000
00100000
00010000
00100000
00000000
,
00000000
01000000
00100000
01000000
00000000
00011000
00011000
00000000
,
00000000
00001000
00000001
00001000
00000000
00001001
00001001
00000000
,
00000002
00000000
00002000
00003003
,
00010000
10000000
20020000
30030000
,
01000000
00010000
01000000
00000000
02010000
00000000
00000000
00000000
03010000
00100000
01000000
00000000
10000000
00000000
00100000
00000000
,
01000000
00001000
00010000
00000010
00000200
00000001
00000001
00000301
,
00000100
00000010
00001000
00000000
00001200
00000000
00000000
00000000
00001300
00000001
00000010
00000000
00000100
00000000
00000010
00000000
,
00002000
00013000
02000000
13000000
00100000
01000000
01000000
01000000
,
00100000
10000000
00010000
00000000
20010000
00000000
00000000
00000000
30010000
10000000
01000000
00000000
00100000
00000000
01000000
00000000
,
00010000
00001000
00000010
00000001
00000200
00000010
00000010
00000310
,
00000100
00000001
00001000
00000000
00001002
00000000
00000000
00000000
00001003
00000001
00000010
00000000
00000100
00000000
00010000
00000000
,
00000000
00011000
00010000
00110000
00000000
10010000
10010000
00000000
,
01000000
00000000
00100000
00000000
10200000
00000000
00000000
00000000
10300000
00100000
10000000
00100000
01000000
00010000
01000000
00000000
,
00001000
00010000
00011000
00010000
00001200
00000000
00001300
00000010
,
00000110
00000000
00000100
00000000
00000102
00000000
00000000
00000000
00000103
00000001
00000100
00000001
00001000
00000010
00001000
00000000
,
00000010
00000010
00010000
00010000
00021000
00000000
00031000
00100000
,
01010000
00000000
01000000
00000000
20100000
00000000
00000000
00000000
30010000
00100000
00010000
00100000
01000000
10000000
01000000
00000000
,
00100000
00010000
01010000
00001000
00012000
00000000
00013000
00000100
,
00000010
00000100
00000010
00000000
00000210
00000000
00000000
00000000
00000301
00000000
00000100
00000000
00001000
00000000
00000100
00000000
,
00000000
00000110
00000100
00001100
00000000
00011000
00011000
00000000
,
00110000
00000000
00000000
00000000
,
00000000
00000000
00000000
00000000
;
