
//----- song ID: thr8 -----//
#TITLE:888;
#ARTIST:DJ TECHNORCH;
#BANNER:888.png;
#BACKGROUND:888-bg.png;
#CDTITLE:./CDTitles/DDR UNIVERSE3.png;
#MUSIC:888.ogg;
#SAMPLESTART:4.33;
#SAMPLELENGTH:15;
#DISPLAYBPM:111:888;
#BPMS:0=222,208=111,224=222,288=444;
#NOTES:
     dance-single:
     :
     Beginner:
     3:
     :
0000
0000
0000
0000
,
0000
0000
0000
0000
,
0000
0000
0000
0000
,
0000
0000
0000
0000
,
1000
0000
0000
0000
,
0001
0000
0000
0000
,
1000
0000
0000
0000
,
0001
0000
0000
0000
,
0100
0000
0000
0000
,
0010
0000
0000
0000
,
0100
0000
0000
0000
,
0010
0000
0000
0000
,
1000
0000
0000
0000
,
1000
0000
0000
0000
,
0100
0000
0000
0000
,
0100
0000
0000
0000
,
0010
0000
0000
0000
,
0010
0000
0000
0000
,
0001
0000
0000
0000
,
0001
0000
0000
0000
,
1000
0000
1000
0000
,
1000
0000
0000
0000
,
0010
0000
0000
0000
,
0000
0000
0000
0000
,
0001
0000
0001
0000
,
0001
0000
0000
0000
,
0010
0000
0000
0000
,
0000
0000
0000
0000
,
1000
0000
1000
0000
,
1000
0000
0000
0000
,
0100
0000
0000
0000
,
0100
0000
0000
0000
,
0001
0000
0001
0000
,
0001
0000
0000
0000
,
0100
0000
0000
0000
,
0100
0000
0000
0000
,
1000
0000
0000
0000
,
0000
0000
0000
0000
,
0001
0000
0000
0000
,
0000
0000
0000
0000
,
1000
0000
0000
0000
,
0000
0000
0000
0000
,
0001
0000
0000
0000
,
0000
0000
1000
0000
,
1000
0000
0000
0000
,
0010
0000
0000
0000
,
0100
0000
0000
0000
,
0110
0000
0000
0000
,
0001
0000
0000
0000
,
1000
0000
0000
0000
,
0001
0000
0000
0000
,
1001
0000
0000
0000
,
2000
0000
0000
3000
,
0000
0000
0000
0000
,
0002
0000
0000
0003
,
0000
0000
0000
0000
,
1000
0000
1000
0000
,
1000
0000
0000
0000
,
0100
0000
0000
0000
,
0000
0000
0000
0000
,
0010
0000
0010
0000
,
0010
0000
0000
0000
,
0001
0000
0000
0000
,
0000
0000
0000
0000
,
0001
0000
0001
0000
,
0001
0000
0000
0000
,
0100
0000
0000
0000
,
0100
0000
0000
0000
,
0010
0000
0010
0000
,
0010
0000
0000
0000
,
1000
0000
0000
0000
,
1000
0000
0000
0000
,
0002
0000
0000
0003
,
0000
0000
0000
0000
,
2000
0000
0000
3000
,
0000
0000
0000
0000
,
0200
0000
0000
0300
,
0000
0000
0000
0000
,
0020
0000
0000
0030
,
0000
0000
0000
0000
,
0001
0000
0000
0000
,
1000
0000
0000
0000
,
0001
0000
0000
0000
,
1000
0000
0000
0000
,
0100
0000
0000
0000
,
0010
0000
0000
0000
,
0100
0000
0000
0000
,
0010
0000
0000
0000
,
0110
0000
0000
0000
,
0000
0000
0000
0000
;
#NOTES:
     dance-single:
     :
     Easy:
     6:
     :
0000
0000
0000
0000
,
0000
0000
0000
0000
,
0000
0000
0000
0000
,
0000
0000
0000
1000
,
0001
0001
0001
0000
,
1000
0000
0100
0000
,
0010
0010
0010
0000
,
0001
0000
0100
0000
,
0010
0010
0010
0000
,
1000
0000
0001
0000
,
0100
0100
0100
0000
,
0010
0000
1000
0000
,
0001
1000
0001
0000
,
1000
0000
0100
0000
,
0010
0100
0010
0000
,
0100
0000
0001
0000
,
1000
0001
1000
0000
,
0001
0000
0010
0000
,
0100
0010
0100
0000
,
0010
0000
0110
0000
,
0001
1000
0001
0000
,
0001
1000
0001
1000
,
0010
0100
0010
0000
,
0010
0100
0001
1000
,
0100
0010
0100
0000
,
0100
0010
1000
0001
,
1000
0001
1000
0000
,
0001
1000
1001
0000
,
1000
0001
1000
0000
,
0001
1000
0001
0100
,
0010
0100
0010
0000
,
0100
0010
1000
0010
,
1000
0100
1000
0000
,
1000
0100
0010
0001
,
1000
0001
1000
0000
,
0001
0100
0110
0000
,
0001
0000
1000
0000
,
0100
0000
0010
0000
,
0001
0000
0001
0000
,
0200
0000
0000
0300
,
0010
0000
1000
0000
,
0100
0000
0010
0000
,
0001
0000
1000
0000
,
0000
0000
1000
0001
,
1000
0000
0001
0000
,
0100
0000
0010
0000
,
1000
0000
0001
0000
,
2002
0000
0000
3003
,
1000
0000
0100
0000
,
0001
0000
0100
0000
,
1000
0000
0001
0000
,
0100
0100
0100
0000
,
0010
1000
0010
1000
,
0010
1000
0001
1001
,
0001
0100
0001
0100
,
0000
0010
0100
0110
,
1000
0000
0001
0000
,
1000
0100
0010
0001
,
1000
0000
0001
0000
,
0100
0000
0010
0100
,
0001
0000
1000
0000
,
0001
0100
0010
1000
,
0001
0000
1000
0000
,
0100
0000
0110
0000
,
0001
0000
1000
0000
,
0001
1000
0010
0000
,
0100
0000
0010
0000
,
1000
0100
0010
0001
,
1000
0000
0001
0000
,
1000
0001
1000
0001
,
0100
0000
0001
0000
,
0010
0100
0110
0000
,
2000
0000
0000
3000
,
0002
0000
0000
0003
,
0200
0000
0000
0300
,
0020
0000
0000
0030
,
2000
0000
0000
3000
,
0200
0000
0000
0300
,
0020
0000
0000
0030
,
0002
0000
0000
0003
,
1000
0000
0001
0000
,
1000
0000
0001
0000
,
0100
0000
0010
0000
,
0100
0000
0010
0000
,
1000
0000
0001
0000
,
0100
0000
0010
0000
,
1000
0000
0001
0000
,
1001
0000
0000
0000
,
0000
0000
0000
0000
,
0000
0000
0000
0000
,
0000
0000
0000
0000
,
0000
0000
0000
0000
,
0000
0000
0000
0000
,
0000
0000
0000
0000
,
0000
0000
0000
0000
,
0000
0000
0000
0000
,
0000
0000
0000
0000
,
0000
0000
0000
0000
,
0000
0000
1001
0000
,
0000
0000
0000
0000
;
#NOTES:
     dance-single:
     :
     Medium:
     13:
     :
0000
0000
0000
0000
,
0000
0000
0000
0000
,
0000
0000
0000
0000
,
0000
0000
0000
0000
,
1000
0100
1000
0000
0001
0100
0001
0000
,
1000
0010
1000
0001
0010
0000
1100
0000
,
0100
1000
0100
0000
0010
0001
0010
0000
,
0001
0100
0001
1000
0010
0000
0101
0000
,
0100
0010
1000
0000
0001
0010
0100
0000
,
0010
0001
1000
0010
0100
0000
1001
0000
,
0001
1000
0010
0000
0100
0001
1000
0000
,
0001
0100
0010
1000
0001
0000
0110
0000
,
0010
1000
0100
0000
0001
0100
1000
0000
,
0100
0010
0001
0100
1000
0000
0101
0000
,
0001
0010
1000
0000
0010
0001
0100
0000
,
0001
1000
0010
0100
0001
0000
1010
0000
,
1000
0001
0100
0010
0100
0000
1001
0000
,
0010
0100
0010
0001
1000
0000
0110
0000
,
0001
1000
0001
0000
1000
0010
0100
0000
,
0001
0100
1000
0100
0002
0013
0000
0000
,
0100
0000
1000
0010
0000
0100
0001
0000
,
0010
0100
1000
0000
0001
0010
0100
1000
,
0010
0100
0000
0001
1000
0001
1000
0000
,
0100
0010
0100
0010
0000
0001
1000
0000
,
0010
0000
1000
0100
0000
0010
0001
0000
,
0100
0010
1000
0000
0001
0100
0010
1000
,
0100
0010
0000
0001
1000
0100
0010
0000
,
0100
1000
0001
0100
0000
0010
1000
0000
,
0100
0000
1000
0001
0000
0010
0100
0000
,
1000
0010
1000
0001
1000
0100
1000
0000
,
0010
1000
0010
0100
0010
0001
0010
0000
,
0100
1000
0100
0010
0100
0001
0100
0000
,
0001
0000
0010
0001
0000
1000
0100
0000
,
0010
0001
1000
0001
0100
0001
1000
0000
,
0100
1000
0100
0010
0100
0001
0100
0000
,
0010
1000
0010
0100
0010
0001
0010
0000
,
0001
0000
0001
0000
0001
1000
0100
0000
,
0010
0000
0010
0000
0010
0001
1000
0000
,
0010
0100
0001
1000
0100
0000
0010
0000
,
1001
1001
0110
1001
,
0001
0010
0100
0000
0010
0100
1000
0000
,
0100
1000
0001
0000
1000
0001
0010
0000
,
0010
0100
1000
0000
0001
0100
0010
0000
,
0010
1000
0001
0100
0020
0030
2002
3003
,
0010
1000
0000
0001
0100
0000
0010
0000
,
1000
1100
0001
0011
,
0001
1000
0001
1000
0001
1000
,
0110
0110
1001
0110
,
0001
0100
0010
1000
0100
0010
0000
0010
,
0001
0100
0001
0100
0010
1000
0010
1000
,
0001
0100
0010
1000
,
0110
1001
0010
0100
,
0001
0000
0001
0000
1000
0000
0000
0010
0000
0000
0100
0000
0101
0000
0000
0000
,
0010
0000
0010
0000
1001
0000
0000
1000
0000
0000
0001
0000
0110
0000
0000
0000
,
0100
0000
0100
0000
1010
0000
0000
0000
2002
3003
0220
0330
2002
3003
0110
0000
,
1000
0000
1000
0000
0020
0030
0200
0300
0002
0000
0000
0000
0003
0000
1010
0000
,
0001
0100
1000
0100
0000
0001
0010
0000
,
1000
0010
0001
0100
0010
1000
0100
0001
,
0100
1000
0000
0001
0010
0000
0100
0010
,
0100
1000
0001
1001
,
0010
1000
0100
1000
0000
0001
0010
0000
,
0001
0100
0010
1000
0001
0010
0100
1000
,
0001
0100
0000
0010
1000
0000
0101
0000
,
1000
0001
0100
0010
0100
0000
1001
0000
,
0010
0001
1000
0100
0000
0010
0100
0000
,
1000
0001
0100
0010
1000
0100
0001
0100
,
1000
0010
0100
0000
0010
0100
0001
0000
,
1000
0001
0010
0100
1000
0001
0100
0000
,
0010
0100
0001
1000
0000
0100
0010
0000
,
0001
0100
1000
0100
0010
0001
0010
0000
,
1000
0001
1000
0010
1000
0100
1000
0000
,
0001
1000
0001
0100
0001
0010
0001
0000
,
1000
0000
1000
0000
,
0001
0000
0001
0000
,
0100
0000
0100
0000
,
0010
0000
0010
0000
,
1000
0000
0001
0000
,
0100
0000
0010
0000
,
1000
0000
0001
0000
1000
0000
,
0001
0000
1000
0000
0001
0000
,
2000
0000
3200
0000
,
0320
0000
0032
0000
,
0203
0000
0320
0000
,
2030
0000
3002
0000
,
0023
0000
0230
0000
,
2300
0000
3002
0000
,
0203
0000
0320
0000
,
1030
0000
0000
0000
,
0002
0000
0000
0000
,
0000
0000
0000
0000
,
0000
0000
0000
0000
,
0000
0000
0000
0000
,
0000
0000
0000
0000
,
0000
0000
0000
0000
,
0000
0000
0000
0000
,
0000
0000
0000
0000
,
0000
0000
0000
0000
,
0000
0000
0000
0000
,
0000
0000
0003
0000
,
0000
0000
0000
0000
;
#NOTES:
     dance-single:
     :
     Hard:
     14:
     :
0000
0000
0000
0000
,
0000
0000
0000
0000
,
0000
0000
0000
0000
,
0000
0000
0000
0001
,
1000
0001
1000
0010
1000
0000
0101
0000
,
0010
0100
0010
1000
0010
0000
1100
0000
,
0001
0100
0010
0100
0001
1000
0010
1000
,
0001
1000
0110
1001
,
0001
0010
0100
0010
0001
0000
0110
0000
,
1000
0100
0010
0100
1000
0000
0101
0000
,
0010
1000
0010
0100
0001
1000
0001
0100
,
0010
1000
0100
0000
0010
0000
1001
0000
,
1000
0100
1000
0010
0100
0000
1010
0000
,
0001
0100
0001
0010
0001
0000
0110
0000
,
1000
0100
1000
0010
1000
0100
0010
0001
,
1000
0001
0110
1001
,
0100
0010
0100
0001
0100
0000
1001
0000
,
0010
0001
0010
0100
1000
0000
0011
0000
,
0100
1000
0100
0010
0100
1000
0001
0010
,
0001
1000
0001
0100
0010
1000
0000
0000
,
0001
0100
0001
1000
0000
0100
0100
0000
,
0010
0100
0010
0001
0100
0010
0100
0000
,
0001
1000
0100
0010
1000
0010
0001
1000
,
0010
0100
0001
0100
0010
1000
0001
0000
,
1000
0001
1000
0100
0000
0010
0010
0000
,
0001
1000
0001
0010
0100
1000
0100
0000
,
1000
0010
1000
0001
0100
1000
0100
0010
,
1000
0001
0100
0010
0000
1000
1001
0000
,
1000
0010
1000
0001
0000
1000
1000
0000
,
0100
0001
0100
0010
0100
1000
0100
0000
,
1000
0001
0100
0010
0100
0001
0010
0100
,
1000
0001
1000
0010
0100
0001
1000
0000
,
0001
1000
0001
0010
0000
0100
0100
0000
,
0010
0100
1000
0100
0010
1000
0010
0000
,
0100
0010
0001
1000
0001
0100
0010
0100
,
0001
0100
1000
0100
0000
0010
1001
0000
,
0001
0100
0001
0100
0010
1000
0001
0100
,
0010
0001
0010
0001
0010
1000
0001
0001
,
0010
0100
0100
0100
1000
0001
0100
0001
,
0010
0100
1000
0100
0010
0001
1000
0010
,
0100
0001
0010
0100
1000
1000
0001
0001
,
0100
0010
1000
0001
0100
0100
0010
0010
,
1000
0001
0010
0001
0100
0010
1000
0001
,
0010
0100
1000
0100
0110
0000
1001
0000
,
0001
0100
0010
1000
1000
0001
0010
0100
,
1000
0001
1000
0001
0100
0010
0100
0000
,
0001
1000
0001
0010
0100
0010
,
0002
0100
0010
0013
,
0001
0100
0010
1000
0100
0010
0001
1000
,
0010
0100
0010
0100
0001
1000
0001
1000
,
0100
0010
0100
1000
0001
1000
0010
0100
,
0001
0010
0100
1000
0100
0010
0001
0000
0000
0100
0000
0000
,
1001
0000
1000
0000
0100
0000
0000
1000
0000
0001
1000
0000
0100
0000
0010
0000
,
1100
0000
1000
0000
0001
0000
0000
1000
0000
0001
1000
0000
0101
0000
0000
0000
,
1001
0000
0100
0000
0010
0000
0000
1000
0000
0001
1000
0000
0001
0000
0010
0000
,
0100
1000
0001
1000
0020
0000
0000
0130
,
0001
1000
0100
0001
0000
0100
0100
0000
,
0010
0001
0010
0100
1000
0001
1000
0000
,
0010
0100
0010
1000
0001
0010
0001
0100
,
0010
0100
0001
1000
0100
0010
1000
0000
,
0010
0001
1000
0010
0000
0100
0100
0000
,
0010
0001
0010
0100
0010
1000
0001
0000
,
0010
0100
0000
0010
1000
0000
0010
0001
,
1000
0010
0100
0001
0000
1000
1000
0000
,
0010
0100
1000
0100
0000
0001
0001
0000
,
1000
0100
0010
0001
0100
0010
1000
0000
,
0001
0010
0001
1000
0001
0100
0001
0010
,
0100
1000
0100
0010
0100
0001
0100
0000
,
1000
0001
0100
1000
0000
0100
0100
0000
,
0010
1000
0100
0010
0001
1000
0010
0000
,
1000
0010
1000
0001
1000
0100
0010
0001
,
1000
0100
1000
0001
0100
0001
0101
0000
,
1000
0100
1000
0100
,
0000
1000
0001
0000
,
0100
0001
0100
0001
,
1000
0010
1000
0000
,
0001
0100
0010
1000
,
0000
0001
1000
0000
,
0001
0000
0100
0000
0001
0000
,
1000
0000
0100
0000
1000
0000
,
0002
0000
0203
0000
,
0320
0000
2030
0000
,
3200
0000
0320
0000
,
0032
0000
2003
0000
,
3001
0100
0001
0100
,
0001
1000
0001
1000
,
0100
1000
0100
1000
,
0001
0000
0000
0000
,
2000
0000
0000
0000
,
0000
0000
0000
0000
,
0000
0000
0000
0000
,
0000
0000
0000
0000
,
0000
0000
0000
0000
,
0000
0000
0000
0000
,
0000
0000
0000
0000
,
0000
0000
0000
0000
,
0000
0000
0000
0000
,
0000
0000
0000
0000
,
0000
0000
3001
0000
,
0000
0000
0000
0000
;
#NOTES:
     dance-single:
     :
     Challenge:
     18:
     :
0000
0000
0000
0000
,
0000
0000
0000
0000
,
0000
0000
0000
0000
,
0000
0000
0000
2000
,
3100
0010
0001
0010
0100
0010
1000
0010
,
0100
0000
1000
0100
1000
0000
0001
0000
1000
0000
0001
0100
0010
0000
0010
0000
,
1000
0000
0001
0000
0010
0000
0100
0000
1000
0100
1000
0000
0001
0000
1000
0100
,
1000
0000
0001
0000
0100
0010
0100
0000
0001
1000
0001
1000
0100
0000
0000
0000
,
0011
0000
0001
0000
1000
0000
0001
0000
0100
0010
1000
0000
0001
0000
1000
0000
,
0001
0100
0001
0100
0001
0000
0001
0000
1000
0000
0100
0000
0010
0000
0010
0000
,
0001
0000
1000
0000
0010
0000
1000
0001
1000
0001
1000
0000
0100
1000
0100
1000
,
0100
0000
0010
0000
0001
0000
0010
0000
0100
1000
0001
0000
0100
0000
0010
0000
,
1000
0010
1000
0001
1000
0000
0100
0000
0010
0000
0010
0000
1001
0000
0000
0000
,
0100
0010
0100
0010
1000
0000
0001
0000
0010
0000
0100
1000
0001
0000
1000
0000
,
0010
0100
0001
0100
0010
0000
1000
0000
0001
1000
0001
0000
0010
0000
0001
1000
,
0001
0000
0100
0000
0010
0000
0010
0000
1000
0100
1000
0100
0010
0000
0010
0000
,
0001
0000
0010
0000
0100
1000
0100
1000
0100
0000
1000
0000
0010
0000
0100
0001
,
0100
0000
0001
1000
0100
0000
0010
0000
0011
0000
0000
0000
1010
0000
1000
0000
,
0010
0000
0100
0000
0001
0000
1000
0000
0100
0010
0001
0000
1000
0000
0001
0010
,
0100
0000
1000
0000
0001
0100
0001
0100
0020
0000
1030
0000
0000
0000
0000
0000
,
0100
0000
0010
0001
0010
0000
0002
0000
0000
0000
1003
0000
2000
0000
0000
0000
,
3010
0000
0100
0000
0010
0000
0100
0001
0100
0000
0001
0000
1000
0000
0100
0000
,
0010
0000
0001
0000
1000
0001
1000
0000
0100
0000
0010
0000
0100
0000
1000
0001
,
1000
0000
0100
0000
0010
0000
0100
0000
1000
0001
1000
0000
0020
0000
0000
0000
,
0130
0000
0001
0100
0001
0000
2000
0000
0000
0000
3001
0000
0020
0000
0000
0000
,
0130
0000
1000
0000
0001
0000
1000
0010
1000
0000
0001
0000
0100
0000
0010
0000
,
1000
0000
0001
0000
0100
0010
0100
0000
0001
0000
1000
0000
0001
0000
0010
0100
,
0010
0001
1000
0002
0000
0103
0200
0000
,
0310
0000
1000
0010
1000
0000
0001
0000
0010
0000
0100
0000
1000
0100
0010
0100
,
1000
0000
0100
0000
0010
0000
0010
0001
1000
0000
0010
0000
1000
0001
1000
0001
,
0100
0000
0010
0000
0100
0001
0100
0000
0001
0000
0010
0000
0100
0000
1000
0100
,
0010
0000
0001
0000
1000
0000
0001
0010
0100
0010
0001
0000
2000
0000
0000
0000
,
3010
0000
0100
0001
1000
0000
1000
0000
0001
0100
0010
0000
2000
0000
0000
0000
,
3100
0000
0010
0000
0001
0000
1000
0010
1000
0000
0001
0000
0010
0000
0100
0000
,
0100
0000
1000
0000
0001
0100
0001
0000
1000
0000
0010
0000
0010
0000
0100
0001
,
0100
0000
0001
0000
1000
0000
0100
0000
0010
0001
0010
0001
0020
0000
0000
0000
,
0130
0000
1000
0000
0001
0000
0100
0000
0010
0000
0100
0000
1000
0100
1000
0000
,
0100
0000
0010
0100
0010
0000
0100
0001
0100
0000
0001
0000
0010
0000
0010
0000
,
0100
0000
1000
0000
1000
0000
1000
0000
0001
0100
0001
0000
1000
0000
0001
0100
,
0001
1000
0100
0010
1000
0010
0001
1000
,
0010
0000
0100
0001
1000
0000
0010
0100
0001
0100
0001
0100
0010
0000
1000
0000
,
0100
0000
0100
0000
0010
0000
0001
0010
0100
0010
0100
1000
0001
0000
0001
0000
,
1000
0010
0100
0000
0001
0100
0010
0000
1000
0001
1000
0001
0100
0000
0010
0000
,
0100
1000
0100
0010
0110
0000
1001
0000
,
1000
0000
0001
0100
0010
0100
0001
0000
0001
0000
1000
0000
0001
1000
0100
0000
,
0010
0000
1000
0010
1000
0000
0010
0000
0100
0000
0010
0000
0001
0000
0001
0000
,
1000
0100
0010
0001
0010
0100
,
1001
0000
0001
0000
1010
0001
0100
0000
,
0010
0000
1000
0000
0010
0000
0100
0000
0001
0000
1000
0000
0001
1000
0001
0000
,
0010
0010
0010
0010
0100
0100
0100
0100
,
1000
0000
0001
0000
0100
0000
1000
0000
0100
0010
0100
0000
0001
0000
0010
0000
,
0001
0100
0001
1000
0100
1000
0001
0000
0000
1001
0000
0000
,
0101
0000
0100
0000
1001
0000
0000
0101
0000
0100
0010
0000
1010
0000
0000
1000
,
0100
0000
0010
0000
0110
0000
0000
0011
0000
0001
0010
0000
1000
0100
0000
0000
,
0011
0000
0010
0000
1001
0000
0000
0101
0000
0010
0100
0010
0100
0010
1000
0001
,
1000
0100
0010
0000
0002
0003
0020
0030
0200
0000
0000
0000
0000
0000
1300
0000
,
0001
0000
1000
0010
0100
0000
0002
0000
0000
0000
1003
0000
0200
0000
0000
0000
,
0310
0000
0001
0000
1000
0000
0100
0010
0001
0010
0001
0010
0100
0000
1000
0000
,
0010
0000
0100
0000
0100
0001
1000
0000
0001
0100
0001
0000
1000
0000
0100
0010
,
0001
0000
1000
0000
0010
0100
0010
0100
0001
1000
0001
1000
0010
0000
0000
0000
,
1000
0000
1000
0100
0010
0000
0200
0000
0000
0000
1300
0000
0002
0000
0000
0000
,
0103
0010
0100
0010
1000
0000
0001
1000
0010
0000
0100
0000
0001
0000
0010
0100
,
1000
0000
0001
0100
0001
0000
1000
0000
0001
0100
0001
0000
1000
0000
0100
0010
,
0001
1000
0010
0100
0001
0001
1000
1000
,
0100
0000
0010
0001
1000
0100
1000
0100
1000
0000
0001
0000
0200
0000
0000
0000
,
0310
0000
1000
0000
0100
0000
0010
0001
1000
0000
0010
0000
0100
0000
0001
0000
,
1000
0000
0001
0000
0010
0100
1000
0000
0010
0100
0001
0000
0001
0000
0010
0100
,
1000
0000
0001
0000
1000
0000
0001
0000
0010
0100
1000
0001
1000
0001
0100
0001
,
0100
0000
0010
1000
0001
0000
0020
0000
0000
0000
0130
0000
2000
0000
0000
0000
,
3001
0000
0100
0000
0001
0000
1000
0100
0010
0000
0001
0000
0010
0000
0100
0000
,
0001
0000
0100
0000
0010
0100
1000
0000
0001
0100
0001
0000
1000
0000
0010
0100
,
0001
0000
0100
0010
0100
0000
1000
0100
0001
0000
0010
0000
0002
0000
0000
0003
,
0010
0000
0100
1000
0100
0000
0010
0000
,
0001
1000
0001
0000
0100
0010
0100
0000
,
0010
1000
0010
0001
,
0010
0100
0000
0010
0100
0000
0001
0000
,
1000
0100
1000
0100
1000
0000
0001
0100
,
0001
0100
0001
0000
1000
0010
1000
0000
,
1001
0000
0110
0000
1100
0000
,
0101
0000
0011
0000
1010
0000
,
0010
0100
0010
0100
0010
0100
,
0001
1000
0001
1000
0001
1000
,
0010
1000
0010
1000
0010
1000
,
0010
0100
0010
0100
0010
0100
,
0001
1000
0001
1000
0001
1000
0001
1000
,
0001
1000
0001
1000
0001
1000
0001
1000
,
0001
1000
0001
1000
0001
1000
0001
1000
,
0002
0000
0000
0000
0000
0003
0000
0000
,
2000
0000
0000
0000
,
0001
0000
0000
0000
,
3001
0000
0000
0000
0000
0000
0000
0000
0000
0000
0000
0000
0000
0000
0000
0000
0000
0000
0000
0000
0000
0000
0000
0000
0000
0000
0000
0000
0000
0000
0000
0000
1000
0000
0000
0000
0000
0000
0000
0000
0000
0000
0000
0000
0000
0000
0000
0000
0000
0000
0000
0000
0000
0000
0000
0000
0000
0000
0000
0001
0000
0000
0000
0000
,
0000
0000
0000
0000
0000
0000
0000
0000
0000
0000
0000
0000
0000
0000
0000
0000
0000
0000
0000
0000
0000
0000
0000
0000
1000
0000
0000
0000
0000
0000
0000
0000
0000
0000
0000
0000
0000
0000
0000
0000
0000
0000
0000
0000
0000
0000
0000
0000
0000
0000
0000
0000
0000
0001
0000
0000
0000
0000
0000
0000
0000
0000
0000
0000
,
0000
0000
0000
0000
0000
0000
0000
0000
0000
0000
0000
0000
0000
0000
0000
0000
1000
0000
0000
0000
0000
0000
0000
0000
0000
0000
0000
0000
0000
0000
0000
0000
0000
0000
0000
0000
0000
0000
0000
0000
0000
0000
0000
0000
0000
0000
0000
0001
0000
0000
0000
0000
0000
0000
0000
0000
0000
0000
0000
0000
0000
0000
0000
0000
,
0000
0000
0000
0000
0000
0000
0000
0000
0000
0000
1000
0000
0000
0000
0000
0000
0000
0000
0000
0000
0000
0000
0000
0000
0000
0000
0000
0000
0000
0000
0000
0000
0000
0000
0000
0000
0001
0000
0000
0000
0000
0000
0000
0000
0000
0000
0000
0000
0000
0000
0000
0000
0000
0000
0000
0000
0000
0000
0000
0000
0000
1000
0000
0000
,
0000
0000
0000
0000
0000
0000
0000
0000
0000
0000
0000
0000
0000
0000
0000
0000
0000
0000
0000
0000
0000
0000
0000
0001
0000
0000
0000
0000
0000
0000
0000
0000
0000
0000
0000
0000
0000
0000
0000
0000
0000
0000
0000
0000
0000
0000
0000
0000
1000
0000
0000
0000
0000
0000
0000
0000
0000
0000
0000
0000
0000
0000
0000
0000
,
0000
0000
0000
0000
0000
0000
0000
0000
0000
0001
0000
0000
0000
0000
0000
0000
0000
0000
0000
0000
0000
0000
0000
0000
0000
0000
0000
0000
0000
0000
0000
1000
0000
0000
0000
0000
0000
0000
0000
0000
0000
0000
0000
0000
0000
0000
0000
0000
0000
0000
0000
0001
0000
0000
0000
0000
0000
0000
0000
0000
0000
0000
0000
0000
,
0000
0000
0000
0000
0000
0000
0000
0000
1000
0000
0000
0000
0000
0000
0000
0000
0000
0000
0000
0000
0000
0000
0000
0000
0000
0000
0000
0000
0000
0001
0000
0000
0000
0000
0000
0000
0000
0000
0000
0000
0000
0000
0000
0000
0000
0000
0000
0000
1000
0000
0000
0000
0000
0000
0000
0000
0000
0000
0000
0000
0000
0000
0000
0000
,
0001
0000
0000
0000
0000
0000
0000
0000
0000
0000
0000
0000
0000
0000
1000
0000
0000
0000
0000
0000
0000
0000
0000
0000
0000
0000
0000
0001
0000
0000
0000
0000
0000
0000
0000
0000
0000
0000
1000
0000
0000
0000
0000
0000
0000
0000
0000
0000
0001
0000
0000
0000
0000
0000
0000
0000
0000
1000
0000
0000
0000
0000
0000
0000
,
0000
0000
0000
0001
0000
0000
0000
0000
0000
0000
0000
0000
1000
0000
0000
0000
0000
0000
0000
0000
0001
0000
0000
0000
0000
0000
0000
0000
1000
0000
0000
0000
0000
0000
0000
0000
0000
0000
0000
0000
0000
0000
0000
0000
0000
0000
0000
0000
0000
0000
0000
0000
0000
0000
0000
0000
0000
0000
0000
0000
0000
0000
0000
0000
,
0000
0000
0000
0000
;
#NOTES:
     dance-double:
     :
     Easy:
     7:
     :
00000000
00000000
00000000
00000000
,
00000000
00000000
00000000
00000000
,
00000000
00000000
00000000
00000000
,
00000000
00000000
00000000
00000000
,
00000010
00000001
00000100
00000000
,
00000010
00000000
00000100
00000000
,
00000010
00000010
00000010
00000000
,
00010000
00000000
00001000
00000000
,
00100000
00100000
00100000
00000000
,
00010000
00000000
01000000
00000000
,
00001000
00001000
00001000
00000000
,
00010000
00000000
00100000
00000000
,
10000000
00010000
10000000
00000000
,
01000000
00000000
00010000
00000000
,
00001000
00010000
00001000
00000000
,
00000100
00000000
00000001
00000000
,
00000010
00000100
00000010
00000000
,
00001000
00000000
00010000
00000000
,
00100000
01000000
00100000
00000000
,
10000000
00000000
10010000
00000000
,
00010000
10000000
01000000
00000000
,
00010000
00001000
00010000
00001000
,
00000100
00000001
00000100
00000000
,
00000010
00000100
00000010
00010000
,
00001000
00010000
00001000
00000000
,
00100000
01000000
00100000
00010000
,
10000000
00010000
10000000
00000000
,
00100000
01000000
00100000
00000000
,
10000000
00010000
10000000
00000000
,
00010000
10000000
00010000
01000000
,
00100000
01000000
00001000
00000000
,
00010000
00000100
00000010
00000100
,
00010000
00001000
00010000
00000000
,
00000010
00000100
00000001
00000010
,
00000100
00010000
00001000
00000000
,
00010000
01000000
10000000
00000000
,
00100000
00000000
01000000
00000000
,
00100000
00000000
10000000
00000000
,
00010000
00000000
00100000
00000000
,
00002000
00000000
00000000
00003000
,
00010000
00000000
00000010
00000000
,
00000100
00000000
00000010
00000000
,
00001000
00000000
00000001
00000000
,
00000000
00000000
00000100
00000010
,
00000100
00000000
00000010
00000000
,
00010000
00000000
00001000
00000000
,
00100000
00000000
01000000
00000000
,
20000000
00000000
00000000
30000000
,
00100000
00000000
01000000
00000000
,
00001000
00000000
00010000
00000000
,
00100000
00000000
10000000
00000000
,
01000000
00100000
01000000
00000000
,
00010000
00001000
00000100
00000001
,
00000010
00001000
00010000
00011000
,
00001000
00010000
00100000
10000000
,
01000000
00010000
00001000
00011000
,
00010000
00000000
00000010
00000000
,
00000100
00000001
00001000
00000100
,
00000010
00000000
00000001
00000000
,
00000100
00000000
00000010
00010000
,
00001000
00000000
00100000
00000000
,
00010000
01000000
00001000
00100000
,
01000000
00000000
10000000
00000000
,
00100000
00000000
00010000
00000000
,
00001000
00000000
00000010
00000000
,
00000001
00001000
00000010
00000000
,
00010000
00000000
00001000
00000000
,
00100000
01000000
00100000
00010000
,
01000000
00000000
00100000
00000000
,
10000000
01000000
00100000
00001000
,
01000000
00000000
00001000
00000000
,
00010000
00000100
00000010
00000000
,
00000002
00000000
00000000
00000003
,
00000200
00000000
00000000
00000300
,
00000020
00000000
00000000
00000030
,
00020000
00000000
00000000
00030000
,
00002000
00000000
00000000
00003000
,
00200000
00000000
00000000
00300000
,
00020000
00000000
00000000
00030000
,
20000000
00000000
00000000
30000000
,
00100000
00000000
01000000
00000000
,
00100000
00000000
01000000
00000000
,
00001000
00000000
00100000
00000000
,
00001000
00000000
00100000
00000000
,
00010000
00000000
00100000
00000000
,
10000000
00000000
01000000
00000000
,
00010000
00000000
00001000
00000000
,
00011000
00000000
00000000
00000000
,
00000000
00000000
00000000
00000000
,
00000000
00000000
00000000
00000000
,
00000000
00000000
00000000
00000000
,
00000000
00000000
00000000
00000000
,
00000000
00000000
00000000
00000000
,
00000000
00000000
00000000
00000000
,
00000000
00000000
00000000
00000000
,
00000000
00000000
00000000
00000000
,
00000000
00000000
00000000
00000000
,
00000000
00000000
00000000
00000000
,
00000000
00000000
00011000
00000000
,
00000000
00000000
00000000
00000000
;
#NOTES:
     dance-double:
     :
     Medium:
     12:
     :
00000000
00000000
00000000
00000000
,
00000000
00000000
00000000
00000000
,
00000000
00000000
00000000
00000000
,
00000000
00000000
00000000
00000000
,
00100000
10000000
01000000
10000000
,
00010000
10000000
00100000
00000000
10000000
01000000
00010000
00000000
,
00001000
00010000
00000100
00010000
,
00001000
00000010
00000001
00000000
00000100
00000010
00010000
00000000
,
00000100
00000010
00000100
00001000
,
00000010
00010000
00001000
00000000
00010000
00100000
10000000
00000000
,
01000000
00100000
10000000
00100000
,
00010000
10000000
00100000
00000000
00010000
00001000
00010000
00000000
,
00000100
00000010
00000001
00000100
,
00000010
00010000
00001000
00000000
00000010
00000001
00000100
00000000
,
00000010
00010000
00001000
00010000
,
00100000
10000000
01000000
00000000
00100000
00001000
01000000
00000000
,
10000000
01000000
00010000
00100000
,
01000000
10000000
00100000
00000000
00010000
00001000
00100000
00000000
,
00001000
00010000
00000100
00000010
,
00000001
00000100
00000010
00000100
00000001
00001000
00000000
00000000
,
00000100
00000000
00010000
00010000
00000000
00001000
00001000
00000000
,
01000000
00100000
01000000
00000000
00010000
10000000
00010000
00000000
,
00100000
01000000
10000000
00100000
,
00010000
00001000
00010000
00000000
00001000
00010000
00001000
00000000
,
01000000
00000000
00001000
00001000
00000000
00100000
00100000
00000000
,
00001000
00010000
00001000
00000000
00010000
00000100
00010000
00000000
,
00000010
00000100
00000001
00000010
,
00000100
00010000
00000100
00000000
00010000
00001000
00010000
00000000
,
00000010
00000000
00000100
00000001
00000000
00000001
00001000
00000000
,
00000100
00010000
00001000
00000000
00010000
00001000
01000000
00000000
,
00100000
10000000
00100000
01000000
,
00010000
00100000
00001000
00000000
00010000
00000010
00001000
00000000
,
00000100
00000000
00010000
00001000
00000000
00001000
01000000
00000000
,
00100000
10000000
01000000
00000000
00100000
00010000
01000000
00000000
,
00001000
01000000
00001000
00010000
,
00000100
00001000
00000010
00000000
00000100
00000001
00000010
00000000
,
00001000
00000000
00001000
00000000
00001000
00100000
00010000
00000000
,
01000000
00000000
01000000
00000000
01000000
00100000
10000000
00000000
,
00010000
00000000
00010000
00000000
00010000
00100000
00001000
00000000
,
00020000
00032000
00003200
00000302
,
00000013
00000000
00000010
00000000
00000010
00000001
00001000
00000000
,
00000010
00000000
00000010
00000000
00000010
00010000
00001000
00000000
,
00100000
00000000
00100000
00000000
00100000
01000000
10000000
00000000
,
00100000
10000000
01000000
00010000
00001000
00000000
00011000
00000000
,
00010000
00000100
00000010
00000001
,
00000100
00001000
00010000
01000000
,
10000000
00100000
01000000
00001000
00010000
00000010
,
00000100
00000001
00000010
00001000
,
00010000
00001000
00010000
00001000
00100000
00010000
00000000
00010000
,
01000000
00100000
10000000
01000000
00100000
00001000
00100000
00010000
,
01000000
00100000
01000000
00001000
,
00010000
00000100
00000010
00000001
,
00001000
00000000
00000100
00000000
00010100
00000000
00000000
00001000
00000000
00000000
01000000
00000000
01100000
00000000
00000000
00000000
,
10000000
00000000
01000000
00000000
01010000
00000000
00000000
00001000
00000000
00000000
00010000
00000000
00010010
00000000
00000000
00000000
,
00000100
00000000
00000001
00000000
00001001
00000000
00000000
00000000
00020200
00030300
00022000
00033000
02002000
03003000
00011000
00000000
,
00100000
00000000
10000000
00000000
02000000
03000000
00200000
00300000
00002000
00000000
00000000
00000000
00003000
00000000
00011000
00000000
,
00010000
00000100
00000010
00000100
00000000
00001000
00001000
00000000
,
00000001
00000010
00001000
00010000
,
00100000
10000000
00100000
10000000
00100000
10000000
01000000
00000000
,
00100000
00001000
00100000
00001000
00100000
00001000
00010000
00000000
,
00000010
00000100
00000001
00001000
00000000
00000001
00000001
00000000
,
00000010
00000100
00010000
00001000
,
00000010
00000001
00000010
00000001
00000010
00000001
00000100
00000000
,
00001000
00010000
00001000
00010000
00001000
00010000
00000100
00000000
,
00000010
00000001
00001000
00000010
00000000
00010000
00010000
00000000
,
00001000
00100000
01000000
10000000
,
00100000
01000000
00100000
01000000
00100000
01000000
00001000
00000000
,
00100000
00010000
00100000
00010000
00100000
00010000
10000000
00000000
,
00100000
01000000
00100000
01000000
00000000
00001000
00001000
00000000
,
00010000
00001000
00010000
00000100
,
00001000
00000010
00001000
00000010
00001000
00000010
00000100
00000000
,
00000001
00000010
00000001
00000010
00000000
00000001
00001000
00000000
,
00000010
00000000
00000001
00000000
,
00000010
00000000
00000001
00000000
,
00000100
00000000
00000010
00000000
,
00000100
00000000
00000010
00000000
,
00010000
00000000
00000100
00000000
,
00000010
00000000
00000001
00000000
,
00000100
00000000
00000010
00000000
00000100
00000000
,
00000010
00000000
00010000
00000000
00001000
00000000
,
00010000
00000100
00010000
00000000
,
00001000
01000000
00001000
00000000
,
00100000
01000000
00100000
00000000
,
00010000
10000000
00010000
00000000
,
01000000
00001000
01000000
00000000
,
00001000
00010000
00001000
00000000
,
00010000
00000010
00010000
00000000
,
00000100
00000000
00000000
00000000
,
00000020
00000000
00000000
00000000
,
00000000
00000000
00000000
00000000
,
00000000
00000000
00000000
00000000
,
00000000
00000000
00000000
00000000
,
00000000
00000000
00000000
00000000
,
00000000
00000000
00000000
00000000
,
00000000
00000000
00000000
00000000
,
00000000
00000000
00000000
00000000
,
00000000
00000000
00000000
00000000
,
00000000
00000000
00000000
00000000
,
00000000
00000000
00000030
00000000
,
00000000
00000000
00000000
00000000
;
#NOTES:
     dance-double:
     :
     Hard:
     15:
     :
00000000
00000000
00000000
00000000
,
00000000
00000000
00000000
00000000
,
00000000
00000000
00000000
00000000
,
00000000
00000000
00000000
00000100
,
00000010
00000001
00000100
00000010
00000100
00000001
00000010
00000100
,
00010000
00001000
01000000
00001000
00100000
00010000
01000000
00000000
,
00100000
10000000
01000000
00010000
01000000
10000000
01000000
00100000
,
00001000
01000000
00100000
01000000
00001000
00010000
00000100
00000000
,
00000001
00000100
00001000
00000001
00000100
00001000
00000100
00000010
,
00010000
00000100
00000010
00000001
00000100
00000010
00010000
00000000
,
00001000
01000000
00010000
00100000
00001000
01000000
00001000
00100000
,
01000000
00010000
01000000
10000000
00100000
01000000
00001000
00000000
,
00010000
00001000
01000000
00100000
00010000
00001000
00100000
00010000
,
01000000
00100000
10000000
00010000
00100000
00010000
10000000
00000000
,
01000000
00010000
00001000
00000100
00000001
00001000
00000100
00000001
,
00000100
00000010
00001000
00000010
00000001
00001000
00000010
00000000
,
00000001
00000010
00010000
00000010
00001000
00000100
00000010
00001000
,
00010000
00001000
00100000
00010000
01000000
10000000
01000000
00000000
,
00001000
00100000
01000000
10000000
00100000
01000000
00001000
00100000
,
00001000
00010000
00001000
00000010
00000001
00001000
00000000
00000000
,
00000010
00010000
00001000
00200000
00000000
00010000
00310000
00000000
,
01000000
00100000
10000000
01000000
00010000
00001000
00010000
00000000
,
00001000
01000000
00100000
01000000
00001000
00010000
00000100
00000010
,
00000001
00000100
00001000
00010000
00000100
00000010
00000001
00000000
,
00000010
00001000
00010000
00002000
00000000
00000100
00003100
00000000
,
00000010
00010000
00001000
00100000
00010000
01000000
10000000
00000000
,
01000000
00010000
00100000
00001000
00100000
00010000
01000000
00100000
,
10000000
01000000
00010000
00001000
00000000
00001000
00010000
00000000
,
00000100
00000010
00000001
00000200
00000000
00000010
00000310
00000000
,
00010000
00001000
00010000
00000100
00000010
00000001
00000100
00000000
,
00001000
00010000
00100000
00010000
00001000
00100000
00001000
00010000
,
01000000
00010000
00001000
00100000
01000000
10000000
00100000
00000000
,
01000000
00001000
00100000
02000000
00000000
10000000
13000000
00000000
,
00100000
00010000
00001000
00000010
00000001
00001000
00000010
00000000
,
00000100
00000010
00010000
00001000
00010000
00000010
00001000
00000100
,
00010000
00001000
01000000
00100000
00000000
00100000
01000000
00000000
,
00010000
00100000
10000000
00100000
00001000
01000000
00100000
10000000
,
01000000
10000000
00010000
01000000
00001000
00100000
00010000
01000000
,
00100000
00010000
00100000
10000000
00010000
00100000
00001000
00010000
,
00000010
00000100
00000001
00000010
00000100
00010000
00000010
00000100
,
00001000
00000100
00000001
00001000
00000010
00000001
00000010
00001000
,
00000100
00010000
00000010
00000100
00000010
00001000
00000100
00000001
,
00000100
00001000
00000001
00000010
00000100
00010000
00001000
01000000
,
00100000
10000000
01000000
00100000
00101000
00000000
00010010
00000000
,
00000010
00001000
00000100
00000010
00000100
00010000
00000010
00001000
,
00000001
00000100
00001000
00010000
01000000
10000000
00010000
01000000
,
00100000
10000000
01000000
00010000
00001000
00000100
,
00000001
00000001
00001000
00001000
,
00000010
00010000
00000100
00010000
00001000
00100000
01000000
10000000
,
00100000
01000000
00100000
10000000
00010000
10000000
01000000
00100000
,
00001000
01000000
00001000
00010000
00000100
00001000
00000001
00000010
,
00002000
00023000
00230000
10300000
,
11000000
00000000
00100000
00000000
00001000
00000000
00010000
00001000
00100000
00010000
00100000
00000000
01000000
00000000
00100000
00000000
,
01100000
00000000
10000000
00000000
00010000
00000000
01000000
00001000
00010000
00000100
00010000
00000000
00010100
00000000
00000000
00000000
,
00001010
00000001
00000100
00000010
00001010
00010010
00011000
00101000
,
00110000
01000000
10000000
00100000
02000000
00000000
00000000
03010000
,
00100000
00001000
00100000
02000000
00000000
10000000
13000000
00000000
,
00100000
00010000
00001000
00000010
00000001
00001000
00000001
00000000
,
00000100
00000010
00000100
00000001
00000010
00000001
00001000
00000010
,
00010000
00001000
00010000
00000100
00000010
00000001
00000100
00000000
,
00001000
00010000
00001000
02000000
00000000
00100000
03100000
00000000
,
10000000
01000000
00100000
00001000
01000000
00100000
00010000
00000000
,
00100000
10000000
00010000
00100000
00001000
00010000
00000010
00001000
,
00000001
00001000
00000100
00010000
00000000
00010000
00001000
00000000
,
01000000
00010000
00100000
20000000
00000000
00100000
30100000
00000000
,
00001000
01000000
00010000
01000000
10000000
01000000
00100000
00000000
,
10000000
00010000
00100000
01000000
00010000
01000000
00100000
00001000
,
01000000
00010000
00100000
00001000
00010000
00000010
00001000
00000000
,
00000100
00000010
00000001
00000200
00000000
00001000
00001300
00000000
,
00010000
00000100
00000010
00000001
00000010
00000100
00010000
00000000
,
00001000
01000000
00100000
10000000
01000000
00100000
00010000
01000000
,
00100000
10000000
01000000
00100000
00000000
00100000
00001000
00000000
,
00010000
00000010
00010000
00001000
,
00000000
01000000
00100000
00000000
,
10000000
01000000
00100000
00001000
,
00010000
00000010
00000100
00000000
,
00000001
00000010
00000100
00001000
,
00000000
00000010
00010000
00000000
,
00001000
00000000
00100000
00000000
00001000
00000000
,
00010000
00000000
00000010
00000000
00010000
00000000
,
00002000
00000000
00203000
00000000
,
00320000
00000000
02030000
00000000
,
03200000
00000000
20300000
00000000
,
30020000
00000000
00230000
00000000
,
00301000
00010000
00000100
00000010
,
00000100
00001000
00000010
00001000
,
00000100
00010000
00000100
00000010
,
00000001
00000000
00000000
00000000
,
00002000
00000000
00000000
00000000
,
00000000
00000000
00000000
00000000
,
00000000
00000000
00000000
00000000
,
00000000
00000000
00000000
00000000
,
00000000
00000000
00000000
00000000
,
00000000
00000000
00000000
00000000
,
00000000
00000000
00000000
00000000
,
00000000
00000000
00000000
00000000
,
00000000
00000000
00000000
00000000
,
00000000
00000000
00000000
00000000
,
00000000
00000000
00003100
00000000
,
00000000
00000000
00000000
00000000
;
#NOTES:
     dance-double:
     :
     Challenge:
     18:
     :
00000000
00000000
00000000
00000000
,
00000000
00000000
00000000
00000000
,
00000000
00000000
00000000
00000000
,
00000000
00000000
00000000
01000000
,
10000000
00100000
10000000
01000000
00100000
01000000
00010000
00001000
,
01000000
00100000
01000000
00001000
00010000
00000010
00010000
00000100
,
00000010
00000100
00001000
00000001
00001000
00000100
00010000
00001000
,
00000100
00000000
00000001
00000000
00000100
00000000
00000010
00000000
00010000
00000100
00001000
00000100
00010000
00000000
00000000
00000000
,
00001000
01000000
00100000
10000000
00010000
10000000
00100000
00010000
,
00001000
00100000
01000000
10000000
00100000
01000000
00001000
00010000
,
00000100
00000010
00000001
00000100
00001000
00010000
00000100
00010000
,
00000010
00000000
00001000
00000000
00000100
00000000
00010000
00000000
01000000
00100000
00010000
00000000
10000000
00000000
00000000
00000000
,
00100000
10000000
01000000
00100000
00001000
00000000
00010000
00000000
00000010
00000000
00000100
00000000
00001000
00000000
00000100
00000000
,
00000001
00000010
00000100
00010000
00000100
00000010
00000100
00000001
,
00000100
00000000
00001000
00000000
00000001
00000000
00000100
00000000
00001000
00010000
00000100
00000000
00010000
00000000
00001000
00000000
,
01000000
00000000
00010000
00000000
00100000
00000000
00001000
00000000
01000000
00100000
10000000
00000000
01000000
00000000
00100000
00000000
,
00001000
00000000
00010000
00000000
00000010
00000100
00000001
00001000
00000100
00000000
00000010
00000000
00001000
00000000
00000010
00000000
,
00000001
00000100
00001000
00000001
00000010
00001000
00000100
00010000
,
00001000
00000000
00100000
00000000
00001000
00000000
01000000
00000000
00100000
10000000
01000000
00000000
00100000
00000000
00001000
00000000
,
00010000
00000000
00000010
00000000
00000100
00000001
00001000
00000001
00000010
00000100
00001000
00000000
00000000
00000000
00000000
00000000
,
00000001
00000000
00000100
00000010
00001000
00000000
00000100
00000000
00000000
00000000
00000100
00000000
00010000
00000000
00000000
00000000
,
00001000
00000000
01000000
00000000
00100000
00000000
10000000
00010000
01000000
00000000
00001000
00000000
00100000
00000000
01000000
00000000
,
10000000
00000000
00100000
00000000
01000000
00001000
00010000
00000000
00000100
00000000
00000010
00000000
00000001
00000000
00000100
00000010
,
00001000
00000000
00000100
00000000
00010000
00000000
00001000
00000000
01000000
00010000
00100000
00000000
01000000
00000000
00000000
00000000
,
10000000
00000000
00010000
01000000
00100000
00000000
01000000
00000000
00000000
00000000
01000000
00000000
00001000
00000000
00000000
00000000
,
00010000
00000000
00000100
00000000
00000010
00000000
00000001
00000100
00000010
00000000
00010000
00000000
00000100
00000000
00001000
00000000
,
00000010
00000000
00000001
00000000
00000010
00001000
00000100
00000000
00010000
00000000
00001000
00000000
00100000
00000000
01000000
10000000
,
00010000
01000000
00001000
00010000
00000000
00010000
00000100
00000000
,
00000010
00000000
00000001
00001000
00000100
00000000
00010000
00000000
00000010
00000000
00000100
00000000
00000010
00010000
00001000
00100000
,
00010000
01000000
00100000
10000000
01000000
00010000
00001000
00000100
,
00000001
00000000
00000010
00000000
00000100
00001000
00000010
00000000
00000001
00000000
00000010
00000000
00010000
00000000
00001000
00100000
,
01000000
00000000
00010000
00000000
01000000
00000000
10000000
00100000
01000000
00001000
00010000
00000000
00001000
00000000
00000000
00000000
,
00100000
00000000
01000000
10000000
00010000
00000000
01000000
00000000
00100000
10000000
01000000
00000000
00010000
00000000
00000000
00000000
,
00001000
00000010
00000001
00000100
00000010
00001000
00000100
00010000
,
00001000
00000000
01000000
00000000
00100000
01000000
00010000
00000000
00100000
00000000
00001000
00000000
00010000
00000000
00001000
00000000
,
01000000
00000000
00100000
00000000
10000000
00000000
01000000
00000000
00100000
00001000
00010000
00001000
01000000
00000000
00000000
00000000
,
00100000
10000000
00010000
00100000
01000000
00001000
01000000
00100000
,
00001000
01000000
00010000
00100000
01000000
10000000
00100000
00010000
,
00001000
00000010
00000001
00000100
00000010
00010000
00000100
00001000
,
00000010
00010000
00100000
00010000
00000010
00001000
00000100
00000010
,
00000001
00000100
00001000
00000100
00000001
00000010
00000100
00010000
,
00001000
01000000
00100000
01000000
00010000
10000000
00100000
01000000
,
00001000
00100000
01000000
10000000
00100000
00010000
00100000
01000000
,
00100000
10000000
01000000
00100000
00110000
00000000
11000000
00000000
,
00100000
00001000
00010000
00000010
00001000
00000001
00000010
00000100
,
00010000
00001000
01000000
00100000
10000000
00010000
00100000
01000000
,
10000000
00100000
00010000
00001000
00000010
00000001
,
00000101
00010010
00101000
11000000
,
00010000
01000000
00001000
00100000
01000000
10000000
00100000
01000000
,
00001000
00001000
00001000
00001000
00010000
00010000
00010000
00010000
,
00000100
00000000
00000010
00000000
00000001
00000000
00000100
00000000
00000010
00010000
00000010
00000000
00001000
00000000
00000100
00000000
,
00000010
00000001
00000100
00000010
00001000
00000100
00000020
00000000
00000000
00000130
00000000
00000000
,
00010100
00000000
00010100
00000000
00000010
00000000
00000101
00000000
00000010
00001000
00000100
00000000
00010000
00001000
01001000
00000000
,
00010100
00000000
00010100
00000000
00000010
00000001
00000100
00001000
00000100
00000001
00000010
00000000
00000100
00000000
00000000
00000000
,
00011000
00000000
00011000
00000000
01000000
00000000
10010000
00000000
20200000
30300000
02002000
03003000
00020200
00030300
00000022
00000033
,
00001001
00000000
00001001
00000000
00001000
00000000
00000001
00000000
00000200
00000000
00000000
00000000
00000000
00000300
00000110
00000000
,
00000001
00000000
00000010
00000100
00001000
00000000
00000020
00000000
00000000
00000000
00000100
00000000
00001030
00000000
00000000
00000000
,
00000001
00000000
00000100
00000000
00000010
00000000
00010000
00000000
00001000
00100000
00010000
01000000
00100000
00000000
10000000
00000000
,
01000000
00000000
00100000
00010000
01000000
00000000
00100000
00000000
10000000
00010000
01000000
00000000
00100000
00000000
10000000
00000000
,
01000000
00000000
00100000
00000000
00001000
00000000
00010000
00000000
00000010
00000100
00000001
00001000
00000010
00000000
00000000
00000000
,
00010000
00000000
00001000
00100000
01000000
00000000
20000000
00000000
00000000
00000000
01000000
00000000
30010000
00000000
00000000
00000000
,
00100000
00000000
00001000
00000000
01000000
00000000
10000000
00000000
01000000
00100000
10000000
01000000
00100000
00000000
00001000
00000000
,
00010000
00000000
00000100
00000010
00000001
00000000
00000100
00000000
00000010
00010000
00000100
00000000
00001000
00000000
00000001
00000000
,
00000010
00000000
00000100
00000000
00010000
00000000
00001000
00000000
01000000
00100000
10000000
00000000
10000000
00000000
00000000
00000000
,
01000000
00000000
00100000
00001000
00010000
00000000
00000020
00000000
00000000
00000000
00000100
00000000
00001030
00000000
00000000
00000000
,
00000001
00000000
00000010
00000000
00000100
00000000
00000010
00000000
00000001
00000100
00000010
00010000
00001000
00000000
00100000
00000000
,
01000000
00000000
00100000
00010000
01000000
00000000
10000000
00000000
01000000
00010000
00100000
00000000
01000000
00000000
10000000
00000000
,
00100000
00000000
01000000
00000000
00001000
00000000
00010000
00000000
00100000
01000000
00010000
10000000
01000000
00000000
00000000
00000000
,
00100000
00000000
01000000
10000000
00100000
00000000
02000000
00000000
00000000
00000000
00100000
00000000
03010000
00000000
00000000
00000000
,
10000000
00000000
00100000
00000000
00010000
00000000
00001000
00000000
00000010
00000001
00000100
00000010
00001000
00000000
00000001
00000000
,
00000010
00000100
00000010
00000001
00000100
00001000
00010000
00001000
,
00100000
01000000
00010000
01000000
10000000
00100000
01000000
00000000
,
00100000
10000000
01000000
00100000
,
00001000
00010000
01000000
00010000
,
00001000
01000000
00100000
10000000
,
00010000
00100000
00001000
00010000
,
00001000
00000010
00001000
00010000
,
00000100
00000010
00000001
00000100
,
00000101
00000000
00000110
00000000
00010010
00000000
,
00011000
00000000
00101000
00000000
01100000
00000000
,
01000000
10000000
00100000
10000000
00010000
01000000
,
00001000
00010000
00000100
00000010
00000001
00000100
,
00000010
00010000
00000100
00010000
00001000
01000000
,
00100000
10000000
01000000
10000000
00100000
01000000
,
00010000
10000000
00010000
10000000
00010000
10000000
00010000
10000000
,
00010000
10000000
00010000
10000000
00010000
10000000
00010000
10000000
,
00010000
10000000
00010000
10000000
00010000
10000000
00010000
10000000
,
02000000
00000000
00000000
00000000
00000000
03000000
00000000
00000000
,
00020000
00000000
00000000
00000000
,
00001000
00000000
00000000
00000000
,
00031000
00000000
00000000
00000000
00000000
00000000
00000000
00000000
00000000
00000000
00000000
00000000
00000000
00000000
00000000
00000000
00000000
00000000
00000000
00000000
00000000
00000000
00000000
00000000
00000000
00000000
00000000
00000000
00000000
00000000
00000000
00000000
00000100
00000000
00000000
00000000
00000000
00000000
00000000
00000000
00000000
00000000
00000000
00000000
00000000
00000000
00000000
00000000
00000000
00000000
00000000
00000000
00000000
00000000
00000000
00000000
00000000
00000000
00000000
00000001
00000000
00000000
00000000
00000000
,
00000000
00000000
00000000
00000000
00000000
00000000
00000000
00000000
00000000
00000000
00000000
00000000
00000000
00000000
00000000
00000000
00000000
00000000
00000000
00000000
00000000
00000000
00000000
00000000
00000010
00000000
00000000
00000000
00000000
00000000
00000000
00000000
00000000
00000000
00000000
00000000
00000000
00000000
00000000
00000000
00000000
00000000
00000000
00000000
00000000
00000000
00000000
00000000
00000000
00000000
00000000
00000000
00000000
00000100
00000000
00000000
00000000
00000000
00000000
00000000
00000000
00000000
00000000
00000000
,
00000000
00000000
00000000
00000000
00000000
00000000
00000000
00000000
00000000
00000000
00000000
00000000
00000000
00000000
00000000
00000000
00000010
00000000
00000000
00000000
00000000
00000000
00000000
00000000
00000000
00000000
00000000
00000000
00000000
00000000
00000000
00000000
00000000
00000000
00000000
00000000
00000000
00000000
00000000
00000000
00000000
00000000
00000000
00000000
00000000
00000000
00000000
00000100
00000000
00000000
00000000
00000000
00000000
00000000
00000000
00000000
00000000
00000000
00000000
00000000
00000000
00000000
00000000
00000000
,
00000000
00000000
00000000
00000000
00000000
00000000
00000000
00000000
00000000
00000000
00000010
00000000
00000000
00000000
00000000
00000000
00000000
00000000
00000000
00000000
00000000
00000000
00000000
00000000
00000000
00000000
00000000
00000000
00000000
00000000
00000000
00000000
00000000
00000000
00000000
00000000
00000100
00000000
00000000
00000000
00000000
00000000
00000000
00000000
00000000
00000000
00000000
00000000
00000000
00000000
00000000
00000000
00000000
00000000
00000000
00000000
00000000
00000000
00000000
00000000
00000000
00000010
00000000
00000000
,
00000000
00000000
00000000
00000000
00000000
00000000
00000000
00000000
00000000
00000000
00000000
00000000
00000000
00000000
00000000
00000000
00000000
00000000
00000000
00000000
00000000
00000000
00000000
00000100
00000000
00000000
00000000
00000000
00000000
00000000
00000000
00000000
00000000
00000000
00000000
00000000
00000000
00000000
00000000
00000000
00000000
00000000
00000000
00000000
00000000
00000000
00000000
00000000
00000010
00000000
00000000
00000000
00000000
00000000
00000000
00000000
00000000
00000000
00000000
00000000
00000000
00000000
00000000
00000000
,
00000000
00000000
00000000
00000000
00000000
00000000
00000000
00000000
00000000
00000100
00000000
00000000
00000000
00000000
00000000
00000000
00000000
00000000
00000000
00000000
00000000
00000000
00000000
00000000
00000000
00000000
00000000
00000000
00000000
00000000
00000000
00000010
00000000
00000000
00000000
00000000
00000000
00000000
00000000
00000000
00000000
00000000
00000000
00000000
00000000
00000000
00000000
00000000
00000000
00000000
00000000
00000100
00000000
00000000
00000000
00000000
00000000
00000000
00000000
00000000
00000000
00000000
00000000
00000000
,
00000000
00000000
00000000
00000000
00000000
00000000
00000000
00000000
00000010
00000000
00000000
00000000
00000000
00000000
00000000
00000000
00000000
00000000
00000000
00000000
00000000
00000000
00000000
00000000
00000000
00000000
00000000
00000000
00000000
00000100
00000000
00000000
00000000
00000000
00000000
00000000
00000000
00000000
00000000
00000000
00000000
00000000
00000000
00000000
00000000
00000000
00000000
00000000
00000010
00000000
00000000
00000000
00000000
00000000
00000000
00000000
00000000
00000000
00000000
00000000
00000000
00000000
00000000
00000000
,
00000100
00000000
00000000
00000000
00000000
00000000
00000000
00000000
00000000
00000000
00000000
00000000
00000000
00000000
00000010
00000000
00000000
00000000
00000000
00000000
00000000
00000000
00000000
00000000
00000000
00000000
00000000
00000100
00000000
00000000
00000000
00000000
00000000
00000000
00000000
00000000
00000000
00000000
00000010
00000000
00000000
00000000
00000000
00000000
00000000
00000000
00000000
00000000
00000100
00000000
00000000
00000000
00000000
00000000
00000000
00000000
00000000
00000010
00000000
00000000
00000000
00000000
00000000
00000000
,
00000000
00000000
00000000
00000100
00000000
00000000
00000000
00000000
00000000
00000000
00000000
00000000
00000010
00000000
00000000
00000000
00000000
00000000
00000000
00000000
00000100
00000000
00000000
00000000
00000000
00000000
00000000
00000000
00000010
00000000
00000000
00000000
00000000
00000000
00000000
00000000
00000000
00000000
00000000
00000000
00000000
00000000
00000000
00000000
00000000
00000000
00000000
00000000
00000000
00000000
00000000
00000000
00000000
00000000
00000000
00000000
00000000
00000000
00000000
00000000
00000000
00000000
00000000
00000000
,
00000000
00000000
00000000
00000000
;
