
//----- song ID: goup -----//
#TITLE:going up;
#ARTIST:colors;
#BANNER:going up.png;
#BACKGROUND:going up-bg.png;
#CDTITLE:./CDTitles/GFDM V.png;
#MUSIC:going up.ogg;
#SAMPLESTART:58.86;
#SAMPLELENGTH:15;
#DISPLAYBPM:212;
#BPMS:0=211.5,4=212;
#NOTES:
     dance-single:
     :
     Beginner:
     3:
     :
0000
0000
0000
0000
,
0000
0000
0000
0000
,
0000
0000
0000
0000
,
0000
0000
0000
0000
,
0000
0000
0000
0000
,
0000
0000
0000
0000
,
0000
0000
0000
0000
,
0100
0000
0000
0000
,
0000
0000
0000
0000
,
0010
0000
0000
0000
,
0000
0000
0000
0000
,
1000
0000
0000
0000
,
0001
0000
0000
0000
,
1000
0000
0000
0000
,
0001
0000
0000
0000
,
1000
0000
1000
0000
,
0001
0000
0001
0000
,
1000
0000
0000
0000
,
0000
0000
0000
0000
,
0001
0000
0000
0000
,
0000
0000
0000
0000
,
0010
0000
0000
0000
,
0001
0000
0000
0000
,
1000
0000
0000
0000
,
0010
0000
0000
0000
,
0100
0000
0000
0000
,
0001
0000
0000
0000
,
1000
0000
0000
0000
,
0100
0000
0000
0000
,
0001
0000
0001
0000
,
0100
0000
0000
0000
,
1000
0000
1000
0000
,
0100
0000
0000
0000
,
0001
0000
0001
0000
,
0010
0000
0000
0000
,
1000
0000
1000
0000
,
0010
0000
0000
0000
,
1000
0000
1000
0000
,
0010
0000
0010
0000
,
0001
0000
0001
0000
,
0010
0000
0010
0000
,
1000
0000
1000
0000
,
0010
0000
0010
0000
,
0001
0000
0001
0000
,
0010
0000
0010
0000
,
1000
0000
0000
0000
,
0001
0000
0000
0000
,
1000
0000
0000
0000
,
0001
0000
0000
0000
,
2000
0000
0000
3000
,
0000
0000
0000
0000
,
0002
0000
0000
0003
,
0000
0000
0000
0000
,
0010
0000
0010
0000
,
0010
0000
0000
0000
,
0001
0000
0001
0000
,
0001
0000
0000
0000
,
1000
0000
1000
0000
,
1000
0000
0000
0000
,
0100
0000
0100
0000
,
0100
0000
0000
0000
,
0001
0000
0001
0000
,
1000
0000
1000
0000
,
0001
0000
0001
0000
,
1000
0000
1000
0000
,
0001
0000
0001
0000
,
1000
0000
1000
0000
,
0001
0000
0000
0000
,
0000
0000
0000
0000
,
0010
0000
0000
0000
,
0001
0000
0000
0000
,
1000
0000
0000
0000
,
0100
0000
0000
0000
,
0010
0000
0000
0000
,
1000
0000
0000
0000
,
0001
0000
0000
0000
,
0100
0000
0000
0000
,
0001
0000
0001
0000
,
0010
0000
0000
0000
,
1000
0000
1000
0000
,
0010
0000
0000
0000
,
0001
0000
0001
0000
,
0100
0000
0000
0000
,
1000
0000
1000
0000
,
0100
0000
0000
0000
,
0001
0000
0000
0000
,
0000
0000
0000
0000
,
1000
0000
0000
0000
,
0000
0000
0000
0000
,
0002
0000
0000
0003
,
0000
0000
0000
0000
,
2000
0000
0000
3000
,
0000
0000
0000
0000
,
0001
0000
0001
0000
,
1000
0000
1000
0000
,
0001
0000
0001
0000
,
1000
0000
1000
0000
,
0001
0000
0001
0000
,
1000
0000
1000
0000
,
0001
0000
0000
0000
,
1000
0000
0000
0000
,
0000
0000
0000
0000
;
#NOTES:
     dance-single:
     :
     Easy:
     7:
     :
0000
0000
0000
0000
,
0000
0000
0000
0000
,
0000
0000
0000
0000
,
0000
0000
0000
0000
,
0000
0000
0000
0000
,
0000
0000
0000
0000
,
0000
0000
0000
0000
,
0001
0010
0100
0000
,
1000
0010
0100
0000
,
0001
0100
1000
0000
,
1000
0100
0010
0000
,
0001
0010
0001
0010
,
0100
1000
0100
1000
,
0010
1000
0010
1000
,
0001
0100
0001
0100
,
1000
0010
0100
0010
,
0001
0010
0100
0010
,
0100
0000
0000
0000
,
0100
0000
0100
0000
,
0010
0001
0100
0000
,
0001
0001
0000
0000
,
0100
0001
1000
0000
,
0010
1000
0100
0000
,
1000
0001
0100
0000
,
0100
0010
0100
0000
,
0001
0010
0001
0000
,
1000
0010
1000
0000
,
1000
0100
0010
0001
,
1000
0001
0100
0000
,
0100
1000
0001
0000
,
0010
0001
0100
0000
,
0001
1000
0100
0000
,
0100
0010
0100
0000
,
1000
0010
1000
0000
,
0001
0010
0001
0000
,
0001
0100
0010
1000
,
0001
1000
0100
0000
,
0010
0010
0010
0010
,
0100
0100
0100
0100
,
0001
0001
0001
0001
,
1000
1000
1000
1000
,
0001
0001
0001
0001
,
1000
1000
1000
1000
,
0100
0100
0100
0100
,
0010
0010
0010
0000
,
0010
0100
1000
0000
,
0010
1000
0001
0000
,
0010
0001
1000
0000
,
0010
1000
0100
0000
,
1000
1000
0100
0000
,
0001
0001
0100
0000
,
0010
1000
0001
0000
,
1000
0001
1000
0000
,
0010
1000
0001
0100
,
1000
0010
0100
0000
,
1000
0010
0100
0010
,
0100
0100
0100
0000
,
0001
0010
0100
0000
,
1000
0010
0100
0000
,
0100
0010
1000
0010
,
0001
0010
1000
0000
,
0001
0010
0001
0010
,
0100
1000
0100
1000
,
0010
1000
0010
1000
,
0001
0100
0001
0100
,
1000
0010
0100
0010
,
0001
0010
0100
0010
,
0010
0001
0010
1000
,
0100
0000
0000
0000
,
0001
0100
0010
0000
,
1000
0100
0010
0000
,
0001
0010
0100
0000
,
1000
0010
0100
0000
,
0001
0100
0001
0000
,
0001
0010
0100
0000
,
0010
0100
0001
0000
,
1000
0001
0100
0000
,
0100
0000
1000
0000
,
0100
0000
0001
0000
,
1000
0000
0010
0000
,
0001
0000
0010
0000
,
1000
0010
0100
0000
,
1000
0100
0010
0000
,
1000
1000
0010
0010
,
0100
0100
0001
0000
,
0000
0010
0000
0010
,
0000
0010
0000
0010
,
0000
1000
0000
1000
,
0010
0100
0001
0000
,
0100
0000
0001
0000
,
0000
0000
1000
0000
,
0000
0000
0010
0000
,
1000
0010
0100
0000
,
1000
0010
1000
0010
,
0100
0001
0100
0001
,
0010
0001
0010
0001
,
1000
0100
1000
0100
,
0001
0010
0100
0010
,
1000
0010
0100
0010
,
0010
0001
0010
1000
,
0001
0001
0000
0000
,
0000
0000
0000
0000
;
#NOTES:
     dance-single:
     :
     Medium:
     10:
     :
0000
0000
0000
0000
,
0000
0000
0000
0000
,
0000
0000
0000
0000
,
0000
0000
0000
0000
,
0000
0000
0000
0000
,
0000
0000
0000
0000
,
0000
0000
0000
0000
,
1000
0100
0010
0100
,
0001
0100
0010
0100
,
1000
0010
0001
0010
,
0001
1000
0010
0000
0100
0000
0100
0000
,
0010
1000
0100
0000
1000
0000
0001
0000
,
0010
0001
0100
0000
0001
0000
1000
0000
,
0010
0100
0001
0000
1000
0000
0100
0000
,
0010
0100
1000
0000
0001
0000
0100
0000
,
0001
1000
0100
0000
0010
0000
0100
0000
,
1000
0001
0100
0000
0010
0000
0100
0010
,
0000
1000
0100
0001
,
0010
0001
0010
0001
,
0100
1000
0010
0001
,
1000
0100
1000
0000
0001
0100
0000
0000
,
0010
1000
0001
1000
,
0100
0001
0010
1000
,
0001
1000
0010
0001
,
0010
0100
0010
0001
,
1000
0000
0100
1000
0000
0000
0100
0000
,
1000
0000
0001
0010
0000
0000
0100
0000
,
0001
0010
0100
1000
,
0001
0100
1000
0000
0010
0000
0100
0000
,
0010
0001
1000
0001
,
0100
1000
0010
0001
,
1000
0001
0010
1000
,
0010
0100
0010
1000
,
0001
0000
0100
0001
0000
0000
0100
0000
,
0001
0000
1000
0010
0000
0000
0100
0000
,
1000
0010
0100
0001
,
1000
0100
0001
0000
0010
0000
0100
0000
,
0010
0010
1100
1100
,
0010
0010
0101
0101
,
1000
1000
0110
0110
,
0001
0001
0110
0110
,
1000
1000
0011
0011
,
1000
1000
0101
0101
,
0010
0010
1001
1001
,
0010
0000
0010
0000
0100
1000
0000
0100
,
0000
0010
0001
1000
,
0100
0001
1000
0001
,
0100
1000
0001
1000
,
0100
0001
0010
1000
,
0001
0000
0001
0000
0010
0100
0010
0000
,
1000
0000
1000
0000
0010
0100
0010
0000
,
0100
0001
1000
0010
,
0001
1000
0001
0000
1000
0100
0000
0010
,
0000
0001
1000
0010
,
0001
0000
0100
0000
0010
0100
0000
0001
,
0000
0100
0010
0100
,
0010
0010
0010
0010
,
1000
0000
0100
0000
0010
0001
1000
0000
,
0001
0000
0100
0000
0010
1000
0001
0000
,
0010
0100
0001
0100
,
1000
0100
0001
0100
,
0010
1000
0100
0000
1000
0000
0001
0000
,
0010
0001
0100
0000
0001
0000
1000
0000
,
0010
0100
0001
0000
1000
0000
0100
0000
,
0010
0100
1000
0000
0001
0000
0100
0000
,
0001
1000
0100
0000
0010
0000
0100
0000
,
1000
0001
0100
0000
0010
0000
0100
0010
,
0100
1000
0100
0001
,
0010
0001
0010
0000
,
1000
0010
0100
1000
,
0001
0010
0100
0001
,
1000
0100
0010
1000
,
0001
0100
0010
0001
,
1000
0000
0010
1000
0000
0000
0010
0000
,
1000
0000
0100
0010
0000
0000
0001
0000
,
0100
0000
0010
0000
1000
0100
1000
0000
,
0001
1000
0010
1000
,
0010
1000
0001
0001
,
0010
0001
1000
1000
,
0001
0010
0100
0100
,
1000
0010
0100
0100
,
0001
0000
0100
0010
0000
0000
1000
0000
,
0001
0000
0010
0100
0000
0000
1000
0000
,
0001
0001
0100
0100
,
0010
0100
0010
0000
1000
0001
0000
0010
,
0000
0100
0000
0100
,
0000
0000
0100
0000
0000
0000
0100
1000
,
0000
0001
0000
0001
,
0100
0010
1000
0100
,
0010
0000
0001
0000
1000
0000
0000
0010
,
0000
0010
0001
0000
,
0010
1000
0100
1000
,
0001
0000
0100
0000
0010
0100
0000
0110
,
0000
0100
0001
1000
,
0010
1000
0100
0000
1000
0000
0001
0000
,
0010
0100
1000
0000
0001
0000
0100
0000
,
0010
0100
0001
0000
1000
0000
0100
0000
,
1000
0001
0100
0000
0010
0000
0100
0000
,
0001
1000
0100
0000
0010
0000
0100
0010
,
0100
0001
0100
1000
,
0001
1000
0001
0000
0000
0000
0000
0000
,
0000
0000
0000
0000
;
#NOTES:
     dance-single:
     :
     Hard:
     12:
     :
0000
0000
0000
0000
,
0000
0000
0000
0000
,
0000
0000
0000
0000
,
0000
0000
0000
0000
,
0000
0000
0000
0000
,
0000
0000
0000
0000
,
0000
0000
0000
0000
,
0001
0000
0100
0000
0010
0100
0001
0000
,
1000
0000
0100
0000
0010
0100
1000
0000
,
0001
0010
1000
0010
,
1000
0001
0010
0100
0010
0000
0001
0000
,
0010
0001
0100
0010
0100
0001
0010
0000
,
0001
1000
0010
0100
0010
1000
0001
0000
,
0010
0100
1000
0001
1000
0100
0010
0000
,
0001
0010
0100
1000
0100
0010
0001
0000
,
1000
0010
0100
0001
0100
0010
1000
0000
,
0100
0010
0001
1000
0001
0010
0100
0010
,
0000
0001
0100
1000
,
0010
1000
0010
1000
,
0100
0001
0010
1000
,
0001
0100
0001
0000
1000
0100
0000
0000
,
0010
0000
0001
0000
1000
0100
0001
0000
,
0100
0000
1000
0000
0010
0100
0001
0000
,
1000
0000
0001
0000
0010
0001
1000
0000
,
0010
0100
0010
1000
,
0001
0000
0100
0001
0000
1000
0100
0010
,
0001
0000
1000
0010
0000
0100
0001
1000
,
0100
0000
0010
0100
0000
1000
0001
0100
,
1000
0100
0001
0000
0010
0000
0100
0000
,
0010
0000
1000
0000
0001
0100
1000
0000
,
0100
0000
0001
0000
0010
0100
1000
0000
,
0001
0000
1000
0000
0010
1000
0001
0000
,
0010
0100
0010
0001
,
1000
0000
0100
1000
0000
0001
0100
0010
,
1000
0000
0001
0010
0000
0100
1000
0001
,
0100
0000
0010
0100
0000
0001
1000
0100
,
0001
0100
1000
0000
0010
0000
0100
0000
,
0010
0010
0101
0101
,
0010
0010
1100
1100
,
0001
0001
0110
0110
,
1000
1000
0110
0110
,
0001
0001
1010
1010
,
0001
0001
1100
1100
,
0010
0010
1001
1001
,
0010
0000
0010
0000
0100
0001
0000
0100
,
0000
0000
0010
0000
1000
0100
0001
0000
,
0100
0000
1000
0000
0001
0100
1000
0000
,
0100
0000
0001
0000
1000
0100
0001
0000
,
0100
1000
0010
0001
,
1000
0000
1000
0000
0010
0100
0010
0000
,
0001
0000
0001
0000
0010
0100
0010
0000
,
0100
1000
0001
0010
,
1000
0001
1000
0000
0001
0100
0000
0110
,
0000
0000
1000
0000
0001
0100
0010
0000
,
1000
0000
0100
0000
0010
0100
1000
0001
,
0000
0000
0100
0000
0010
1000
0100
0000
,
0010
0010
0010
0010
,
0001
0000
0101
0000
0010
1000
0001
0000
,
1000
0000
1100
0000
0010
0001
1000
0000
,
0010
0100
0010
0000
1000
0100
1000
0000
,
0001
0100
1000
0100
,
0010
0001
0100
0010
0100
0001
0010
0000
,
0001
1000
0010
0100
0010
1000
0001
0000
,
0010
0100
1000
0001
1000
0100
0010
0000
,
0001
0010
0100
1000
0100
0010
0001
0000
,
1000
0010
0100
0001
0100
0010
1000
0000
,
0100
0010
0001
1000
0001
0010
0100
0000
,
0010
0001
0100
1000
,
0010
1000
0010
1000
,
0001
0000
0010
0100
0000
0010
0001
0000
,
1000
0000
0010
0100
0000
0010
1000
0000
,
0001
0000
0100
0010
0000
0100
0001
0000
,
1000
0000
0100
0010
0000
0100
1000
0000
,
0001
0000
0010
0001
0000
1000
0010
1000
,
0001
0000
0100
0010
0000
1000
0001
1000
,
0100
0000
0010
0000
0001
0100
0001
0000
,
1000
0010
0001
0010
0000
0100
0001
0000
,
0010
0000
0001
0000
1000
0100
1000
0000
,
0010
0000
1000
0000
0001
0100
0001
0000
,
1000
0000
0010
0000
0100
0001
0100
0000
,
0001
0000
0010
0000
0100
1000
0100
0000
,
1000
0001
0100
0010
0000
0100
0001
0000
,
1000
0100
0010
0001
0000
0010
0100
0000
,
1000
0010
1000
0010
0100
0001
0100
0001
,
0010
0100
0010
0000
0001
1000
0000
1010
,
0000
0100
0000
0100
,
0000
0000
0100
0000
0000
0010
0100
0001
,
0000
1000
0000
1000
,
0100
0010
0001
0100
,
0010
0000
1000
0000
0001
0000
1000
0010
,
0000
0010
0000
0010
1000
0000
0001
0000
,
0010
0001
0100
0001
,
1000
0100
1000
0001
0100
0010
0000
0110
,
0000
1000
0100
0010
0100
1000
0010
0000
,
1000
0001
0010
0100
0010
0001
1000
0000
,
0010
0100
0001
1000
0001
0100
0010
0000
,
1000
0010
0100
0001
0100
0010
1000
0000
,
0001
0010
0100
1000
0100
0010
0001
0000
,
0100
0010
1000
0001
1000
0010
0100
0000
,
0010
1000
0100
0001
,
1000
0001
1000
0000
0000
0000
0000
0000
,
0000
0000
0000
0000
;
#NOTES:
     dance-single:
     :
     Challenge:
     11:
     :
0000
0000
0000
0000
,
0000
0000
0000
0000
,
0000
0000
0000
0000
,
0000
0000
0000
0000
,
0000
0000
0000
0000
,
0000
0000
0000
0000
,
0000
0000
0000
0000
,
0001
0100
0010
0100
,
1000
0100
0010
0100
,
0001
0010
1000
0010
,
1000
0001
0010
0000
0100
0000
0100
0000
,
0010
0001
0100
0000
0001
0000
MMMM
0000
,
0010
1000
0100
0000
1000
0000
MMMM
0000
,
0010
0100
1000
0000
0001
0000
MMMM
0000
,
0010
0100
0001
0000
1000
0000
MMMM
0000
,
1000
0001
0100
0000
0010
0000
MMMM
0000
,
0001
1000
0100
0000
0010
0000
0100
0010
,
0000
0001
0100
1000
,
0010
1000
0010
1000
,
0100
0001
0010
1000
,
0001
0100
0001
0000
MMMM
0100
0000
0000
,
0010
0001
1000
0001
,
0100
1000
0010
0001
,
1000
0001
0010
1000
,
0010
0100
0010
1000
,
0001
0000
0100
0001
0000
0000
MMMM
0000
,
0001
0000
1000
0010
0000
0000
MMMM
0000
,
1000
0010
0100
0001
,
1000
0100
0001
0000
0010
0000
0100
0000
,
0010
1000
0001
1000
,
0100
0001
0010
1000
,
0001
1000
0010
0001
,
0010
0100
0010
0001
,
1000
0000
0100
1000
0000
0000
MMMM
0000
,
1000
0000
0001
0010
0000
0000
MMMM
0000
,
0001
0010
0100
1000
,
0001
0100
1000
0000
0010
0000
0100
0000
,
MMMM
MMMM
0101
0101
,
MMMM
MMMM
1100
1100
,
MMMM
MMMM
0110
0110
,
MMMM
MMMM
0110
0110
,
MMMM
MMMM
1010
1010
,
MMMM
MMMM
1100
1100
,
MMMM
MMMM
1001
1001
,
0010
0000
0010
0000
0100
0001
0000
0100
,
0000
0010
1000
0001
,
0100
1000
0001
1000
,
0100
0001
1000
0001
,
0100
1000
0010
0001
,
MMMM
0000
1000
0000
0010
0100
0010
0000
,
MMMM
0000
0001
0000
0010
0100
0010
0000
,
0100
1000
0001
0010
,
1000
0001
1000
0000
0001
0100
0000
MMMM
,
0000
1000
0001
0010
,
1000
0000
0100
0000
0010
0100
0000
MMMM
,
0000
0100
0010
0100
,
0010
0010
0010
0010
,
0001
0000
0100
0000
0010
1000
0001
0000
,
1000
0000
0100
0000
0010
0001
1000
0000
,
0010
0100
1000
0100
,
0001
0100
1000
0100
,
0010
0001
0100
0000
0001
0000
MMMM
0000
,
0010
1000
0100
0000
1000
0000
MMMM
0000
,
0010
0100
1000
0000
0001
0000
MMMM
0000
,
0010
0100
0001
0000
1000
0000
MMMM
0000
,
1000
0001
0100
0000
0010
0000
0100
0000
,
0001
1000
0100
0000
0010
0000
0100
0010
,
0100
0001
0100
1000
,
0010
1000
0010
0000
,
0001
0010
0100
MMMM
,
1000
0010
0100
MMMM
,
0001
0100
0010
MMMM
,
1000
0100
0010
MMMM
,
0001
0000
0010
0001
0000
0000
0010
0000
,
0001
0000
0100
0010
0000
0000
1000
0000
,
0100
0000
0010
0000
0001
0100
0001
0000
,
1000
0001
0010
0001
,
0010
0001
1000
MMMM
,
0010
1000
0001
MMMM
,
1000
0010
0100
MMMM
,
0001
0010
0100
MMMM
,
1000
0000
0100
0010
0000
0000
0001
0000
,
1000
0000
0010
0100
0000
0000
0001
0000
,
1000
1000
0100
0100
,
0010
0100
0010
0000
0001
1000
0000
0010
,
0000
0100
0000
0100
,
0000
0000
0100
0000
0000
0000
0100
0001
,
0000
1000
0000
1000
,
0100
0010
0001
0100
,
0010
0000
1000
0000
MMMM
0000
0000
0010
,
0000
0010
MMMM
0000
,
0010
0001
0100
0001
,
1000
0000
0100
0000
0010
0100
0000
MMMM
,
0000
0100
1000
0001
,
0010
0001
0100
0000
0001
0000
MMMM
0000
,
0010
0100
0001
0000
1000
0000
MMMM
0000
,
0010
0100
1000
0000
0001
0000
MMMM
0000
,
0001
1000
0100
0000
0010
0000
0100
0000
,
1000
0001
0100
0000
0010
0000
0100
0010
,
0100
1000
0100
0001
,
1000
0001
1000
0000
0000
0000
0000
0000
,
0000
0000
0000
0000
;
#NOTES:
     dance-double:
     :
     Easy:
     7:
     :
00000000
00000000
00000000
00000000
,
00000000
00000000
00000000
00000000
,
00000000
00000000
00000000
00000000
,
00000000
00000000
00000000
00000000
,
00000000
00000000
00000000
00000000
,
00000000
00000000
00000000
00000000
,
00000000
00000000
00000000
00000000
,
00000001
00000010
00000100
00000000
,
00001000
00000010
00000100
00000000
,
00000001
00000100
00001000
00000000
,
00010000
00001000
00010000
00000000
,
00100000
00100000
10000000
10000000
,
00010000
01000000
00001000
00010000
,
00000100
00000100
00001000
00001000
,
00000001
00001000
00000100
00000000
,
00000010
00000010
00000001
00000001
,
00001000
00000010
00010000
00001000
,
00100000
00000000
00000000
00000000
,
01000000
00000000
00000000
00000000
,
00100000
00000000
01000000
00000000
,
00100000
00100000
00000000
00000000
,
00010000
10000000
01000000
00000000
,
00010000
00001000
00010000
00000000
,
00001000
00000100
00000010
00000000
,
00001000
00000001
00000010
00000000
,
00000001
00000100
00001000
00000000
,
00010000
00001000
00010000
00000000
,
01000000
01000000
00010000
01000000
,
00010000
00001000
00000100
00000000
,
00001000
00000001
00000100
00000000
,
00001000
00010000
00001000
00000000
,
00010000
01000000
00100000
00000000
,
00010000
10000000
00100000
00000000
,
10000000
01000000
00010000
00000000
,
00001000
00010000
00001000
00000000
,
00000100
00000100
00001000
00000100
,
00001000
00010000
01000000
00000000
,
00100000
00100000
00100000
00100000
,
00010000
00010000
00010000
00010000
,
01000000
01000000
01000000
01000000
,
00001000
00001000
00001000
00001000
,
00010000
00010000
00010000
00010000
,
00000100
00000100
00000100
00000100
,
00001000
00001000
00001000
00001000
,
00000010
00000010
00000010
00000000
,
00000010
00000100
00000001
00000000
,
00000010
00000001
00001000
00000000
,
00000010
00000100
00001000
00000000
,
00001000
00010000
00100000
00000000
,
10000000
10000000
01000000
00000000
,
00010000
00010000
01000000
00000000
,
00100000
10000000
00010000
00000000
,
10010000
00000000
00000000
00000000
,
00100000
10000000
01000000
00010000
,
00001000
00010000
00001000
00000000
,
00000100
00000001
00001000
00000010
,
00000100
00000100
00000100
00000000
,
00001000
00000010
00000100
00000000
,
00000001
00000010
00000100
00000000
,
00000010
00000100
00010000
00001000
,
00100000
00010000
01000000
00000000
,
00100000
10000000
00100000
10000000
,
00010000
01000000
00010000
01000000
,
00001000
00010000
00001000
00010000
,
00000010
00001000
00000010
00001000
,
00000001
00000010
00000100
00000000
,
00001000
00000010
00000100
00000000
,
00000001
00000100
00000010
00001000
,
00010000
00000000
00000000
00000000
,
00200000
00000000
00000000
00300000
,
00020000
00000000
00000000
00030000
,
20000000
00000000
00000000
30000000
,
02000000
00000000
00000000
03000000
,
00100000
01000000
00100000
00000000
,
00100000
00010000
01000000
00000000
,
00100000
00010000
00001000
00000000
,
00010000
00001000
00000100
00000000
,
00000010
00000000
00001000
00000000
,
00000100
00000000
00001000
00000000
,
00000001
00000000
00000010
00000000
,
00001000
00000000
00000010
00000000
,
00000002
00000000
00000000
00000003
,
00000200
00000000
00000000
00000300
,
00002000
00000000
00000000
00003000
,
00010000
00001000
00010000
00000000
,
00000000
00100000
00000000
00100000
,
00000000
00100000
00000000
00100000
,
00000000
10000000
00000000
10000000
,
00010000
10000000
00010000
00000000
,
00100000
00000000
00000000
00000000
,
00001000
00000000
00000000
00000000
,
00000010
00000000
00000000
00000000
,
00000100
00000000
00000000
00000000
,
00000010
00000001
00000010
00000001
,
00001000
00000100
00001000
00000100
,
00010000
00001000
00010000
00001000
,
00100000
00010000
00100000
00010000
,
10000000
00100000
01000000
00000000
,
00010000
00100000
01000000
00000000
,
10000000
01000000
00100000
00010000
,
00001000
00001000
00000000
00000000
,
00000000
00000000
00000000
00000000
;
#NOTES:
     dance-double:
     :
     Medium:
     11:
     :
00000000
00000000
00000000
00000000
,
00000000
00000000
00000000
00000000
,
00000000
00000000
00000000
00000000
,
00000000
00000000
00000000
00000000
,
00000000
00000000
00000000
00000000
,
00000000
00000000
00000000
00000000
,
00000000
00000000
00000000
00000000
,
10000000
01000000
00100000
01000000
,
00010000
00001000
00000010
00000001
,
00001000
00000010
00000100
00000010
,
00010000
00001000
00010000
00000000
00000100
00000000
00000100
00000000
,
00001000
00000100
00000010
00000000
00000100
00000000
00000100
00000000
,
00000001
00000100
00000010
00000000
00000100
00000000
00000100
00000000
,
00001000
00010000
00001000
00000000
00100000
00000000
00100000
00000000
,
00010000
10000000
00100000
00000000
01000000
00000000
01000000
00000000
,
00010000
10000000
01000000
00000000
00100000
00000000
01000000
00000000
,
10000000
00010000
01000000
00000000
00100000
00000000
01000000
00100000
,
00000000
10000000
01000000
00010000
,
00001000
00000100
00001000
00000100
,
00000001
00000010
00001000
00010000
,
00001000
00010000
00001000
00000000
01000000
00010000
00000000
00000000
,
00100000
10000000
00010000
10000000
,
01000000
00010000
00001000
00000010
,
00000001
00001000
00000010
00000100
,
00000001
00000100
00001000
00001000
,
00010000
00000000
00100000
01000000
00000000
00000000
00100000
00000000
,
10000000
00000000
00010000
00100000
00000000
00000000
01000000
00000000
,
10000000
01000000
00100000
01000000
,
00100000
00010000
00100000
00000000
00001000
00000000
00001000
00000000
,
00000010
00000001
00001000
00000001
,
00000100
00001000
00010000
00100000
,
10000000
00010000
00100000
01000000
,
10000000
01000000
00010000
00010000
,
00001000
00000000
00000010
00000100
00000000
00000000
00000010
00000000
,
00000001
00000000
00001000
00000010
00000000
00000000
00000100
00000000
,
00000001
00000100
00000010
00000100
,
00000010
00001000
00000010
00000000
00010000
00000000
00010000
00000000
,
00001000
00001000
00101000
00101000
,
00010000
00010000
01010000
01010000
,
00100000
00100000
01100000
01100000
,
00001000
00001000
00011000
00011000
,
00010000
00010000
00010010
00010010
,
00001000
00001000
00001100
00001100
,
00000010
00000010
00000110
00000110
,
00000001
00000000
00000010
00000000
00000100
00000010
00000000
00000001
,
00000000
00000100
00001000
00010000
,
00100000
10000000
00100000
01000000
,
00100000
10000000
01000000
00010000
,
00001000
00010000
00001000
00010000
,
00001010
00000000
00000000
00000000
00010000
00001000
00010000
00000000
,
00110000
00000000
00000000
00000000
00001000
00010000
00001000
00000000
,
00000100
00000001
00001000
00000100
,
00000010
00000100
00000010
00000000
00000100
00001000
00000000
00000001
,
00000000
00000100
00001000
00010000
,
00100000
00000000
01000000
00000000
00100000
01000000
00000000
00010000
,
00000000
10000000
01000000
00010000
,
00001000
00001000
00001000
00001000
,
00100000
00000000
00001000
00000000
00010000
00001000
00010000
00000000
,
00000100
00000000
00010000
00000000
00001000
00010000
00001000
00000000
,
00000010
00000100
00010000
00001000
,
00000100
00000001
00001000
00001000
,
00000010
00001000
00000100
00000000
00000010
00000000
00000100
00000000
,
00000010
00000001
00000100
00000000
00000010
00000000
00000100
00000000
,
00001000
00010000
00001000
00000000
00100000
00000000
00010000
00000000
,
10000000
00100000
10000000
00000000
00010000
00000000
01000000
00000000
,
00100000
01000000
00010000
00000000
10000000
00000000
01000000
00000000
,
00100000
00010000
10000000
00000000
00100000
00000000
01000000
00000000
,
00100000
00010000
00001000
00000100
,
00000001
00001000
00000001
00000000
,
00000001
00000010
00000100
00000010
,
00000001
00000100
00001000
00010000
,
01000000
10000000
01000000
00100000
,
00010000
01000000
00100000
00000000
,
10000000
00000000
01000000
10000000
00000000
00000000
01000000
00000000
,
00010000
00000000
00001000
00010000
00000000
00000000
00001000
00000000
,
00000010
00000000
00000001
00001000
00000000
00000000
00000001
00000000
,
00000100
00000010
00000100
00000000
,
00000010
00010000
00001000
00010000
,
00000100
00010000
00001000
00010000
,
00001000
00100000
00010000
00100000
,
01000000
10000000
00010000
10000000
,
00010000
00000000
01000000
00100000
00000000
00000000
10000000
00000000
,
00010000
00000000
00100000
01000000
00000000
00000000
10000000
00000000
,
01000000
01000000
00010000
00010000
,
00001000
00010000
00001000
00000000
00000010
00000100
00000000
00000010
,
00000000
00000100
00000000
00000100
,
00000000
00000000
00000100
00000000
00000000
00000000
00000100
00001000
,
00000000
00000001
00000000
00000001
,
00000100
00000100
00001000
00001000
,
00010000
00001000
01000000
00000000
,
00100000
10000000
01000000
00000000
,
00100000
01000000
10000000
00010000
,
01000000
00000000
00100000
00000000
10000000
00010000
00000000
01100000
,
00000000
01000000
00100000
01000000
,
00100000
10000000
01000000
00000000
00100000
00000000
01000000
00000000
,
00010000
00001000
00010000
00000000
00000010
00000000
00001000
00000000
,
00000001
00000010
00000001
00000000
00001000
00000000
00000100
00000000
,
00000010
00000100
00001000
00000000
00000001
00000000
00000100
00000000
,
00000010
00001000
00000001
00000000
00000010
00000000
00000100
00000000
,
00000010
00001000
00010000
01000000
,
10000000
00010000
10000000
00000000
00000000
00000000
00000000
00000000
,
00000000
00000000
00000000
00000000
;
#NOTES:
     dance-double:
     :
     Hard:
     13:
     :
00000000
00000000
00000000
00000000
,
00000000
00000000
00000000
00000000
,
00000000
00000000
00000000
00000000
,
00000000
00000000
00000000
00000000
,
00000000
00000000
00000000
00000000
,
00000000
00000000
00000000
00000000
,
00000000
00000000
00000000
00000000
,
00001000
00000000
00000100
00000000
00000010
00000100
00001000
00000000
,
00000001
00000000
00000100
00000000
00000010
00010000
00001000
00000000
,
00100000
00010000
10000000
01000000
,
10000000
00010000
00100000
00010000
10000000
00000000
00010000
00000000
,
10000000
01000000
00100000
01000000
00100000
01000000
00010000
00000000
,
00001000
00100000
00010000
00100000
00010000
00100000
00001000
00000000
,
00010000
00000010
00001000
00000010
00001000
00000010
00010000
00000000
,
00001000
00000100
00000010
00000100
00000010
00000100
00000001
00000000
,
00000010
00000001
00000100
00000001
00000100
00000001
00000010
00000000
,
00000100
00001000
00000001
00000100
00001000
00000000
00010000
00001000
,
00000000
00010000
01000000
10000000
,
00010000
01000000
00100000
01000000
,
00001000
00010000
01000000
10000000
,
00100000
01000000
00100000
00000000
01000000
00010000
00000000
00000000
,
00100000
00000000
00001000
00000000
00010000
00000100
00001000
00000000
,
00000010
00000000
00001000
00000000
00000001
00000010
00000100
00000000
,
00000010
00000000
00000001
00000000
00000100
00001000
00010000
00000000
,
00000010
00001000
00010000
01000000
,
00100000
00000000
10000000
00010000
00000000
10000000
01000000
00100000
,
00010000
00000000
01000000
00001000
00000000
00010000
00000010
00001000
,
00000100
00000000
00010000
00001000
00000000
00000010
00000001
00001000
,
00000010
00000100
00000001
00000000
00001000
00000000
00001000
00000000
,
00000010
00000000
00010000
00000000
00001000
01000000
00010000
00000000
,
00100000
00000000
00010000
00000000
10000000
00100000
01000000
00000000
,
00100000
00000000
10000000
00000000
01000000
00010000
00001000
00000000
,
00100000
00010000
00001000
00000100
,
00000010
00000000
00000001
00001000
00000000
00000001
00000100
00000010
,
00001000
00000000
00000100
00010000
00000000
00001000
00100000
00010000
,
01000000
00000000
00001000
00010000
00000000
00100000
10000000
00010000
,
00100000
01000000
10000000
00000000
00010000
00000000
00010000
00000000
,
00100000
00100000
11000000
11000000
,
00100000
00100000
01010000
01010000
,
00001000
00001000
00011000
00011000
,
00000010
00000010
00000110
00000110
,
00001000
00001000
00000101
00000101
,
00001000
00001000
00000011
00000011
,
00000100
00000100
00000110
00000110
,
00000010
00000000
00000001
00000000
00000100
00001000
00000000
00010000
,
00000000
00000000
00001000
00000000
00100000
00010000
01000000
00000000
,
00100000
00000000
01000000
00000000
00010000
10000000
01000000
00000000
,
00010000
00000000
01000000
00000000
00100000
00001000
01000000
00000000
,
00001000
00010000
00000100
00001000
,
00000001
00000000
00000001
00000000
00000010
00000100
00000010
00000000
,
00001000
00000000
00001000
00000000
00000010
00000100
00000010
00000000
,
00000100
00000001
00000010
00001000
,
00010000
00001000
00010000
00000000
01000000
10000000
00000000
10010000
,
00000000
00000000
00010000
00000000
10000000
01000000
00100000
00000000
,
00001000
00000000
00000010
00000000
00000001
00001000
00000010
00000100
,
00000000
00000000
00000010
00000000
00010000
00001000
00000010
00000000
,
00000001
00000001
00000001
00000001
,
00000010
00000000
00001000
00000000
00010000
00001000
00010000
00000000
,
01000000
00000000
10000000
00000000
00010000
01000000
00010000
00000000
,
01000000
00100000
10000000
00000000
01000000
00010000
00001000
00000000
,
00000010
00000001
00000010
00000100
,
00000010
00000001
00000100
00001000
00010000
01000000
10000000
00000000
,
00100000
10000000
01000000
00010000
00001000
00000100
00000001
00000000
,
00000010
00000001
00000100
00001000
00010000
01000000
10000000
00000000
,
00100000
10000000
01000000
00010000
00001000
00000100
00000001
00000000
,
00000010
00000001
00001000
00000100
00010000
00001000
00100000
00000000
,
00001000
00010000
00001000
00100000
00010000
01000000
00010000
00000000
,
10000000
00100000
00010000
01000000
,
00010000
00100000
00010000
00000000
,
10000000
00000000
01000000
00100000
00000000
01000000
00010000
00000000
,
00001000
00000000
00100000
01000000
00000000
00100000
00010000
00000000
,
00001000
00000000
00000100
00000010
00000000
00000100
00001000
00000000
,
00000001
00000000
00000100
00000010
00000000
00000100
00000001
00000000
,
00001000
00000000
00000010
00001000
00000000
00000001
00000010
00000100
,
00001000
00000000
00000010
00010000
00000000
00000100
00010000
00001000
,
00100000
00000000
00010000
00000000
10000000
00100000
10000000
00000000
,
01000000
00100000
01000000
10000000
00000000
00100000
01000000
00000000
,
00100000
00000000
00010000
00000000
00001000
00000100
00000010
00000000
,
00010000
00000000
00001000
00000000
00000010
00000100
00001000
00000000
,
00000001
00000000
00000100
00000000
00000010
00010000
00000010
00000000
,
00001000
00000000
00010000
00000000
01000000
00100000
01000000
00000000
,
00010000
10000000
01000000
00100000
00000000
01000000
10000000
00000000
,
00010000
01000000
00100000
10000000
00000000
01000000
00100000
00000000
,
00010000
00001000
00010000
00001000
00000100
00001000
00000100
00001000
,
00000010
00000100
00000010
00000000
00001000
00000001
00000000
00000011
,
00000000
00000100
00000000
00000100
,
00000000
00000000
00000100
00000000
00000000
00000010
00000100
00001000
,
00000000
00000001
00000000
00000001
,
00000100
00001000
00010000
00100000
,
10000000
00000000
00010000
00000000
10000000
00000000
01000000
00100000
,
00000000
00100000
00000000
00100000
01000000
00000000
10000000
00000000
,
00100000
00010000
00001000
00000100
,
00000010
00010000
00001000
00100000
00010000
01000000
00000000
00100000
,
00000000
10000000
01000000
00010000
00001000
00000100
00000001
00000000
,
00000010
00000001
00000100
00001000
00010000
01000000
10000000
00000000
,
00100000
10000000
01000000
00010000
00001000
00000100
00000001
00000000
,
00000010
00000001
00000100
00001000
00010000
01000000
10000000
00000000
,
00100000
10000000
00010000
01000000
00001000
00010000
00000010
00000000
,
00010000
00001000
00010000
00000010
00001000
00000100
00001000
00000000
,
00000001
00000010
00001000
00000100
,
00000001
00001000
00000001
00000000
00000000
00000000
00000000
00000000
,
00000000
00000000
00000000
00000000
;
#NOTES:
     dance-double:
     :
     Challenge:
     12:
     :
00000000
00000000
00000000
00000000
,
00000000
00000000
00000000
00000000
,
00000000
00000000
00000000
00000000
,
00000000
00000000
00000000
00000000
,
00000000
00000000
00000000
00000000
,
00000000
00000000
00000000
00000000
,
00000000
00000000
00000000
00000000
,
00000001
00000100
00000010
00000100
,
00001000
00010000
00100000
10000000
,
00010000
00100000
01000000
00100000
,
00001000
00010000
00001000
00000000
01000000
00000000
01000000
00000000
,
00010000
01000000
00100000
00000000
01000000
00000000
MMMMMMMM
00000000
,
10000000
01000000
00100000
00000000
01000000
00000000
MMMMMMMM
00000000
,
00010000
00001000
00010000
00000000
00000010
00000000
MMMMMMMM
00000000
,
00001000
00000001
00000010
00000000
00000100
00000000
MMMMMMMM
00000000
,
00001000
00000001
00000100
00000000
00000010
00000000
MMMMMMMM
00000000
,
00000001
00001000
00000100
00000000
00000010
00000000
00000100
00000010
,
00000000
00000001
00000100
00001000
,
00010000
01000000
00010000
01000000
,
10000000
00100000
00010000
00001000
,
00010000
00001000
00010000
00000000
00000000
00000000
MMMMMMMM
00000000
,
00000010
00000001
00001000
00000001
,
00000100
00001000
00010000
00100000
,
10000000
00010000
00100000
01000000
,
10000000
01000000
00010000
00010000
,
00001000
00000000
00000010
00000100
00000000
00000000
MMMMMMMM
00000000
,
00000001
00000000
00001000
00000010
00000000
00000000
MMMMMMMM
00000000
,
00000001
00000100
00000010
00000100
,
00000010
00001000
00000010
00000000
00010000
00000000
00010000
00000000
,
00100000
10000000
00010000
10000000
,
01000000
00010000
00001000
00000010
,
00000001
00001000
00000010
00000100
,
00000001
00000100
00001000
00001000
,
00010000
00000000
00100000
01000000
00000000
00000000
MMMMMMMM
00000000
,
10000000
00000000
00010000
00100000
00000000
00000000
MMMMMMMM
00000000
,
10000000
01000000
00100000
01000000
,
00100000
00010000
00100000
00000000
00001000
00000000
00001000
00000000
,
00010000
00010000
MMMMMMMM
MMMMMMMM
,
00001000
00001000
MMMMMMMM
MMMMMMMM
,
00000010
00000010
MMMMMMMM
MMMMMMMM
,
00010000
00010000
MMMMMMMM
MMMMMMMM
,
00001000
00001000
MMMMMMMM
MMMMMMMM
,
00010000
00010000
MMMMMMMM
MMMMMMMM
,
00100000
00100000
MMMMMMMM
MMMMMMMM
,
10000000
00000000
00100000
00000000
01000000
00100000
00000000
10000000
,
00000000
01000000
00010000
00001000
,
00000010
00000001
00000010
00000100
,
00000010
00000001
00000100
00001000
,
00010000
00001000
00010000
00001000
,
MMMMMMMM
00000000
00000000
00000000
00001000
00010000
00001000
00000000
,
MMMMMMMM
00000000
00000000
00000000
00010000
00001000
00010000
00000000
,
01000000
10000000
00010000
01000000
,
00100000
01000000
00100000
00000000
MMMMMMMM
00010000
00000000
10000000
,
00000000
01000000
00010000
00001000
,
00000010
00000000
00000100
00000000
MMMMMMMM
00000100
00000000
00001000
,
00000000
00000001
00000100
00001000
,
00010000
00010000
00010000
00010000
,
00000010
00000000
00010000
00000000
00001000
00010000
00001000
00000000
,
01000000
00000000
00001000
00000000
00010000
00001000
00010000
00000000
,
00100000
01000000
00001000
00010000
,
01000000
10000000
00010000
00010000
,
00100000
00010000
01000000
00000000
00100000
00000000
MMMMMMMM
00000000
,
00100000
10000000
01000000
00000000
00100000
00000000
MMMMMMMM
00000000
,
00010000
00001000
00010000
00000000
00000010
00000000
MMMMMMMM
00000000
,
00000001
00000010
00000001
00000000
00001000
00000000
MMMMMMMM
00000000
,
00000010
00000100
00001000
00000000
00000001
00000000
00000100
00000000
,
00000010
00001000
00000001
00000000
00000010
00000000
00000100
00000000
,
00000010
00001000
00010000
01000000
,
10000000
00010000
10000000
00000000
,
10000000
00100000
01000000
MMMMMMMM
,
10000000
01000000
00010000
00001000
,
00000100
00000001
00000100
MMMMMMMM
,
00001000
00000100
00000010
00000000
,
00000001
00000000
00000100
00000001
00000000
00000000
00000100
00000000
,
00001000
00000000
00010000
00001000
00000000
00000000
00010000
00000000
,
00100000
00000000
10000000
00010000
00000000
00000000
10000000
00000000
,
01000000
00100000
01000000
00000000
,
00100000
00001000
00010000
MMMMMMMM
,
01000000
00001000
00010000
MMMMMMMM
,
00010000
00000010
00001000
MMMMMMMM
,
00000100
00000001
00001000
MMMMMMMM
,
00001000
00000000
00000100
00000010
00000000
00000000
00000001
00000000
,
00001000
00000000
00000010
00000100
00000000
00000000
00000001
00000000
,
00000100
00000100
00001000
00001000
,
00010000
00001000
00010000
00000000
MMMMMMMM
01000000
00000000
00100000
,
00000000
01000000
00000000
01000000
,
00000000
00000000
01000000
00000000
00000000
00000000
01000000
00010000
,
00000000
10000000
00000000
10000000
,
01000000
01000000
00010000
00010000
,
00001000
00010000
00000100
00000000
,
00000010
00000001
00000100
00000000
,
00000010
00000100
00000001
00001000
,
00000100
00000000
00000010
00000000
MMMMMMMM
00001000
00000000
00000110
,
00000000
00000100
00000010
00000100
,
00000010
00000001
00000100
00000000
00000010
00000000
MMMMMMMM
00000000
,
00001000
00010000
00001000
00000000
00100000
00000000
MMMMMMMM
00000000
,
10000000
00100000
10000000
00000000
00010000
00000000
MMMMMMMM
00000000
,
00100000
01000000
00010000
00000000
10000000
00000000
01000000
00000000
,
00100000
00010000
10000000
00000000
00100000
00000000
01000000
00000000
,
00100000
00010000
00001000
00000100
,
00000001
00001000
00000001
00000000
00000000
00000000
00000000
00000000
,
00000000
00000000
00000000
00000000
;
