
//----- song ID: dirt -----//
#TITLE:dirty digital;
#ARTIST:kors k;
#BANNER:dirty digital.png;
#BACKGROUND:dirty digital-bg.png;
#CDTITLE:./CDTitles/DDR UNIVERSE3.png;
#MUSIC:dirty digital.ogg;
#SAMPLESTART:29.16;
#SAMPLELENGTH:15;
#BPMS:0=140;
#NOTES:
     dance-single:
     :
     Beginner:
     2:
     :
0000
0000
0000
0000
,
0000
0000
0000
0000
,
0000
0000
0000
0000
,
0000
0000
0000
0000
,
0000
0000
0000
0000
,
0001
0000
0000
0000
,
1000
0000
0000
0000
,
0001
0000
0000
0000
,
1000
0000
0000
0000
,
0100
0000
0000
0000
,
0010
0000
0000
0000
,
0001
0000
0000
0000
,
1000
0000
0000
0000
,
0010
0010
0010
0000
,
0100
0100
0100
0000
,
0001
0000
0000
0000
,
1000
0000
0000
0000
,
0001
0000
0000
0000
,
0010
0000
0000
0000
,
0100
0000
0000
0000
,
2000
0000
0000
3000
,
1000
0000
0000
0000
,
0010
0000
0000
0000
,
0100
0000
0000
0000
,
0002
0000
0000
0003
,
0001
0001
0000
0000
,
1000
1000
0000
0000
,
0100
0000
0000
0000
,
0100
0000
0000
0000
,
0010
0000
0000
0000
,
0001
0000
0000
0000
,
0100
0000
0000
0000
,
1000
0000
0000
0000
,
1001
0000
0000
0000
,
0100
0100
0000
0000
,
0010
0000
0000
0000
,
0010
0000
0000
0000
,
1001
0000
0000
0000
,
0010
0010
0000
0000
,
0100
0000
0000
0000
,
0100
0000
0000
0000
,
0002
0000
0000
0003
,
0001
0000
0000
0000
,
2000
0000
0000
3000
,
1000
0000
0000
0000
,
0010
0000
0010
0000
,
0100
0000
0100
0000
,
0001
0000
0001
0000
,
1000
0000
1000
0000
,
1001
0000
0000
0000
,
0000
0000
0000
0000
;
#NOTES:
     dance-single:
     :
     Easy:
     5:
     :
0000
0000
0000
0000
,
0000
0000
0000
0000
,
0000
0000
0000
0000
,
0000
0000
0000
0000
,
0000
0000
0000
0000
,
1000
0000
0100
0000
,
0010
0000
0001
0000
,
1000
0000
0010
0000
,
0100
0000
0001
0000
,
0010
0000
0010
0000
,
0100
0000
0010
0000
,
0100
0000
0100
0000
,
0010
0000
0100
0000
,
1000
1000
1000
1000
,
0001
0001
0001
0001
,
1000
0000
0001
0000
,
1001
0000
0000
0000
,
0010
0001
1000
0000
,
0010
0000
0100
0000
,
0010
1000
0001
0000
,
0010
0000
0010
0000
,
0100
1000
0001
0000
,
0100
0000
0010
0000
,
0100
0001
1000
0000
,
0110
0000
0000
0000
,
0001
1000
0001
1000
,
0100
0000
0010
0000
,
0002
0000
0003
0000
,
2000
0000
3000
0000
,
0001
0100
1000
0100
,
0001
0000
1000
0001
,
1000
0100
0001
0100
,
2000
0000
0000
3000
,
0001
0000
0010
0000
,
0100
0100
1000
1000
,
0001
0000
0010
0000
,
0100
0100
1000
0001
,
1000
0000
0010
0000
,
0100
0100
0001
0001
,
1000
0000
0010
0000
,
0200
0000
0000
0300
,
0010
1000
0100
0001
,
0010
1000
0100
0000
,
0010
0001
0100
1000
,
0010
0001
0100
0000
,
0010
1000
0100
1000
,
0010
0001
0100
0000
,
0010
0001
0100
0001
,
0010
1000
0100
0000
,
1001
0000
0000
0000
,
0000
0000
0000
0000
;
#NOTES:
     dance-single:
     :
     Medium:
     8:
     :
0000
0000
0000
0000
,
0000
0000
0000
0000
,
0000
0000
0000
0000
,
0000
0000
0000
0000
,
0000
0000
0000
0000
,
0010
1000
0010
1000
,
0001
0100
0001
0100
,
0001
0010
0001
0010
,
0100
1000
0100
1000
,
0001
0100
1000
0100
,
0001
0010
1000
0010
,
1000
0100
0001
0100
,
1000
0010
0001
0010
,
1001
0101
1001
0101
,
1001
1100
1001
1100
,
0010
0010
0010
0010
0100
0100
0100
0100
,
2000
0000
0002
3003
,
0010
0000
0001
0000
1000
0100
0010
0000
,
0001
0100
0010
0100
,
0010
0000
1000
0000
0001
0100
0010
0000
,
1000
0100
0010
0100
,
0010
0000
0001
0000
1000
0100
0001
0000
,
0100
1000
0001
0100
,
0010
0000
1000
0000
0001
0100
1000
0000
,
0100
0000
0000
0000
0000
0000
0001
0000
0000
0000
0010
0000
0000
0100
0000
0000
,
0100
0000
0010
0000
0001
1000
0010
0000
,
0100
0010
1000
0001
,
0000
0000
0100
0000
0000
0010
0000
0000
1000
0000
0000
0001
0000
0000
0100
0000
,
0010
0000
1010
0011
,
0100
0010
1000
0000
0100
0010
0001
0000
,
0010
1100
0010
0101
,
0010
1000
0100
0000
0010
0001
0100
0010
,
0200
0000
0000
0300
,
0001
0000
0011
0000
0000
0010
0100
0000
,
1000
0000
1010
0000
0000
0010
0100
0000
,
0001
0000
1001
0000
0000
1000
0100
0000
,
1000
0000
1001
0000
0001
0010
0100
1000
,
0010
0000
0110
0000
0000
0100
0001
0000
,
0010
0000
0110
0000
0000
0100
1000
0000
,
0001
0000
1001
0000
0000
1000
0100
0010
,
0002
0000
0000
0003
,
0100
0000
0100
0000
0010
1000
1100
0000
,
0100
0000
0100
0000
0010
0001
0101
0000
,
1000
0000
1000
0000
0001
0010
0110
0000
,
1000
0000
1000
0000
0001
0010
0100
1000
,
0001
0000
0101
0000
0100
0010
1010
0000
,
1000
0000
1100
0000
0100
0010
0011
0000
,
0001
0000
0110
0000
1000
0001
0010
0100
,
2000
0000
0000
3000
,
1001
0000
0000
0000
,
0000
0000
0000
0000
;
#NOTES:
     dance-single:
     :
     Hard:
     11:
     :
0000
0000
0000
0000
,
0000
0000
0000
0000
,
0000
0000
0000
0000
,
0000
0000
0000
0000
,
0000
0000
0000
0000
,
0000
0010
0000
1000
0000
0010
0000
0001
,
0000
1000
0000
0010
0000
0001
0000
0010
,
0000
0100
0000
1000
0000
0100
0000
0001
,
0000
1000
0000
0100
0000
0001
0000
0100
,
0010
1010
0001
0011
,
0100
1100
0001
0101
,
0010
1100
0001
1100
,
0010
0101
1000
0101
,
0010
0001
1000
0100
0001
1000
0010
0001
,
0100
0010
0001
0010
1000
0001
0100
0010
,
1000
0010
1000
0000
0001
0010
0001
0000
1000
0100
1000
0000
0001
0100
0001
0000
,
2000
0000
0002
3003
,
0010
0000
0001
0000
0000
1000
0000
0000
0010
0000
0000
0100
0000
0000
0001
0000
,
0010
0100
1000
0000
0000
0001
1000
0001
,
0100
0000
0010
0000
0000
1000
0000
0000
0100
1000
0000
0010
0000
0000
0100
0000
,
0001
0000
1000
0000
0001
0010
0100
1000
,
0001
0000
0100
0000
0000
0010
0000
0000
0100
0000
0000
0001
0000
0000
0010
0000
,
0100
1000
0100
0000
0000
1000
0010
0100
,
0001
0000
0010
0000
0000
0001
0000
0000
1000
0100
0000
0100
0000
0000
1000
0000
,
0020
0000
0000
2030
0000
0010
3010
1000
,
0100
0000
0010
0000
0000
0001
0000
0000
1000
0000
0000
0010
0000
0000
0100
0000
,
0001
0000
1000
0000
0001
1000
0001
0010
,
0000
0000
0100
0000
0000
1000
0000
0000
1000
0000
0000
0001
0000
0000
0001
0000
,
0100
0000
0110
0110
,
0001
0000
0010
0000
0000
0001
0000
0000
1000
0000
0000
0010
0000
0000
0100
0000
,
0001
0100
0010
0000
0000
1000
0001
1000
,
0100
0000
0010
0000
0000
0001
0000
0000
1000
0010
0000
0010
0000
0000
0100
0000
,
2002
0000
0000
3003
,
0010
0000
0100
0000
0001
0000
0000
0010
0000
0000
0100
0000
1000
0000
0000
0010
,
0000
0000
1000
0000
0001
0000
0000
0010
0000
0000
0001
0000
1000
0000
0000
0010
,
0000
0000
1000
0000
0100
0000
0000
0001
0000
0000
0100
0000
1000
0000
0000
0010
,
0000
1000
0001
0100
0010
1000
0100
0010
,
0100
0000
0010
0000
0001
0000
0000
0100
0000
0000
0010
0000
1000
0000
0000
0100
,
0000
0000
1000
0000
0001
0000
0000
0100
0000
0000
0001
0000
1000
0000
0000
0100
,
0000
0000
1000
0000
0010
0000
0000
0001
0000
0000
0010
0000
1000
0000
0100
0000
,
0110
0000
0000
0001
0000
0000
0101
0000
0000
0000
0110
0000
0000
1010
0000
0000
,
1000
0000
0100
0000
0001
0000
0000
0100
0000
0000
1000
0000
0010
0000
0000
0001
,
0000
0000
0010
0000
1000
0000
0000
0001
0000
0000
0100
0000
1000
0000
0000
0100
,
0000
0000
0001
0000
0010
0000
0000
1000
0000
0000
0010
0000
0001
0000
0000
1000
,
0000
0010
0100
0001
0010
0100
1000
0001
,
1000
0000
0001
0000
0100
0000
0000
0010
0000
0000
1000
0000
0100
0000
0000
0010
,
0000
0000
0001
0000
1000
0000
0000
0010
0000
0000
1000
0000
0001
0000
0000
0010
,
0000
0000
0100
0000
0010
0000
0000
0001
0000
0000
0100
0000
0010
0000
0100
0000
,
0101
0000
0000
0001
0000
0000
1001
0000
0000
0000
1100
0000
0000
0110
0000
0000
,
1001
0000
0000
0000
,
0000
0000
0000
0000
;
#NOTES:
     dance-single:
     :
     Challenge:
     13:
     :
0000
0000
0000
0000
,
0000
0000
0000
0000
,
0000
0000
0000
0000
,
0000
0000
0000
0000
,
0000
0000
0000
0000
,
0000
0001
1000
0100
0000
0010
0001
1000
,
0000
0100
1000
0010
0000
0100
0001
1000
,
0000
0010
1000
0100
0000
0010
0001
0100
,
0000
0010
1000
0001
0000
0100
1000
0100
,
0001
0010
0100
1000
,
0010
1000
0100
0001
,
1000
0010
0100
0001
,
0010
0001
0100
1000
,
0010
0100
0001
0010
1000
0010
0100
1000
,
0010
0001
0010
0100
0001
0010
0100
1000
,
0010
0100
0010
0100
0001
1000
0001
1000
0100
0010
0100
1000
0010
0100
0010
1000
,
0001
0010
0100
1000
0001
0000
0100
0000
0220
0000
0000
0000
0330
0000
0000
0000
,
0001
0000
1000
0000
0000
0100
0000
0000
1000
0010
0000
0010
0000
0000
0100
0000
,
0001
0000
1000
0000
0001
0000
0000
0000
0000
0001
0100
0000
0010
0000
0000
0000
,
1000
0000
0100
0000
0000
0010
0000
0000
0001
1000
0000
1000
0000
0000
0010
0000
,
0100
0000
0001
0000
0100
0000
0010
0000
0100
0001
0100
0000
0010
0000
1000
0001
,
1000
0000
0100
0000
0000
0010
0000
0000
0001
0100
0000
0100
0000
0000
0010
0000
,
1000
0000
0001
0000
1000
0000
0000
0000
0000
1000
0001
0000
0100
0000
0000
0000
,
0010
0000
1000
0000
0000
0100
0000
0000
1000
0001
0000
0001
0000
0000
0100
0000
,
0110
0000
0000
0000
0010
0000
1010
0000
0000
0000
0001
0000
1000
0000
0010
0100
,
0001
0000
1000
0000
0000
0100
0000
0000
0001
0100
0000
0100
0000
0000
1000
0000
,
0010
0000
0100
0000
0010
0000
0000
0000
0000
1000
0010
0000
0100
0000
0001
0000
,
0000
0000
1001
0000
0000
0011
0000
0000
1100
0000
0000
1010
0000
0000
0101
0000
,
0110
0000
0000
0000
0000
0000
0000
0000
0001
0000
0010
0100
1000
0000
1000
0000
,
1000
0000
0001
0000
0000
0100
0000
0000
0010
0001
0000
0001
0000
0000
0010
0000
,
1000
0000
0100
0000
1000
0000
0000
0000
0000
0001
0100
0000
0010
0000
0000
0000
,
1000
0000
0100
0000
0000
0010
0000
0000
0001
1000
0000
0010
0000
0000
0100
0000
,
0200
0000
0000
1000
0000
0301
0000
0000
,
0010
0000
0001
0000
1000
0000
0000
0100
0000
1000
0000
0000
0010
0000
0000
0100
,
0000
0001
0000
0000
1000
0000
0000
0001
0000
0010
0000
0000
0100
0000
1000
0001
,
0000
0001
0100
0000
0001
0000
0000
0010
0000
0100
0000
0000
1000
0000
0000
0010
,
0000
1000
0000
0000
0001
0000
1000
0001
0000
0001
1000
0000
0100
0000
0010
0001
,
0100
0000
1000
0000
0100
0000
0000
0001
0000
1000
0000
0000
0100
0000
0000
0001
,
0000
0100
0000
0000
0010
0000
0000
0001
0000
0100
0000
0000
0010
0000
1000
0001
,
0000
0001
1000
0000
0010
0000
0000
0100
0000
1000
0000
0000
0100
0000
0000
0000
,
0101
0000
0000
1100
0000
0000
0101
0000
0000
0000
0011
0000
0000
0110
0000
0000
,
1100
0000
0001
0000
0100
0000
0001
1000
0000
0100
0000
0000
0010
0000
0001
1000
,
0000
0010
0000
0000
1000
0000
0100
0001
0000
0100
0000
0000
0010
0000
0001
0100
,
0001
1000
0000
0000
0100
0000
0010
1000
0000
0010
0000
0000
0100
0000
1000
0010
,
0000
0100
0000
0000
1000
0000
0100
0001
0000
0100
0000
0000
0010
0000
1000
0001
,
1000
0100
0000
0000
0010
0000
0010
0001
0000
0100
0000
0000
0010
0000
1000
0001
,
0100
0010
0000
0000
1000
0000
1000
0100
0000
0010
0000
0000
0001
0000
1000
0010
,
0100
0001
0000
0000
1000
0000
1000
0100
0000
0001
0000
0000
0100
0000
1000
0000
,
1100
0000
0000
0011
0000
0000
1100
0000
0000
0000
0101
0000
0000
0000
0010
0100
,
1000
0000
0000
0000
,
0000
0000
0000
0000
;
#NOTES:
     dance-double:
     :
     Easy:
     5:
     :
00000000
00000000
00000000
00000000
,
00000000
00000000
00000000
00000000
,
00000000
00000000
00000000
00000000
,
00000000
00000000
00000000
00000000
,
00000000
00000000
00000000
00000000
,
00001000
00000000
00100000
00000000
,
00001000
00000000
00010000
00000000
,
00000010
00000000
00010000
00000000
,
00001000
00000000
00100000
00000000
,
01000000
00000000
01000000
00000000
,
10000000
00000000
00010000
00000000
,
01000000
00000000
01000000
00000000
,
00001000
00000000
00010000
00000000
,
00000100
00000100
00000100
00000100
,
00000010
00000010
00000010
00000010
,
00000001
00000000
00001000
00000000
,
00001001
00000000
00000000
00000000
,
00000010
00000001
00000100
00000000
,
00000001
00000000
00000100
00000000
,
00000001
00000100
00001000
00000000
,
00010000
00000000
00001000
00000000
,
00010000
01000000
10000000
00000000
,
01000000
00000000
10000000
00000000
,
01000000
10000000
00100000
00000000
,
01100000
00000000
00000000
00000000
,
01000000
00010000
10000000
01000000
,
00100000
00000000
00001000
00000000
,
00020000
00000000
00030000
00000000
,
00002000
00000000
00003000
00000000
,
00100000
01000000
10000000
00010000
,
01000000
00000000
00010000
10000000
,
00100000
00010000
00001000
00010000
,
00002000
00000000
00000000
00003000
,
00010000
00000000
00001000
00000000
,
00000010
00000100
00000010
00000100
,
00001000
00000000
00000001
00000000
,
00000100
00000100
00000001
00000100
,
00001000
00000000
00010000
00000000
,
01000000
00100000
01000000
00100000
,
00010000
00000000
10000000
00000000
,
00200000
00000000
00000000
00300000
,
01000000
00001000
00010000
00001000
,
00010000
00000100
00000010
00000000
,
00000100
00010000
00001000
00010000
,
00001000
01000000
00100000
00000000
,
10000000
00010000
10000000
01000000
,
00010000
00001000
00000100
00000000
,
00000001
00001000
00000001
00000100
,
00001000
00010000
01000000
00000000
,
10010000
00000000
00000000
00000000
,
00000000
00000000
00000000
00000000
;
#NOTES:
     dance-double:
     :
     Medium:
     8:
     :
00000000
00000000
00000000
00000000
,
00000000
00000000
00000000
00000000
,
00000000
00000000
00000000
00000000
,
00000000
00000000
00000000
00000000
,
00000000
00000000
00000000
00000000
,
00100000
10000000
00100000
10000000
,
01000000
00010000
01000000
00010000
,
00001000
00000100
00001000
00000100
,
00000001
00000010
00000001
00000010
,
00001000
00010000
00000100
00000010
,
00000100
00010000
00001000
00001000
,
00010000
00001000
01000000
00100000
,
01000000
00001000
00010000
00010000
,
00011000
01001000
00011000
00010100
,
00000110
00000011
00001010
00001001
,
00000001
00000100
00000001
00000100
00000001
00000100
00000001
00000100
,
00002000
00000000
00020000
00033000
,
00001000
00000000
00010000
00000000
01000000
01000000
01000000
00000000
,
00100000
10000000
01000000
00100000
,
00001000
00000000
00010000
00000000
00000100
00000100
00000100
00000000
,
00001000
00000001
00000010
00000100
,
00010000
00000000
00001000
00000000
00000010
00000010
00000010
00000000
,
00000001
00001000
00000100
00010000
,
00001000
00000000
00010000
00000000
00100000
00100000
00100000
00000000
,
10000000
00000000
00000000
00000000
00000000
00000000
00010000
00000000
00000000
00000000
00100000
00000000
00000000
01000000
00000000
00000000
,
01000000
00000000
00100000
00000000
00001000
00010000
00001000
00000000
,
00000010
00000001
00000100
00000010
,
00000000
00000000
00001000
00000000
00000000
00000001
00000000
00000000
00000010
00000000
00000000
00000100
00000000
00000000
00001000
00000000
,
00000001
00000000
00000101
00001100
,
00000010
00000001
00000100
00000000
00000001
00000100
00001000
00000000
,
00010000
00011000
00001000
00011000
,
00010000
01000000
10000000
00000000
01000000
10000000
00100000
00000000
,
02000000
00000000
00000000
03000000
,
00010000
00000000
10010000
00000000
00000000
10000000
00100000
00000000
,
00010000
00000000
00011000
00000000
00000000
00001000
00000010
00000000
,
00000001
00000000
00001001
00000000
00000000
00001000
00000010
00000000
,
00000100
00000000
00000110
00000000
00000010
00001000
00000001
00001000
,
00001000
00000000
00001001
00000000
00000000
00000001
00000100
00000000
,
00001000
00000000
00011000
00000000
00000000
00010000
01000000
00000000
,
10000000
00000000
10010000
00000000
00000000
00010000
00100000
01000000
,
20000000
00000000
00000000
30000000
,
01000000
00000000
01000000
00000000
00100000
00001000
00001000
00000000
,
00010000
00000000
00010000
00000000
00000010
00000100
00000100
00000000
,
00000001
00000000
00000001
00000000
00000010
00001000
00001000
00000000
,
00010000
00000000
00010000
00000000
00001000
00100000
01000000
10000000
,
00100000
00000000
00110000
00000000
00001000
00010000
00001000
00000000
,
00000010
00000000
00000011
00000000
00000100
00000010
00000100
00000000
,
00010000
00000000
00011000
00000000
00000100
00000010
00000001
00000100
,
00002000
00000000
00000000
00003000
,
00011000
00000000
00000000
00000000
,
00000000
00000000
00000000
00000000
;
#NOTES:
     dance-double:
     :
     Hard:
     11:
     :
00000000
00000000
00000000
00000000
,
00000000
00000000
00000000
00000000
,
00000000
00000000
00000000
00000000
,
00000000
00000000
00000000
00000000
,
00000000
00000000
00000000
00000000
,
00000000
00000010
00000000
00000100
00000000
00010000
00000000
00000100
,
00000000
00000010
00000000
00000001
00000000
00000100
00000000
00000010
,
00000000
00000100
00000000
00000001
00000000
00000010
00000000
00001000
,
00000000
00010000
00000000
00100000
00000000
10000000
00000000
01000000
,
00100000
00101000
00000010
00010010
,
00001000
00001100
00000001
00000101
,
00000010
00010010
00100000
00101000
,
00010000
01010000
10000000
11000000
,
00100000
00010000
10000000
01000000
00010000
00001000
00100000
00010000
,
01000000
00100000
00010000
00001000
00000010
00000001
00000100
00000010
,
00010000
00001000
00010000
00000000
00000100
00000010
00000100
00000000
00010000
00001000
00010000
00000000
00000010
00000100
00000010
00000000
,
00020000
00000000
00002000
00033000
,
00000000
00000000
00000010
00000000
00000000
00000001
00000000
00000000
00001000
00000000
00000000
00000010
00000000
00000000
00010000
00000000
,
00001000
00100000
00010000
00000000
00000000
10000000
00010000
10000000
,
00000000
00000000
00100000
00000000
00000000
10000000
00000000
00000000
01000000
10000000
00000000
00100000
00000000
00000000
00010000
00000000
,
00001000
00000000
00010000
00000000
00000100
00000010
00000001
00000100
,
00000000
00000000
00000010
00000000
00000000
00010000
00000000
00000000
00000100
00000000
00000000
00000010
00000000
00000000
00000001
00000000
,
00000100
00001000
00000100
00000000
00000000
00000010
00010000
00001000
,
00000000
00000000
00100000
00000000
00000000
00010000
00000000
00000000
10000000
00010000
00000000
01000000
00000000
00000000
00100000
00000000
,
10000000
00000000
00000000
01000000
00000000
00100000
00001000
00010000
,
00000000
00000000
00100000
00000000
00000000
10000000
00000000
00000000
01000000
00000000
00000000
00100000
00000000
00000000
00001000
00000000
,
00010000
00000000
00000010
00000000
00001000
00000100
00001000
00000001
,
00000000
00000000
00001000
00000000
00000000
00000010
00000000
00000000
00000100
00000000
00000000
00000001
00000000
00000000
00001000
00000000
,
00000002
00000000
00000010
00000103
,
00000000
00000000
00001000
00000000
00000000
00010000
00000000
00000000
00000100
00000000
00000000
00000010
00000000
00000000
00000001
00000000
,
00000200
00000000
00000000
00000000
00000000
00000000
00002300
00000000
00000000
00000000
00200000
00003000
00000000
00000000
00000000
00000000
,
01300000
00000000
10000000
00000000
00000000
00100000
00000000
00000000
10000000
00010000
00000000
00100000
00000000
00000000
01000000
00000000
,
20020000
00000000
00000000
30030000
,
00100000
00000000
00001000
00000000
00010000
00000000
00000000
00000010
00000000
00000000
00010000
00000000
00001000
00000000
00000000
00100000
,
00000000
00000000
00001000
00000000
00010000
00000000
00000000
00000010
00000000
00000000
00001000
00000000
00000100
00000000
00000000
00000010
,
00000000
00000000
00000001
00000000
00000100
00000000
00000000
00000010
00000000
00000000
00001000
00000000
00000100
00000000
00000000
00000010
,
00000000
00000001
00000100
00001000
00010000
01000000
10000000
00010000
,
00100000
00000000
00001000
00000000
00010000
00000000
00000000
00000100
00000000
00000000
00010000
00000000
00001000
00000000
00000000
01000000
,
00000000
00000000
00001000
00000000
00010000
00000000
00000000
00000100
00000000
00000000
00001000
00000000
00000001
00000000
00000000
00000100
,
00000000
00000000
00000001
00000000
00001000
00000000
00000000
00000100
00000000
00000000
00000010
00000000
00000001
00000000
00000100
00000000
,
00000110
00000000
00000000
00001000
00000000
00000000
00010100
00000000
00000000
00000000
00011000
00000000
00000000
00110000
00000000
00000000
,
10000000
00000000
01000000
00000000
00010000
00000000
00000000
00001000
00000000
00000000
00010000
00000000
01000000
00000000
00000000
10000000
,
00000000
00000000
01000000
00000000
00010000
00000000
00000000
00001000
00000000
00000000
00010000
00000000
01000000
00000000
00000000
10000000
,
00000000
00000000
00100000
00000000
00010000
00000000
00000000
00001000
00000000
00000000
00010000
00000000
00100000
00000000
00000000
10000000
,
00000000
01000000
00100000
00001000
00010000
00001000
01000000
00100000
,
01000000
00000000
00001000
00000000
00010000
00000000
00000000
00000100
00000000
00000000
00010000
00000000
00001000
00000000
00000000
00100000
,
00000000
00000000
00001000
00000000
00010000
00000000
00000000
00000010
00000000
00000000
00010000
00000000
00001000
00000000
00000000
01000000
,
00000000
00000000
00100000
00000000
10000000
00000000
00000000
01000000
00000000
00000000
00100000
00000000
00010000
00000000
01000000
00000000
,
01001000
00000000
00000000
00010000
00000000
00000000
00010100
00000000
00000000
00000000
00001010
00000000
00000000
00000101
00000000
00000000
,
00001001
00000000
00000000
00000000
,
00000000
00000000
00000000
00000000
;
#NOTES:
     dance-double:
     :
     Challenge:
     13:
     :
00000000
00000000
00000000
00000000
,
00000000
00000000
00000000
00000000
,
00000000
00000000
00000000
00000000
,
00000000
00000000
00000000
00000000
,
00000000
00000000
00000000
00000000
,
00000000
00000100
00001000
00000001
00000000
00000100
00001000
00010000
,
00000000
01000000
10000000
00010000
00000000
01000000
00010000
00100000
,
00000000
00010000
10000000
00100000
00000000
00010000
00001000
01000000
,
00000000
00100000
00010000
00001000
00000000
00000010
00000001
00001000
,
00000010
00000011
00001000
00001100
,
00000010
00010010
00001000
00101000
,
01000000
01010000
10000000
11000000
,
00100000
00101000
00010000
00010010
,
00001000
00010000
01000000
00100000
00001000
00100000
01000000
10000000
,
00100000
00010000
00001000
00100000
00001000
01000000
00100000
10000000
,
00100000
01000000
00100000
01000000
00001000
00010000
00001000
00010000
00000010
00000100
00000001
00000010
00000100
00010000
00001000
00010000
,
00000010
00001000
00000100
00000010
00000001
00000000
00000100
00000000
00000220
00000000
00000000
00000000
00000330
00000000
00000000
00000000
,
00001000
00000000
00000010
00000000
00000000
00000100
00000000
00000000
00000001
00000100
00000000
00000001
00000000
00000000
00000010
00000000
,
00001000
00000000
00010000
00000000
00000100
00000000
00000000
00000000
00000000
00000010
00000001
00000000
00001000
00000000
00000000
00000000
,
00000100
00000000
00000010
00000000
00000000
00001000
00000000
00000000
00010000
00000100
00000000
00010000
00000000
00000000
00001000
00000000
,
01000000
00000000
00100000
00000000
01000000
00000000
00010000
00000000
00100000
00001000
01000000
00000000
00100000
00000000
10000000
00010000
,
10000000
00000000
01000000
00000000
00000000
00010000
00000000
00000000
00001000
01000000
00000000
00001000
00000000
00000000
00100000
00000000
,
01000000
00000000
10000000
00000000
00100000
00000000
00000000
00000000
00000000
00010000
00001000
00000000
01000000
00000000
00000000
00000000
,
00100000
00000000
01000000
00000000
00000000
00001000
00000000
00000000
00010000
00000010
00000000
00010000
00000000
00000000
00000100
00000000
,
00001100
00000000
00000000
00000000
00000001
00000000
00000101
00000000
00000000
00000000
00000010
00000000
00010000
00000000
00001000
01000000
,
00010000
00000000
00100000
00000000
00000000
01000000
00000000
00000000
10000000
00010000
00000000
10000000
00000000
00000000
00100000
00000000
,
00010000
00000000
00001000
00000000
00100000
00000000
00000000
00000000
00000000
00001000
00010000
00000000
00000100
00000000
00010000
00000000
,
00000000
00000000
01001000
00000000
00000000
00110000
00000000
00000000
11000000
00000000
00000000
10100000
00000000
00000000
01001000
00000000
,
00011000
00000000
00000000
00000000
00000000
00000000
00000000
00000000
00000100
00000000
00010000
00001000
00010000
00000000
00000100
00000000
,
00000010
00000000
00000001
00000000
00000000
00001000
00000000
00000000
00000010
00010000
00000000
00000010
00000000
00000000
00001000
00000000
,
00000100
00000000
00000010
00000000
00000001
00000000
00000000
00000000
00000000
00001000
00000010
00000000
00010000
00000000
00000000
00000000
,
00000100
00000000
00000010
00000000
00000000
00001000
00000000
00000000
00010000
00000010
00000000
00010000
00000000
00000000
00001000
00000000
,
02000000
00000000
00000000
10000000
00000000
03010000
00000000
00000000
,
00100000
00001000
01000000
00100000
10000000
00010000
01000000
00001000
,
00100000
00000000
00010000
00000000
01000000
00000000
00001000
00000000
00010000
00000000
00000010
00000000
00000100
00000000
00000000
00000001
,
00000000
00000100
00001000
00000100
00000010
00010000
00000100
00000010
,
00000100
00000000
00001000
00000000
00000010
00000000
00010000
00000000
00000100
00000000
00000010
00000000
00000100
00000000
00010000
00001000
,
00010000
01000000
10000000
00100000
00010000
00001000
00100000
01000000
,
10000000
00000000
00100000
00000000
01000000
00000000
00001000
00000000
00010000
00000000
00100000
00000000
10000000
00000000
00000000
01000000
,
00000000
00100000
00001000
00010000
00000010
00010000
00001000
00100000
,
00110000
00000000
00000000
11000000
00000000
00000000
10100000
00000000
00000000
00000000
01001000
00000000
00000000
00011000
00000000
00000000
,
00010100
00000000
00000010
00000000
00000001
00000000
00001000
00000100
00000000
00000000
00000010
00000000
00000001
00000000
00000100
00000010
,
00000000
00000000
00010000
00000000
00001000
00000000
01000000
00100000
00000000
00000000
10000000
00000000
01000000
00000000
00100000
00001000
,
00010000
00000000
00000010
00000000
00000100
00000000
00000001
00000010
00000000
00000000
00000100
00000000
00010000
00000000
00001000
01000000
,
00000000
00000000
00100000
00000000
10000000
00000000
01000000
00010000
00000000
00000000
00001000
00000000
00000100
00000000
00000001
00001000
,
00000100
00000000
00010000
00000000
00001000
00000000
01000000
00100000
01000000
00000000
00010000
00000000
00100000
00000000
01000000
10000000
,
01000000
00000000
00100000
00000000
00001000
00000000
00010000
00000010
00010000
00000000
00000100
00000000
00001000
00000000
00000001
00000100
,
00000001
00000000
00000010
00000000
00000100
00000000
00010000
00001000
00010000
00000000
01000000
00000000
10000000
00000000
00100000
00000000
,
01100000
00000000
00000000
01001000
00000000
00000000
00011000
00000000
00000000
00000000
00010100
00000000
00000000
00000000
00000010
00000001
,
00000100
00000000
00000000
00000000
,
00000000
00000000
00000000
00000000
;
