
//----- song ID: shwo -----//
#TITLE:Shiny World;
#ARTIST:CAPACITY GATE;
#BANNER:Shiny World.png;
#BACKGROUND:Shiny World-bg.png;
#CDTITLE:./CDTitles/DDR X2.png;
#MUSIC:Shiny World.ogg;
#SAMPLESTART:19.21;
#SAMPLELENGTH:15;
#BPMS:0=25,8=100;
#STOPS:100=2.1;
#NOTES:
     dance-single:
     :
     Beginner:
     2:
     :
0000
0000
0000
0000
,
0000
0000
0000
0000
,
1000
1000
1000
0000
,
0001
0001
0001
0000
,
0010
0000
0001
0000
,
0100
0000
1000
0000
,
0001
0001
0001
0000
,
1000
1000
1000
0000
,
0010
0000
1000
0000
,
0100
0000
0001
0000
,
0010
0010
0010
0000
,
1000
1000
1000
0000
,
0100
0100
0100
0000
,
0001
0001
0001
0000
,
0010
0010
0010
0000
,
0001
0001
0001
0000
,
0100
0100
0100
0000
,
1000
1000
1000
0000
,
0002
0000
0003
0000
,
2000
0000
3000
0000
,
0020
0000
0030
0000
,
0200
0000
0300
0000
,
2000
0000
3000
0000
,
0002
0000
0003
0000
,
0200
0000
0000
0300
,
0000
1000
0000
1000
0000
1000
0000
0000
,
0000
0001
0000
0001
0000
0001
0000
0000
,
0000
0010
0000
0000
0000
0001
0000
0000
,
0000
0100
0000
0000
0000
1000
0000
0000
,
0000
0001
0000
0001
0000
0001
0000
0000
,
0000
1000
0000
1000
0000
1000
0000
0000
,
0000
0010
0000
0000
0000
1000
0000
0000
,
0000
0100
0000
0100
0000
0100
0000
0100
,
0000
0000
0000
0000
;
#NOTES:
     dance-single:
     :
     Easy:
     8:
     :
0000
0000
0000
0000
,
0000
0000
0000
0000
,
1000
1000
0100
0000
0001
0010
0001
1000
,
0001
0001
0100
0000
1000
0010
1000
0001
,
0010
0100
0100
1000
0010
0010
0100
0001
,
0001
1000
0010
0010
0001
0010
1000
0100
,
0001
0001
0100
0000
1000
0010
1000
0001
,
1000
1000
0100
0000
0001
0010
0001
1000
,
0010
0100
0100
0001
0010
0010
0100
1000
,
1000
0001
0010
0010
1000
0010
0001
0000
,
0100
1000
1100
0000
0000
0100
0010
1000
,
0001
0100
0101
0000
0000
0100
0010
1000
,
0100
0001
0101
0000
0000
0100
0010
0100
,
1000
0100
1100
0000
0000
1000
0001
1001
,
0010
1000
1010
0000
0000
0010
0100
1000
,
0001
1000
0110
0000
0000
0001
0100
1000
,
0010
0001
0011
0000
0000
0010
0100
0001
,
1000
0000
0000
0001
0000
0000
0110
0000
0000
0000
1000
0000
0001
0000
0000
0000
,
0200
0000
0000
0000
1300
0100
1000
0010
,
0200
0000
0000
0000
0301
0100
0001
0010
,
0200
0000
0000
0000
0310
0001
0100
0010
,
0110
0000
0000
0100
0000
0000
0100
0000
0000
0000
0001
0000
0100
0000
0000
0000
,
0200
0000
0000
0000
0310
0100
0001
0010
,
0200
0000
0000
0000
0310
0100
1000
0010
,
0110
0000
1001
0000
,
0000
1000
1000
0100
0000
0001
0010
0001
,
1000
0001
0001
0100
0000
1000
0010
1000
,
0001
0010
0100
0100
1000
0010
0010
0100
,
0001
0001
1000
0010
0010
0001
0010
1000
,
0100
0001
0001
0100
0000
1000
0010
1000
,
0001
1000
1000
0100
0000
0001
0010
0001
,
1000
0010
0100
0100
0001
0010
0010
0100
,
0000
0000
1000
0000
0000
0001
0000
0000
1000
0000
0001
0000
0010
0000
0100
0000
,
1000
0000
0000
0000
,
0000
0000
0000
0000
;
#NOTES:
     dance-single:
     :
     Medium:
     11:
     :
0000
0000
0000
0000
,
0000
0000
0000
0000
,
0001
0000
0001
0010
0000
0100
1000
0000
0010
0000
1000
0000
0100
0000
1000
0000
,
1000
0000
1000
0010
0000
0100
0001
0000
0010
0000
0001
0000
0100
0000
0001
0000
,
1000
0000
0001
0100
0001
0000
1000
0000
0100
1000
0100
0000
0010
0000
0001
0100
,
0001
0000
1000
0000
0010
0100
0010
0000
1000
0000
0100
0000
0010
0000
0001
0000
,
1000
0000
1000
0010
0000
0100
0001
0000
0010
0000
0001
0000
0100
0000
0001
0000
,
0001
0000
0001
0010
0000
0100
1000
0000
0010
0000
1000
0000
0100
0000
1000
0000
,
0001
0000
1000
0100
1000
0000
0001
0000
0100
0001
0100
0000
0010
0000
1000
0100
,
1000
0000
0001
0000
0010
0100
0010
0000
0001
0000
0100
0000
0010
1000
0001
0000
,
0010
0000
0001
0000
0011
0000
0000
0100
0000
1000
0010
0000
0100
0000
0001
0000
,
1000
0000
0010
0000
1010
0000
0000
0100
0000
0001
0010
0000
0110
0000
1001
0000
,
0010
0000
1000
0000
1010
0000
0000
0100
0000
0001
0010
0000
0100
0000
1000
0000
,
0001
0000
0010
0000
0011
0000
0000
0100
0000
1000
0001
0000
0110
0000
1001
0000
,
0100
0000
0001
0000
0101
0000
0000
0010
0000
1000
0100
0000
0010
0000
0001
0000
,
1000
0000
0001
0000
0110
0000
0000
0010
0000
0001
1000
0000
0110
0000
1001
0000
,
0100
0000
1000
0000
1100
0000
0000
0010
0000
0001
0100
0000
0010
0000
1000
0000
,
0001
0000
0000
1000
0000
0000
0110
0000
0000
0000
0001
0000
1000
0000
0100
0000
,
0020
0000
0001
0001
0000
0100
0100
0000
0030
0000
0010
0000
0001
0000
0100
0000
,
0020
0000
1000
1000
0000
0100
0100
0000
0030
0000
0010
0000
1000
0000
0100
0000
,
0020
0000
0100
0100
0000
0001
0001
0000
0030
0000
1000
0000
0010
0000
0100
0000
,
0110
0000
0001
1000
0000
0100
0010
0000
0000
0001
1000
0000
0010
0000
0100
0000
,
0120
0000
1000
1000
0000
0100
0100
0000
0030
0000
0010
0000
1000
0000
0100
0000
,
0120
0000
0001
0001
0000
0100
0100
0000
0030
0000
0010
0000
0001
0000
0100
0000
,
0010
0100
0001
0010
0100
1000
0010
0200
,
0000
0300
0001
0000
0001
0010
0000
0100
1000
0000
0010
0000
1000
0000
0100
0000
,
1000
0000
1000
0000
1000
0010
0000
0100
0001
0000
0010
0000
0001
0000
0100
0000
,
0001
0000
1000
0000
0001
0100
0001
0000
1000
0000
0100
1000
0100
0000
0010
0000
,
0001
0100
0001
0000
1000
0000
0010
0100
0010
0000
1000
0000
0100
0000
0010
0000
,
0001
0000
1000
0000
1000
0010
0000
0100
0001
0000
0010
0000
0001
0000
0100
0000
,
0001
0000
0001
0000
0001
0010
0000
0100
1000
0000
0010
0000
1000
0000
0100
0000
,
1000
0000
0001
0000
1000
0100
1000
0000
0001
0000
0100
0001
0100
0000
0010
0000
,
1000
0000
1001
0000
0010
0100
0000
1000
0001
0000
0100
0000
0010
0000
1000
0001
,
0100
0000
0000
0000
,
0000
0000
0000
0000
;
#NOTES:
     dance-single:
     :
     Hard:
     14:
     :
0000
0000
0000
0000
,
0000
0000
0000
0000
,
1000
0001
1000
0010
0000
0100
0001
0000
0000
0010
0001
0010
0100
0010
1000
0010
,
0001
1000
0001
0010
0000
0100
1000
0000
0000
0010
1000
0010
0100
0010
0001
0010
,
1000
0100
0001
0100
1001
0000
0001
0100
1000
0100
1001
0000
1000
0100
0001
0100
,
1001
0000
0001
0100
1000
0100
1001
0000
1000
1000
0100
0100
0010
0010
0001
0000
,
0001
1000
0001
0010
0000
0100
1000
0000
0000
0010
1000
0010
0100
0010
0001
0010
,
1000
0001
1000
0010
0000
0100
0001
0000
0000
0010
0001
0010
0100
0010
1000
0010
,
0001
0100
1000
0100
1001
0000
1000
0100
0001
0100
1001
0000
0001
0100
1000
0100
,
1001
0000
1000
0100
0001
0100
1001
0000
0001
0100
0001
0100
0001
0100
0010
0000
,
1000
0000
0010
1000
1010
0000
0000
0100
0000
0001
0010
0001
1000
0000
0000
1000
,
0001
0000
0000
0000
0010
0000
0001
0000
0011
0000
0000
0000
0000
0000
0100
0000
0000
0000
1000
0010
1000
0000
0001
0000
0010
0000
0000
0000
0100
0000
0010
0100
,
0010
0000
0001
0010
0011
0000
0000
0100
0000
1000
0010
1000
0001
0000
0000
0001
,
1000
0000
0010
1000
1010
0000
0000
0100
0000
0001
1000
0000
0110
0000
1001
0000
,
0100
0000
1000
0100
0110
0000
0000
0010
0000
0001
0100
0001
0010
0000
0000
0100
,
1000
0000
0000
0000
0001
0000
0100
0000
0110
0000
0000
0000
0000
0000
0010
0000
0000
0000
1000
0001
1000
0000
0100
0000
0010
0000
0000
0000
0001
0000
1000
0010
,
1000
0000
0001
0100
0110
0000
0000
0010
0000
1000
0100
1000
0010
0000
0001
0010
,
1000
0000
0000
0000
0000
0000
0000
0000
0000
0000
0000
0000
0001
0000
0000
0000
0000
0000
0010
0000
0000
0000
0000
0000
0000
0000
0000
0000
0000
0000
0100
0000
0000
0000
0000
0000
1000
0000
0000
0000
0000
0000
0000
0000
0000
0000
0000
0000
0001
0000
0000
0000
0000
0000
0100
0000
0000
1000
0000
0000
0100
0000
0000
0000
0000
0000
0001
0000
0000
0000
0000
0000
0010
0000
0000
0000
0000
0000
0000
0000
0010
0000
0000
0000
0000
0000
0000
0000
0010
0000
0000
0000
0000
0000
0000
0000
,
0001
0000
0001
0100
0000
0100
0010
0000
1000
0010
0100
0010
1000
0000
0001
0000
,
1000
0000
1000
0100
0000
0100
0010
0000
0001
0010
0100
0010
0001
0000
1000
0000
,
0010
0000
0010
0100
0000
0100
1000
0000
0100
0000
0001
0000
0010
0000
0100
0000
,
0110
0000
1000
0001
0000
0100
0010
0000
1000
0001
0100
0000
0010
0000
0100
0000
,
0101
0000
0001
0010
0000
0100
1000
0000
0000
0001
0010
1000
0010
0000
0001
0000
,
1100
0000
1000
0010
0000
0100
0001
0000
0000
1000
0010
0001
0010
0000
1000
0000
,
1001
0000
0100
0000
1000
0000
0010
0100
0110
0000
0001
0000
1000
0000
0010
0020
,
0000
0030
1000
0001
1000
0010
0000
0100
0001
0000
0000
0010
0001
0010
0100
0010
,
1000
0010
0001
1000
0001
0010
0000
0100
1000
0000
0000
0010
1000
0010
0100
0010
,
0001
0010
1000
0100
0001
0100
1001
0000
0001
0100
1000
0100
1001
0000
1000
0100
,
0001
0100
1001
0000
0001
0100
1000
0100
1001
0000
1000
1000
0100
0100
0010
0010
,
0001
0000
0001
1000
0001
0010
0000
0100
1000
0000
0000
0010
1000
0010
0100
0010
,
0001
0010
1000
0001
1000
0010
0000
0100
0001
0000
0000
0010
0001
0010
0100
0010
,
1000
0010
0001
0100
1000
0100
1001
0000
1000
0100
0001
0100
1001
0000
0001
0100
,
1000
0100
1001
0000
0010
0100
0000
0001
1000
0000
0100
0010
0100
0010
0001
1000
,
0100
0000
0000
0000
,
0000
0000
0000
0000
;
#NOTES:
     dance-single:
     :
     Challenge:
     16:
     :
0000
0000
0000
0000
,
0000
0000
0000
0000
,
1000
0000
0100
0000
0001
0000
1000
0000
0000
0000
0010
0000
0001
0000
0000
0000
0000
0000
0100
0010
0100
0000
1000
0000
0100
0000
0001
0000
0010
0000
0000
0000
,
0001
0000
0100
0000
1000
0000
0001
0000
0000
0000
0010
0000
1000
0000
0000
0000
0000
0000
0100
0010
0100
0000
0001
0000
0100
0000
1000
0000
0010
0000
0000
0000
,
1000
0100
0001
0100
1000
0000
0001
0000
1001
0000
0000
0000
0001
0100
1000
0100
0001
0000
1000
0000
1001
0000
0000
0000
1000
0100
0001
0100
1000
0000
0001
0000
,
1001
0000
0000
0000
0001
0100
1000
0100
0001
0000
1000
0000
1001
0000
0000
0000
0011
0000
0001
0000
0101
0000
0100
0000
0110
0000
0010
0000
1010
0000
1000
0000
,
0001
0000
0010
0000
1000
0000
0001
0000
0000
0000
0100
0000
1000
0000
0000
0000
0000
0000
0010
0100
0010
0000
0001
0000
0010
0000
1000
0000
0100
0000
0000
0000
,
1000
0000
0010
0000
0001
0000
1000
0000
0000
0000
0100
0000
0001
0000
0000
0000
0000
0000
0010
0100
0010
0000
1000
0000
0010
0000
0001
0000
0010
0000
0000
0000
,
0001
0100
1000
0100
0001
0000
1000
0000
1001
0000
0000
0000
1000
0100
0001
0100
1000
0000
0001
0000
1001
0000
0000
0000
0001
0100
1000
0100
0001
0000
1000
0000
,
1001
0000
0000
0000
1000
0100
0001
0100
1000
0000
0001
0000
1001
0000
0000
0000
0011
0000
0001
0000
0101
0000
0100
0000
0010
0000
0100
0000
1001
0000
0000
0000
,
1000
0000
0100
0000
0001
0000
0100
0000
0110
0000
0000
0000
0001
0000
0100
0000
0000
0000
0010
0100
0010
0000
1000
0000
0100
0000
0001
0000
0100
0000
0000
0000
,
1000
0000
0010
0000
0001
0000
0010
0000
0110
0000
0000
0000
0001
0000
0010
0000
0000
0000
0100
0010
0100
0000
1000
0000
0010
0000
0001
0000
0010
0000
0010
0000
,
0001
0000
0010
0000
1000
0000
0010
0000
0110
0000
0000
0000
1000
0000
0010
0000
0000
0000
0100
0010
0100
0000
0001
0000
0010
0000
1000
0000
0010
0000
0000
0000
,
0001
0000
0100
0000
1000
0000
0100
0000
0110
0000
0000
0000
1000
0000
0100
0000
0000
0000
0010
0100
0010
0000
0000
0000
0011
0000
0000
0000
1100
0000
0000
0000
,
1000
0000
1000
0000
0001
0000
0010
0000
0110
0000
0000
0000
1000
0000
1001
0000
0000
0000
0100
0010
0100
0000
0001
0000
1000
0000
0100
0000
0010
0000
0000
0000
,
0001
0000
0001
0000
1000
0000
0010
0000
0110
0000
0000
0000
0001
0000
1001
0000
0000
0000
0100
0010
0100
0000
1000
0000
0010
0000
0100
0000
0001
0000
0000
0000
,
0001
0000
1000
0000
0010
0000
1000
0000
1100
0000
0000
0000
0010
0000
0011
0000
0000
0000
0001
1000
0001
0000
0100
0000
1000
0000
0100
0000
0001
0000
0000
0000
,
1001
0000
0000
0000
0000
0000
0000
0000
0000
0000
0000
0000
0100
0000
0000
0000
0000
0000
0110
0000
0000
0000
0000
0000
0000
0000
0000
0000
0000
0000
0001
0000
0000
0000
0000
0000
1001
0000
0000
0000
0000
0000
0000
0000
0000
0000
0000
0000
1000
0000
0000
0000
0000
0000
0100
0000
0000
0001
0000
0000
0100
0000
0000
0000
0000
0000
1000
0000
0000
0000
0000
0000
1010
0000
0000
0000
0000
0000
0000
0000
0011
0000
0000
0000
0000
0000
0000
0000
0101
0000
0000
0000
0000
0000
0000
0000
,
2000
0000
0001
0001
0000
0100
0100
0000
3000
0000
0010
0000
0100
0000
0001
0000
,
0002
0000
1000
1000
0000
0100
0100
0000
0003
0000
0010
0000
0100
0000
1000
0000
,
0020
0000
0001
0001
0000
1000
1000
0000
0030
0000
0100
0000
0010
0000
1000
0000
,
1001
0000
0001
1000
0000
0010
0100
0000
0010
1000
0100
0000
0010
0000
0110
0000
,
0002
0000
0010
0010
0000
0100
0103
0000
0010
1000
0100
0001
0100
1000
0010
0000
,
2000
0000
0010
0010
0000
0100
3100
0000
0010
0001
0100
1000
0100
0001
0010
0000
,
1100
0000
0010
0100
0101
0000
0010
0100
1100
0000
0010
0100
0101
0000
0010
0020
,
0000
0000
0000
0000
1030
0000
0100
0000
0001
0000
1000
0000
0000
0000
0010
0000
0001
0000
0000
0000
0000
0000
0100
0010
0100
0000
1000
0000
0100
0000
0001
0000
,
0010
0000
0000
0000
0001
0000
0100
0000
1000
0000
0001
0000
0000
0000
0010
0000
1000
0000
0000
0000
0000
0000
0100
0010
0100
0000
0001
0000
0100
0000
1000
0000
,
0010
0000
0000
0000
1000
0100
0001
0100
1000
0000
0001
0000
1001
0000
0000
0000
0001
0100
1000
0100
0001
0000
1000
0000
1001
0000
0000
0000
1000
0100
0001
0100
,
1000
0000
0001
0000
1001
0000
0000
0000
0001
0100
1000
0100
0001
0000
1000
0000
1001
0000
0000
0000
0011
0000
0001
0000
0101
0000
0100
0000
0110
0000
0010
0000
,
1010
0000
1000
0000
0001
0000
0010
0000
1000
0000
0001
0000
0000
0000
0100
0000
1000
0000
0000
0000
0000
0000
0010
0100
0010
0000
0001
0000
0010
0000
1000
0000
,
0100
0000
0000
0000
1000
0000
0010
0000
0001
0000
1000
0000
0000
0000
0100
0000
0001
0000
0000
0000
0000
0000
0010
0100
0010
0000
1000
0000
0010
0000
0001
0000
,
0010
0000
0000
0000
0001
0100
1000
0100
0001
0000
1000
0000
1001
0000
0000
0000
1000
0100
0001
0100
1000
0000
0001
0000
1001
0000
0000
0000
0001
0100
1000
0100
,
0001
0000
1000
0000
1001
0000
0000
0000
1000
0100
0001
0100
1000
0000
0001
0000
1001
0000
0000
0000
0011
0000
0001
0000
0101
0000
0100
0000
0010
0000
0100
0000
,
1001
0000
0000
0000
,
0000
0000
0000
0000
;
#NOTES:
     dance-double:
     :
     Easy:
     8:
     :
00000000
00000000
00000000
00000000
,
00000000
00000000
00000000
00000000
,
10000000
10000000
01000000
00000000
00100000
01000000
10000000
00100000
,
00010000
00010000
00001000
00000000
00000100
00000001
00000010
00000001
,
00001000
00000010
00000010
00000100
00000010
00000010
00010000
00000010
,
00000010
00001000
00000010
00000010
00010000
00001000
00100000
00010000
,
10000000
10000000
00100000
00000000
01000000
00100000
10000000
01000000
,
00010000
00010000
00001000
00000000
00000010
00001000
00010000
00001000
,
00100000
00001000
00001000
00010000
00001000
00001000
01000000
00001000
,
00001000
00010000
00001000
00001000
00000100
00000001
00001000
00000000
,
00000001
00000100
00001000
00000000
00000000
00010000
00100000
10000000
,
00100000
00010000
00001000
00000000
00000000
00000010
00000001
00000010
,
00001000
00010000
01000000
00000000
00000000
10000000
01000000
00010000
,
00001000
00000100
00000001
00000000
00000000
00000100
00001000
00010000
,
00100000
10000000
00100000
00000000
00000000
00010000
01000000
00001000
,
00010000
00000100
00001000
00000000
00000000
00000001
00000010
00000001
,
00001000
00000100
00001000
00000000
00000000
00010000
00001000
00100000
,
00010000
00000000
00000000
01000000
00000000
00000000
01100000
00000000
00000000
00000000
10000000
00000000
00010000
00000000
00000000
00000000
,
20000000
00000000
00000000
00000000
30010000
00001000
00010000
00000000
,
00002000
00000000
00000000
00000000
00003001
00001000
00000001
00000000
,
00000200
00000000
00000000
00000000
00000310
00001000
00000010
00000000
,
00010000
00000000
00000000
00100000
00000000
00000000
00010000
00000000
00000000
00000000
00001000
00000000
00000100
00000000
00000000
00000000
,
00000002
00000000
00000000
00000000
00001003
00010000
00001000
00000000
,
00020000
00000000
00000000
00000000
10030000
00010000
10000000
00000000
,
01100000
00000000
10010000
00000000
,
00000000
10000000
10000000
01000000
00000000
00100000
01000000
10000000
,
00100000
00010000
00010000
00001000
00000000
00000100
00000001
00000010
,
00000001
00001000
00000010
00000010
00000100
00000010
00000010
00010000
,
00000010
00000010
00001000
00000010
00000010
00010000
00001000
00100000
,
00010000
10000000
10000000
00100000
00000000
01000000
00100000
10000000
,
01000000
00010000
00010000
00001000
00000000
00000010
00001000
00010000
,
00001000
00100000
00001000
00001000
00010000
00001000
00001000
01000000
,
00001000
00000000
00010000
00000000
00000000
00001000
00000000
00000000
00000100
00000000
00000001
00000000
00001000
00000000
00000100
00000000
,
00000010
00000000
00000000
00000000
,
00000000
00000000
00000000
00000000
;
#NOTES:
     dance-double:
     :
     Medium:
     11:
     :
00000000
00000000
00000000
00000000
,
00000000
00000000
00000000
00000000
,
00001000
00000000
00001000
00000010
00000000
00000100
00000001
00000000
00000000
00000000
00000010
00000000
00001000
00000000
00010000
00000000
,
00100000
00000000
00100000
10000000
00000000
00010000
00100000
00000000
00000000
00000000
01000000
00000000
00010000
00000000
00001000
00000000
,
00100000
00000000
00001000
00010000
00001000
00000000
01000000
00000000
00001000
00010000
00001000
00000000
00000010
00000000
00001000
00010000
,
00001000
00000000
00000100
00000000
00001000
00010000
00001000
00000000
00100000
00000000
00010000
00000000
00001000
00000000
00000100
00000000
,
00000010
00000000
00000010
00000001
00000000
00001000
00000001
00000000
00000000
00000000
00000100
00000000
00001000
00000000
00010000
00000000
,
01000000
00000000
01000000
00100000
00000000
00010000
10000000
00000000
00000000
00000000
00100000
00000000
00010000
00000000
00001000
00000000
,
00000010
00000000
00001000
00010000
00001000
00000000
00100000
00000000
00001000
00010000
00001000
00000000
01000000
00000000
00001000
00010000
,
00001000
00000000
00000100
00000000
00001000
00010000
00001000
00000000
00010000
00000000
00010000
00000000
00000010
00001000
00000100
00000000
,
00000010
00000000
00000010
00000000
00000011
00000000
00000000
00000100
00000000
00000001
00000010
00000000
00000100
00000000
00000000
00000000
,
00010000
00000000
00010000
00000000
00011000
00000000
00000000
00100000
00000000
00010000
01000000
00000000
00100000
00000000
00100000
00000000
,
10000000
00000000
10000000
00000000
11000000
00000000
00000000
00100000
00000000
00001000
00010000
00000000
00100000
00000000
00000000
00000000
,
00010000
00000000
00001000
00000000
00011000
00000000
00000000
00000010
00000000
00000001
00001000
00000000
00000110
00000000
00001001
00000000
,
00000100
00000000
00000100
00000000
00001100
00000000
00000000
00000010
00000000
00000001
00000100
00000000
00001000
00000000
00000000
00000000
,
00010000
00000000
01000000
00000000
11000000
00000000
00000000
00100000
00000000
01000000
10000000
00000000
00010000
00000000
00010000
00000000
,
01000000
00000000
01000000
00000000
01100000
00000000
00000000
00010000
00000000
10000000
01000000
00000000
00100000
00000000
00000000
00000000
,
00010000
00000000
00000000
00001000
00000000
00000000
00011000
00000000
00000000
00000000
00000010
00000000
00000001
00000000
00001000
00000000
,
00000020
00000000
00010000
00010000
00000000
00001000
00001000
00000000
00000030
00000000
00000010
00000000
00010000
00000000
00001000
00000000
,
00200000
00000000
00001000
00001000
00000000
00010000
00010000
00000000
00300000
00000000
00100000
00000000
00001000
00000000
00010000
00000000
,
00000200
00000000
00001000
00001000
00000000
00000001
00000001
00000000
00000300
00000000
00001000
00000000
00000010
00000000
00000100
00000000
,
00000110
00000000
00001000
00000001
00000000
00000100
00000010
00000000
00000000
00010000
00001000
00000000
01000000
00000000
00010000
00000000
,
20000000
00000000
00010000
00010000
00000000
01000000
01000000
00000000
30000000
00000000
00010000
00000000
00001000
00000000
00000100
00000000
,
00000002
00000000
00001000
00001000
00000000
00000100
00000100
00000000
00000003
00000000
00001000
00000000
00010000
00000000
00001000
00000000
,
00011000
01000000
10010000
01000000
,
00000000
00000000
00010000
00000000
00010000
00100000
00000000
01000000
10000000
00000000
00000000
00000000
00100000
00000000
00010000
00000000
,
00001000
00000000
00000010
00000000
00000010
00000001
00000000
00001000
00000010
00000000
00000000
00000000
00000100
00000000
00001000
00000000
,
00010000
00000000
00000010
00000000
00010000
00001000
00010000
00000000
00000100
00000000
00010000
00001000
00010000
00000000
00100000
00000000
,
00010000
00001000
00010000
00000000
01000000
00000000
00010000
00001000
00010000
00000000
00000010
00000000
00001000
00000000
00010000
00000000
,
01000000
00000000
00100000
00000000
00100000
10000000
00000000
00010000
10000000
00000000
00000000
00000000
01000000
00000000
00010000
00000000
,
00001000
00000000
00000100
00000000
00000100
00000010
00000000
00001000
00000001
00000000
00000000
00000000
00000010
00000000
00001000
00000000
,
00010000
00000000
00100000
00000000
00010000
00001000
00010000
00000000
00000010
00000000
00010000
00001000
00010000
00000000
00000100
00000000
,
00010000
00000000
00011000
00000000
00010000
01000000
00000000
01000000
10000000
00000000
00100000
00000000
00100000
00000000
10000000
00010000
,
01000000
00000000
00000000
00000000
,
00000000
00000000
00000000
00000000
;
#NOTES:
     dance-double:
     :
     Hard:
     14:
     :
00000000
00000000
00000000
00000000
,
00000000
00000000
00000000
00000000
,
00000001
00000000
00000001
00000010
00000000
00000010
00001000
00000000
00010000
00100000
10000000
00100000
01000000
00100000
10000000
00100000
,
00010000
00000000
00010000
00001000
00000000
00001000
00100000
00000000
01000000
00010000
00001000
00010000
00000010
00010000
00001000
00010000
,
01000000
10000000
01000000
00010000
01000000
00000000
00100000
10000000
00100000
00010000
00100000
00000000
00010000
10000000
00010000
00001000
,
00010000
00000000
00001000
00010000
00001000
00000001
00001000
00000000
00000001
00000000
00000100
00000000
00000010
00000000
00001000
00000000
,
00000001
00000000
00000001
00000010
00000000
00000010
00001000
00000000
00010000
00100000
10000000
00100000
01000000
00100000
10000000
00100000
,
00010000
00000000
00010000
00001000
00000000
00001000
00100000
00000000
01000000
00010000
00001000
00010000
00000010
00010000
00001000
00010000
,
01000000
10000000
01000000
00010000
01000000
00000000
00100000
10000000
00100000
00010000
00100000
00000000
00010000
10000000
00010000
00001000
,
00010000
00000000
00001000
00010000
00001000
00000001
00001000
00000000
00000001
00000000
00000100
00000000
00000010
00001000
00000001
00000000
,
00001000
00000000
00000001
00000100
00000001
00000000
00000000
00001000
00000000
00000100
00010000
00000000
00001000
00000000
00000000
00100000
,
00100000
00000000
00000000
00000000
00010000
00000000
10000000
00000000
00100000
00000000
00000000
00000000
00000000
00000000
01000000
00000000
00000000
00000000
00100000
10000000
00100000
00000000
01000000
00000000
00100000
00000000
00000000
00000000
10000000
00000000
01000000
00100000
,
01000000
00000000
00010000
00001000
00010000
00000000
00000000
00000100
00000000
00000010
00000001
00000000
00001000
00000000
00000000
00000010
,
00000010
00000000
00000100
00001000
00000100
00000000
00000000
00000001
00000000
00001000
00000010
00000000
00010010
00000000
01001000
00000000
,
00010000
00000000
10000000
01000000
10000000
00000000
00000000
00010000
00000000
01000000
00001000
00000000
00010000
00000000
00000000
00000010
,
00000010
00000000
00000000
00000000
00001000
00000000
00000001
00000000
00000010
00000000
00000000
00000000
00000000
00000000
00000100
00000000
00000000
00000000
00000010
00000001
00000010
00000000
00000100
00000000
00000010
00000000
00000000
00000000
00000001
00000000
00000100
00000010
,
00000100
00000000
00001000
00010000
00001000
00000000
00000000
01000000
00000000
00100000
10000000
00000000
00010000
00000000
00010000
00000000
,
10000000
00000000
00000000
00000000
00000000
00000000
00000000
00000000
00000000
00000000
00000000
00000000
01000000
00000000
00000000
00000000
00000000
00000000
00100000
00000000
00000000
00000000
00000000
00000000
00000000
00000000
00000000
00000000
00000000
00000000
01000000
00000000
00000000
00000000
00000000
00000000
00100000
00000000
00000000
00000000
00000000
00000000
00000000
00000000
00000000
00000000
00000000
00000000
00001000
00000000
00000000
00000000
00000000
00000000
00010000
00000000
00000000
00001000
00000000
00000000
00010000
00000000
00000000
00000000
00000000
00000000
00001000
00000000
00000000
00000000
00000000
00000000
00000100
00000000
00000000
00000000
00000000
00000000
00000000
00000000
00000100
00000000
00000000
00000000
00000000
00000000
00000000
00000000
00000100
00000000
00000000
00000000
00000000
00000000
00000000
00000000
,
00001000
00000000
00001000
00000000
00000100
00000010
00001000
00000000
00000001
00000100
00001000
01000000
10000000
00000000
01000000
00000000
,
00010000
00000000
00010000
00000000
00100000
00010000
01000000
00000000
10000000
01000000
00010000
00000100
00000001
00000000
00000100
00000000
,
00000010
00000000
00000010
00000001
00000000
00000001
00000100
00000000
00000100
00001000
00000000
00001000
00010000
00000000
00010000
00000000
,
00100000
00000000
00100000
10000000
00000000
10000000
01000000
00000000
01000000
00100000
00000000
00100000
00010000
00000000
00010000
00000000
,
00001000
00000000
00001000
00000000
00010000
01000000
10000000
00000000
00010000
00100000
00001000
00000010
00000001
00000000
00000100
00000000
,
00001000
00000000
00001000
00000000
00010000
00100000
10000000
00000000
00010000
01000000
00001000
00000100
00000001
00000000
00001000
00000000
,
00001001
00000000
00000100
00000000
00000001
00000000
00000010
00000100
00000010
00000000
00001000
00000000
00010000
00000000
00001000
00010000
,
00000000
00000000
10000000
00000000
10000000
00100000
00000000
00100000
00010000
00000000
00001000
00000010
00000001
00000010
00000100
00000010
,
00000001
00000010
00001000
00000000
00001000
00010000
00000000
00010000
00000010
00000000
00000100
00001000
00010000
00001000
00100000
00001000
,
00010000
00001000
00000100
00000001
00000100
00001000
00000100
00000000
00000010
00000001
00000010
00001000
00000010
00000000
00001000
00000001
,
00001000
00010000
00001000
00000000
00010000
00001000
00010000
10000000
00010000
00000000
10000000
00000000
01000000
00000000
00100000
00000000
,
00010000
00000000
10000000
00000000
10000000
00100000
00000000
00100000
00010000
00000000
00001000
00000010
00000001
00000010
00000100
00000010
,
00000001
00000010
00001000
00000000
00001000
00010000
00000000
00010000
00000010
00000000
00000100
00001000
00010000
00001000
00100000
00001000
,
00010000
00001000
00000100
00000001
00000100
00001000
00000100
00000000
00000010
00000001
00000010
00001000
00000010
00000000
00001000
00000001
,
00001000
00010000
00011000
00000000
00100000
01000000
00000000
00010000
10000000
00000000
01000000
00100000
01000000
00010000
00001000
00010000
,
00000100
00000000
00000000
00000000
,
00000000
00000000
00000000
00000000
;
#NOTES:
     dance-double:
     :
     Challenge:
     16:
     :
00000000
00000000
00000000
00000000
,
00000000
00000000
00000000
00000000
,
00000001
00000000
00000010
00000000
00000100
00000000
00001000
00000000
00000000
00000000
00010000
00000000
00100000
00000000
00000000
00000000
00000000
00000000
01000000
00100000
01000000
00000000
00010000
00000000
01000000
00000000
10000000
00000000
00100000
00000000
00000000
00000000
,
10000000
00000000
01000000
00000000
00100000
00000000
00010000
00000000
00000000
00000000
00001000
00000000
00000100
00000000
00000000
00000000
00000000
00000000
00000010
00000100
00000010
00000000
00001000
00000000
00000010
00000000
00000001
00000000
00001000
00000000
00000000
00000000
,
00000001
00000100
00001000
00000100
00000001
00000000
00001000
00000000
00001001
00000000
00000000
00000000
00000010
00001000
00010000
00001000
00000010
00000000
00010000
00000000
00010010
00000000
00000000
00000000
00001000
00010000
01000000
00010000
00001000
00000000
01000000
00000000
,
01001000
00000000
00000000
00000000
00010000
01000000
10000000
01000000
00010000
00000000
10000000
00000000
10010000
00000000
00000000
00000000
11000000
00000000
01000000
00000000
01100000
00000000
00100000
00000000
00101000
00000000
00001000
00000000
00011000
00000000
00000000
00000000
,
00010000
00000000
00100000
00000000
10000000
00000000
01000000
00000000
00000000
00000000
00010000
00000000
00001000
00000000
00000000
00000000
00000000
00000000
00000010
00000100
00000010
00000000
00000001
00000000
00000100
00000000
00001000
00000000
00010000
00000000
00000000
00000000
,
00001000
00000000
00000010
00000000
00000001
00000000
00000100
00000000
00000000
00000000
00001000
00000000
00010000
00000000
00000000
00000000
00000000
00000000
00100000
01000000
00100000
00000000
10000000
00000000
01000000
00000000
00010000
00000000
01000000
00000000
00000000
00000000
,
10000000
01000000
00010000
01000000
10000000
00000000
00010000
00000000
10010000
00000000
00000000
00000000
00100000
00010000
00001000
00010000
00100000
00000000
00001000
00000000
00101000
00000000
00000000
00000000
00010000
00001000
00000100
00001000
00010000
00000000
00000100
00000000
,
00010100
00000000
00000000
00000000
00001000
00000100
00000001
00000100
00001000
00000000
00000001
00000000
00001001
00000000
00000000
00000000
00000101
00000000
00000100
00000000
00000110
00000000
00000010
00000000
00010010
00000000
00010000
00000000
00011000
00000000
00000000
00000000
,
00001000
00000000
00100000
00000000
00010000
00000000
01000000
00000000
01100000
00000000
00000000
00000000
10000000
00000000
01000000
00000000
00000000
00000000
00010000
00001000
00010000
00000000
00001000
00000000
00000010
00000000
00000001
00000000
00000010
00000000
00001000
00000000
,
00010000
00000000
00000010
00000000
00001000
00000000
00000100
00000000
00000110
00000000
00000000
00000000
00000001
00000000
00000100
00000000
00000000
00000000
00001000
00010000
00001000
00000000
00010000
00000000
00100000
00000000
10000000
00000000
00100000
00000000
00000000
00000000
,
10000000
00000000
01000000
00000000
00010000
00000000
01000000
00000000
01100000
00000000
00000000
00000000
00001000
00000000
00011000
00000000
00000000
00000000
00010000
00000100
00010000
00000000
00001000
00000000
00000010
00000000
00000001
00000000
00000010
00000000
00000000
00000000
,
00000001
00000000
00000100
00000000
00001000
00000000
00000100
00000000
00000110
00000000
00000000
00000000
00010000
00000000
00011000
00000000
00000000
00000000
00001000
01000000
00001000
00000000
00000000
00000000
01010000
00000000
00000000
00000000
10100000
00000000
00000000
00000000
,
10000000
00000000
10000000
00000000
00100000
00000000
00100000
00000000
01100000
00000000
00000000
00000000
00001000
00000000
00011000
00000000
00000000
00000000
00010000
00000100
00010000
00000000
00000010
00000000
00001000
00000000
00000100
00000000
00000010
00000000
00000000
00000000
,
00000001
00000000
00000001
00000000
00000010
00000000
00000010
00000000
00000110
00000000
00000000
00000000
00010000
00000000
00011000
00000000
00000000
00000000
00001000
01000000
00001000
00000000
00100000
00000000
00010000
00000000
01000000
00000000
00100000
00000000
00000000
00000000
,
00010000
00000000
10000000
00000000
01000000
00000000
00010000
00000000
01010000
00000000
00000000
00000000
00100000
00000000
00101000
00000000
00000000
00000000
00010000
00000010
00010000
00000000
00001000
00000000
00000100
00000000
00000001
00000000
00000100
00000000
00000000
00000000
,
00001001
00000000
00000000
00000000
00000000
00000000
00000000
00000000
00000000
00000000
00000000
00000000
00000010
00000000
00000000
00000000
00000000
00000000
00000110
00000000
00000000
00000000
00000000
00000000
00000000
00000000
00000000
00000000
00000000
00000000
00010000
00000000
00000000
00000000
00000000
00000000
00011000
00000000
00000000
00000000
00000000
00000000
00000000
00000000
00000000
00000000
00000000
00000000
00001000
00000000
00000000
00000000
00000000
00000000
00010000
00000000
00000000
00100000
00000000
00000000
00010000
00000000
00000000
00000000
00000000
00000000
00001000
00000000
00000000
00000000
00000000
00000000
00010000
00000000
00000000
00000000
00000000
00000000
00000000
00000000
00010000
00000000
00000000
00000000
00000000
00000000
00000000
00000000
00010000
00000000
00000000
00000000
00000000
00000000
00000000
00000000
,
00020000
00000000
00100000
00100000
00000000
01000000
01030000
00000000
00100000
00000000
00010000
00000000
00001000
00000000
00000100
00000000
,
00002000
00000000
00000010
00000010
00000000
00000100
00003100
00000000
00000010
00000000
00001000
00000000
00010000
00000000
01000000
00000000
,
00020000
00000000
10000000
10000000
00000000
01000000
01030000
00000000
01000000
00000000
00010000
00000000
00001000
00000000
00000010
00000000
,
00000110
00000000
00000001
00001000
00000000
00001000
00010000
00000000
00010000
10000000
00010000
00000000
01100000
00000000
10010000
00000000
,
00020000
00000000
00100000
00100000
00000000
01000000
01030000
00000000
01000000
00000000
00010000
00000000
00001000
00000000
00000100
00000000
,
00002000
00000000
00000010
00000010
00000000
00000100
00003100
00000000
00000100
00000000
00001000
00000000
00010000
00000000
01000000
00000000
,
01100000
00000000
10000000
01000000
01100000
00000000
00010000
00001000
00011000
00000000
00000100
00010000
00011000
00000000
00100000
00200000
,
00000000
00000000
00000000
00000000
10300000
00000000
01000000
00000000
00100000
00000000
00010000
00000000
00000000
00000000
00001000
00000000
00000100
00000000
00000000
00000000
00000000
00000000
00000010
00000100
00000010
00000000
00001000
00000000
00000010
00000000
00000001
00000000
,
00000100
00000000
00000000
00000000
00000001
00000000
00000010
00000000
00000100
00000000
00001000
00000000
00000000
00000000
00010000
00000000
00100000
00000000
00000000
00000000
00000000
00000000
01000000
00100000
01000000
00000000
00010000
00000000
01000000
00000000
10000000
00000000
,
00010000
00000000
00000000
00000000
10000000
00100000
00010000
00100000
10000000
00000000
00010000
00000000
10010000
00000000
00000000
00000000
01000000
00010000
00001000
00010000
01000000
00000000
00001000
00000000
01001000
00000000
00000000
00000000
00010000
00001000
00000010
00001000
,
00010000
00000000
00000010
00000000
00010010
00000000
00000000
00000000
00001000
00000010
00000001
00000010
00001000
00000000
00000001
00000000
00001001
00000000
00000000
00000000
00000011
00000000
00000010
00000000
00000110
00000000
00000100
00000000
00010100
00000000
00010000
00000000
,
00011000
00000000
00000000
00000000
00001000
00000000
00000100
00000000
00000001
00000000
00000010
00000000
00000000
00000000
00001000
00000000
00010000
00000000
00000000
00000000
00000000
00000000
01000000
00100000
01000000
00000000
10000000
00000000
00100000
00000000
00010000
00000000
,
00001000
00000000
00000000
00000000
00010000
00000000
01000000
00000000
10000000
00000000
00100000
00000000
00000000
00000000
00010000
00000000
00001000
00000000
00000000
00000000
00000000
00000000
00000100
00000010
00000100
00000000
00000001
00000000
00000010
00000000
00001000
00000000
,
00000010
00000000
00000000
00000000
00000001
00000010
00001000
00000010
00000001
00000000
00001000
00000000
00001001
00000000
00000000
00000000
00000100
00001000
00010000
00001000
00000100
00000000
00010000
00000000
00010100
00000000
00000000
00000000
00001000
00010000
00100000
00010000
,
00001000
00000000
00100000
00000000
00101000
00000000
00000000
00000000
00010000
00100000
10000000
00100000
00010000
00000000
10000000
00000000
10010000
00000000
00000000
00000000
10100000
00000000
00100000
00000000
01100000
00000000
01000000
00000000
01001000
00000000
00001000
00000000
,
00011000
00000000
00000000
00000000
,
00000000
00000000
00000000
00000000
;
