
//----- song ID: pluf -----//
#TITLE:Pluto The First;
#ARTIST:WHITE WALL;
#BANNER:Pluto The First.png;
#BACKGROUND:Pluto The First-bg.png;
#CDTITLE:./CDTitles/DDR HOTTEST PARTY.png;
#MUSIC:Pluto The First.ogg;
#SAMPLESTART:22.94;
#SAMPLELENGTH:15;
#BPMS:0=114.9,4=115,55=50,63=200,105.5=440,220.5=110,236.5=230,268.5=440,362.5=220;
#STOPS:43=0.522,103.5=0.15,104=0.15,104.5=0.15,125.5=0.273,190.5=0.409,280.5=0.273,295.5=0.273,308.5=0.273,321.5=0.136,323.5=0.273,337.5=0.273;
#NOTES:
     dance-single:
     :
     Beginner:
     8:
     :
0000
0000
0000
0000
,
0000
0000
0000
0000
,
0000
0000
0000
0000
,
0000
0000
0000
0000
,
0000
0000
0000
0000
,
1000
0000
0000
0001
,
0000
0000
0110
0000
,
0000
1001
0000
0000
,
1000
0000
0000
0001
,
0000
0000
0010
0000
,
0000
0100
0000
0000
,
0000
1000
0000
0000
0001
0000
0000
0001
,
0000
0000
0010
0000
0000
0010
0000
0000
,
0100
0000
0000
0100
0000
0000
1000
0000
,
0001
1000
0100
0001
,
1000
0001
0010
0001
,
0000
0000
0000
0100
,
0000
0100
0000
0010
,
0000
0010
0000
1000
,
1000
1000
0000
1000
,
0000
0000
0000
0010
,
0000
0010
0000
0100
,
0000
0100
0000
0001
,
0001
0001
0000
0010
,
0010
0010
0000
0100
,
0100
0100
0000
0000
,
0000
0000
0000
1000
0000
0000
0000
0000
,
0000
0000
0000
0000
,
0000
0000
0000
1000
0000
0000
0000
0000
,
0000
0000
0000
0001
0000
0000
0000
0000
,
0000
0000
0000
0001
0000
0000
0000
0000
,
0000
0000
0000
1000
0000
0000
0000
0000
,
0000
0000
0000
0000
0000
0000
0000
1000
,
0000
0000
0000
0000
0000
0000
0000
0001
,
0000
0000
0000
0000
0000
0000
0000
1000
,
0000
0000
0000
1000
0000
0000
0000
1000
,
0000
0000
0000
0000
,
0000
0000
0000
0000
0000
0000
0000
0010
,
0000
0000
0000
0000
0000
0000
0000
0100
,
0000
0000
0000
0000
0000
0000
0000
0100
,
0000
0000
0000
0000
0000
0000
0000
1000
,
0000
0000
0000
0000
0000
0000
0000
1000
,
0000
0000
0000
0000
0000
0000
0000
0001
,
0000
0000
0000
0000
0000
0000
0000
0001
,
0000
0000
0000
0000
0000
0000
0000
1000
,
0000
0000
0000
0000
0000
0000
0000
0001
,
0000
0000
0000
0001
0000
0000
0000
0001
,
0000
0000
0000
0000
,
0000
0001
0000
0000
0000
0000
0000
0000
,
0000
0100
0000
0000
0000
0000
0000
0000
,
0000
0010
0000
0000
0000
0000
0000
0000
,
0000
0001
0000
0000
0000
0000
0000
0000
,
0000
1000
0000
0000
0000
0000
0000
0000
,
0000
0000
0000
0000
,
0000
0000
0000
0000
,
0000
0100
0000
0000
0000
0000
0000
1000
,
0000
0001
0000
0000
0000
0000
0000
0100
,
0000
0010
0000
0000
0000
0000
0000
0001
,
0000
1000
0000
0000
0000
0000
0000
0000
,
0000
0110
0000
0000
0000
0000
0000
0000
,
0000
0000
0000
0000
0000
0001
0000
0000
,
0000
1000
0000
0000
0000
0000
0000
0000
,
0000
0000
0000
0000
0000
0100
0000
0000
,
0000
0000
0000
0010
0000
0000
0000
0000
,
0000
0000
0000
0000
0000
1000
0000
0000
,
0000
0001
0000
0000
0000
0000
0000
0000
,
0000
0000
0000
0000
0000
1001
0000
0000
,
0000
1000
0000
0000
0000
0000
0000
0000
,
0000
1000
0000
0000
0000
0000
0000
0000
,
0000
0001
0000
0000
0000
0001
0000
0000
,
0000
0001
0000
0000
0000
0000
0000
0000
,
0000
0000
0000
0000
0000
0000
0000
1001
,
0000
0000
0000
0000
0000
0001
0000
0000
,
0000
0000
0000
1000
0000
0000
0000
0000
,
0000
0000
0000
0001
0000
0000
0000
1000
,
0000
0000
0000
1000
0000
0000
0000
0000
,
0000
0100
0000
0000
0000
0100
0000
0000
,
0000
0100
0000
0000
0000
0000
0000
0010
,
0000
0000
0000
0010
0000
0000
0000
0000
,
0000
0000
0000
1000
0000
0000
0000
1000
,
0000
0000
0000
0000
0000
0100
0000
0000
,
0000
0000
0000
0001
0000
0000
0000
0000
,
0000
0010
0000
0000
0000
0000
0000
1000
,
0000
0000
0000
0001
0000
0000
0000
1000
,
0000
0000
0000
0000
0000
1001
0000
0000
,
0000
0000
0000
0000
0000
0110
0000
0000
,
0000
0000
0000
0000
0000
1001
0000
0000
,
0000
0000
0000
0000
0000
0110
0000
0000
,
0000
0000
0000
0000
0000
1001
0000
0000
,
0000
0000
0000
0000
0000
1001
0000
0000
,
0000
0000
0000
0000
0000
0220
0000
0000
,
0000
0000
0000
0000
0000
0330
0000
0000
,
0000
0000
0000
0000
;
#NOTES:
     dance-single:
     :
     Easy:
     10:
     :
0000
0000
0000
0000
,
0000
0000
0000
0000
,
0000
0000
0000
0000
,
0000
0000
0000
0000
,
0000
0000
0000
0000
,
1000
0000
0000
1100
0000
0000
0100
0000
,
0000
0110
0000
0000
0001
0000
0000
0011
,
0000
0000
0110
0000
0000
1100
0000
0000
,
1001
0000
0000
1000
0100
0010
0001
0000
,
0000
0001
0010
0100
1000
0000
0000
1000
,
0001
1000
0001
0000
0010
0100
0000
0000
,
0000
1000
0100
0001
0001
0000
0000
0001
,
0100
1000
1100
0000
0000
1000
0010
0001
,
0001
0000
0001
0010
1000
1000
0101
0000
,
0010
0001
0001
0000
1000
0100
0010
0000
,
0100
1000
1000
0001
0100
0010
1000
0000
,
0000
0110
0000
0001
,
0000
1010
0000
1000
,
0010
1000
0100
1000
,
0010
1000
0100
0001
,
0010
0110
0000
1000
,
0010
1010
0000
0100
,
0001
0010
0001
0100
,
0001
0010
0001
0010
,
0100
1000
1000
1000
,
0100
0000
0010
0000
0001
0000
0000
1001
,
0000
0000
0000
1000
0000
0000
0000
0000
,
0000
0010
0000
0000
0000
0000
0000
1000
,
0000
0000
0000
0000
0000
0100
0000
0000
,
0000
0000
0000
0010
0000
0000
0000
0100
,
0000
0000
0000
0001
0000
0000
0000
0000
,
0000
0010
0000
0000
0000
0001
0000
0000
,
0000
0010
0000
0000
0000
0000
0000
1000
,
0000
0000
0000
0100
0000
0000
0000
0010
,
0000
0000
0000
0000
0000
0100
0000
0000
,
0000
0000
0000
0010
0000
0000
0000
0000
,
0000
1000
0000
0000
0000
0000
0000
0001
,
0000
0000
0000
0100
0000
0000
0000
0010
,
0000
0000
0000
0000
0000
0100
0000
0000
,
0000
0000
0000
0001
0000
0000
0000
0000
,
0000
1000
0000
0000
0000
0000
0000
0110
,
0000
0000
0000
0001
0000
0000
0000
1000
,
0000
0000
0000
0000
0000
0001
0000
0000
,
0000
0000
0000
0100
0000
0000
0000
0000
,
0000
0010
0000
0000
0000
0000
0000
1001
,
0000
0000
0000
0000
0000
0010
0000
0000
,
0000
0000
0000
1000
0000
0000
0000
0000
,
0000
0010
0000
0000
0000
1100
0000
0000
,
0000
0000
0000
0000
0000
0000
0000
1000
,
0000
0000
0000
0000
0000
0010
0000
0000
,
0000
0100
0000
0000
0000
0000
0000
0010
,
0000
0000
0000
0000
0000
0100
0000
0000
,
0000
1001
0000
0000
0000
0000
0000
0020
,
0000
0000
0000
0000
,
0000
0000
0000
0000
,
0000
0230
0000
0000
0000
0301
0000
0010
,
0000
0020
0000
0000
0000
0130
0000
1000
,
0000
2000
0000
0000
0000
3100
0000
0010
,
0000
0002
0000
0000
0000
0000
0000
0003
,
0000
1000
0000
0100
0000
1000
0000
0000
,
0000
1000
0000
0010
0000
1000
0000
0000
,
0000
1000
0000
0001
0000
1000
0000
0000
,
0000
1000
0000
0100
0000
0010
0000
0001
,
0000
0000
0000
1100
0000
0000
0000
0000
,
0000
0001
0000
1000
0000
0001
0000
0000
,
0000
0001
0000
0100
0000
0001
0000
0000
,
0000
0001
0000
0010
0000
0100
0000
1000
,
0000
0002
0000
0000
0000
0000
0000
0000
,
0000
0103
0000
0000
0000
0000
0000
0120
,
0000
0000
0000
0100
0000
0000
0000
0130
,
0000
0000
0000
2000
0000
0000
0000
0000
,
0000
0000
0000
3000
0000
0000
0000
0101
,
0000
0000
0000
0000
0000
2000
0000
0000
,
0000
0100
0000
0000
0000
3100
0000
0002
,
0000
0000
0000
0100
0000
0000
0000
0100
,
0000
0000
0000
0100
0000
0003
0000
0000
,
0000
1020
0000
0000
0000
0000
0000
0000
,
0000
0030
0000
0200
0000
0000
0000
0001
,
0000
0000
0000
0001
0000
0300
0000
0000
,
0000
0020
0000
0000
0000
0000
0000
0000
,
0000
0030
0000
2000
,
0000
0000
0000
0000
0000
3000
0000
0000
,
0000
1100
0000
0000
0000
0000
0000
1001
,
0000
0000
0000
0000
0000
0000
0000
0001
,
0000
0000
0000
2000
0000
0000
0000
0000
,
0000
3000
0000
0000
0210
0000
0000
0000
,
0000
0300
0000
0000
0021
0000
0000
0000
,
0000
0030
0000
0000
2020
0000
0000
0000
,
0000
3030
0000
0000
0000
0202
0000
0000
,
0000
0000
0303
0000
0000
2002
0000
0000
,
0000
0000
0000
3003
0000
0000
0000
0000
0000
0000
0000
0000
0000
0000
0000
0000
0000
0000
0000
0000
0010
0000
0000
0000
0000
0000
0000
0000
1000
0000
0000
0000
,
0000
0001
0000
0100
0000
0010
0000
1000
,
0000
0010
0000
1000
0000
0100
0000
0010
,
0000
0001
0000
0000
0000
0000
0000
0000
,
0000
0000
0000
0000
;
#NOTES:
     dance-single:
     :
     Medium:
     14:
     :
0000
0000
0000
0000
,
0000
0000
0000
0000
,
0000
0000
0000
0000
,
0000
0000
0000
0000
,
0000
0000
0000
0000
,
2010
0000
0010
0100
0100
3100
0021
0000
,
0001
0100
0100
0130
1002
0000
1000
0100
,
0100
0103
0011
0000
1000
1100
0000
0001
,
1100
0100
0010
0100
1000
0100
0010
0001
,
0010
0100
0010
0001
0110
1000
0100
0001
,
0100
1000
0010
0001
0010
1000
0000
0100
,
1000
0010
1000
0100
0010
0001
0100
0001
,
0010
0001
1010
0001
0010
1000
0010
0001
,
0110
0000
0000
0000
0100
0000
0000
0000
1000
0000
0000
0000
1100
0000
0000
0000
0010
0000
0000
0000
0001
0000
0000
0000
1000
0000
0000
0100
0000
0000
0010
0000
,
0000
0100
0000
0000
0001
0000
0100
0000
1000
0000
0000
0010
0000
0000
0100
0000
0000
0010
0000
0000
0001
0000
0010
0000
0101
0000
0000
0100
0000
0000
0010
0000
,
0000
0100
0000
0000
1000
0000
0100
0000
0011
0000
0000
0010
0000
0000
0100
0000
0000
0010
0000
0000
1000
0000
0010
0000
1000
0000
0000
0000
0000
0000
0000
0000
,
0100
0001
0100
1000
,
1001
0000
0010
0100
1000
0000
1000
0100
,
0001
0000
1000
0100
0001
0000
0100
1000
,
0010
0100
0001
0010
0100
0000
0001
0000
,
0110
1000
0110
0001
,
1001
0000
0100
0010
0001
0000
0001
0010
,
1000
0000
0001
0010
1000
0000
0010
0001
,
0100
0010
1000
0100
0010
0000
0001
0010
,
0100
1000
0001
0100
1000
0000
1000
0000
,
1010
0000
0100
0000
0011
0000
0000
0100
,
0010
0100
0001
0010
0000
0100
0000
1000
,
0000
0100
0000
0010
0000
0000
0000
0010
,
0000
0100
0000
1000
0000
0100
0000
0010
,
0000
0100
0000
1000
0000
0001
0000
0010
,
0000
0100
0000
1000
0000
0100
0000
0010
,
0000
0001
0000
0010
0000
0100
0000
0010
,
0000
0001
0000
0010
0000
0100
0000
1000
,
0000
0010
0000
1000
0000
0100
0000
1000
,
0000
0010
0000
1000
0000
0010
0000
0001
,
0000
0010
0000
1000
0000
0100
0000
0001
,
0000
0100
0000
1000
0000
0100
0000
0000
,
0000
0000
0000
1000
0000
0100
0000
1000
,
0000
0100
0000
0010
0000
0100
0000
0010
,
0000
0100
0000
0010
0000
0001
0000
0010
,
0000
0001
0000
0010
0000
1000
0000
0010
,
0000
1000
0000
0010
0000
0100
0000
0010
,
0000
0100
0000
0010
0000
0001
0000
1000
,
0000
0001
0000
1000
0000
0010
0000
1000
,
0000
0010
0000
1000
0000
0010
0000
0001
,
0000
0010
0000
0001
0000
0010
0000
1000
,
0000
0001
0000
1000
0000
0001
0000
1000
,
0000
0100
0000
0010
0000
0001
0000
0000
,
0000
1000
0000
0010
0000
1000
0000
0000
,
0000
0010
0000
0100
0000
1000
0000
0000
,
0000
0100
0000
0010
0000
0001
0000
0000
,
0000
0001
0000
0000
0000
1000
0000
0000
,
0000
0100
0000
0001
0000
0010
0000
0002
,
0000
0000
0000
0000
,
0000
0000
0000
0000
,
0000
2003
0000
0100
0000
0001
0001
3002
,
0000
0023
0100
0000
0100
0001
1000
0032
,
0000
2003
0000
0001
0000
0010
0010
3020
,
0000
0230
0001
1000
0001
0010
0010
0310
,
0000
1000
0100
1000
0100
1000
0000
1000
,
0000
1000
0010
1000
0010
0000
0100
0000
,
0001
0010
0001
0010
0001
0010
0000
0100
,
0000
0001
0000
0100
0000
1000
0000
0010
,
0000
0000
0000
0110
0000
0000
0000
0010
,
0100
0010
0100
0010
0100
0000
0010
0000
,
0000
0010
0000
0001
0000
0010
0000
1000
,
0000
0010
0001
0010
0001
1000
0100
1000
,
0100
0010
0000
0000
0000
0100
0000
0000
,
0000
0100
0000
0000
0000
0001
0000
0000
,
0000
0100
0000
0001
0000
0010
0000
1000
,
0000
0010
0000
0000
0000
0001
0000
1000
,
0000
0100
0000
0010
0000
0000
0000
1000
,
0000
0000
0000
0000
0000
0001
0000
0010
,
0000
0100
0000
0010
0000
0100
0000
1000
,
0000
0001
0000
0100
0000
0001
0000
0010
,
0000
0001
0000
1000
0000
0000
0000
0000
,
0000
0100
0000
1000
0000
0100
0000
0010
,
0000
0100
0000
0001
0000
1000
0000
0010
,
0000
1000
0000
0100
0000
1000
0000
0001
,
0000
0000
0000
0100
0000
0010
0000
0100
,
0000
0100
0000
0000
0001
0000
0100
0000
,
0000
0010
0000
1000
0000
0000
0000
0010
,
0000
0100
0000
0000
0000
0000
0000
0001
,
0000
0100
0000
0010
0000
1000
0000
0100
,
0000
0010
0000
0100
0000
1000
0100
0000
,
0000
0000
0000
0000
0000
0100
0010
0000
,
0000
0000
0000
0000
0000
0010
0001
0000
,
0000
0000
0000
0000
0000
0000
0001
0010
,
0000
0000
0110
0000
0000
0000
0001
0100
,
0000
0000
1010
0000
0000
0000
0001
1000
,
0000
0000
1001
0000
0000
0100
0000
1000
,
0000
0010
0000
0100
0000
0001
0010
0100
,
0010
0001
0010
0100
1000
0010
1000
0100
,
0000
0000
0000
0000
;
#NOTES:
     dance-single:
     :
     Hard:
     17:
     :
0000
0000
0000
0000
,
0000
0000
0000
0000
,
0000
0000
0000
0000
,
0000
0000
0000
0000
,
0000
0000
0000
0000
,
1100
0100
0010
0001
1000
0010
0011
1000
,
0010
0001
1000
0010
0011
0010
0100
1000
,
0001
0100
1010
0100
0001
0011
0110
1100
,
1000
0100
0001
0000
0100
0000
1000
0000
0011
0000
0010
0000
0100
1000
0001
0000
,
1000
0000
0100
1000
0001
0000
1100
0000
0001
0010
1000
0000
0010
0000
0001
0000
,
1100
0000
0100
0000
0010
0001
1000
0000
0010
0000
0100
0000
0000
0100
0001
0000
,
0100
0000
0001
0100
1000
0000
1000
0000
1000
0010
0001
0000
0010
0000
0001
0010
,
1000
0000
1000
0000
0001
0010
0100
0000
0010
0000
1000
0100
0010
0000
0100
0000
,
0011
0000
0000
0000
0110
0000
0000
0000
0011
0000
0000
0000
1100
0000
0000
0000
0110
0000
0000
0000
1100
0000
0000
0000
1010
0000
0000
0100
0000
0000
0001
0000
,
0000
1000
0000
0000
0010
0000
0100
0000
1100
0000
0100
0000
0010
0000
1000
0000
1001
0000
0010
0000
0100
0000
1000
0000
0011
0000
0000
1100
0000
0000
0101
0000
,
0000
0011
0000
0000
1100
0000
0110
0000
0011
0000
0001
0000
0110
0000
0001
0000
1000
0100
0010
0001
0010
0100
0010
0001
1000
0000
0000
0000
0000
0000
0000
0000
,
0001
0000
0001
0100
1000
0000
1000
0100
,
1000
0010
0001
0010
1000
0000
1000
0100
,
0011
0000
1000
0010
0101
0000
1000
0100
,
0010
0001
0100
0010
0001
0010
1100
0000
,
0011
0000
1010
0000
0101
0000
0001
0010
,
0001
0100
1000
0100
0001
0000
0001
0100
,
1010
0000
0001
0010
1100
0000
0001
0010
,
0100
1000
0010
0100
1000
0010
1000
0100
,
1000
0010
0100
0001
0010
0001
0010
1000
,
0010
0000
0001
0000
1000
0100
1000
0000
0001
0010
0001
0000
1000
0000
0100
0000
,
0010
0000
1000
0001
0100
0000
1000
0000
0000
0000
0100
0000
0000
0000
0001
0000
,
0000
0100
0000
1010
0000
1000
0000
0001
,
0000
0110
0000
1000
0000
0110
0000
0001
,
0000
1000
0000
0001
0010
0001
0010
0100
,
1000
0000
0000
0001
0000
0100
0000
1000
,
0000
0100
0000
0001
0000
0110
0000
1000
,
0000
0110
0000
0001
0000
1000
0000
0001
,
0100
0001
0100
0010
1000
0000
0000
1000
,
0000
0010
0000
0001
0000
0010
0000
1100
,
0000
0001
0000
1000
0000
0110
0000
0001
,
0000
0110
0000
1000
0000
0000
0000
1000
,
0010
0000
0000
0100
0001
0000
0000
0001
,
0000
0100
0000
1010
0000
0100
0000
0001
,
0000
1000
0000
0001
0000
0010
0000
0001
,
0000
0010
0000
1000
0000
0001
0000
1000
,
0010
1000
0010
0100
0001
0000
0000
1000
,
0000
0100
0000
1000
0000
0010
0000
0001
,
0000
0010
0000
1000
0100
1000
0000
0001
,
0000
0010
0000
0001
0000
1000
0000
0001
,
0010
0001
0000
0100
0000
1000
0000
0001
,
0000
0100
0000
0001
0000
0010
0000
1000
,
0000
0010
0000
0001
0100
0001
0000
0010
,
0001
0000
0001
0010
0100
1000
0000
0000
,
0000
1000
0100
0010
0100
1000
0000
0000
,
0000
0001
0010
0100
0010
0001
0000
0000
,
0000
0010
0100
0000
0000
0001
1000
0000
,
0000
1000
0010
0100
0010
0100
0001
2000
,
0002
0000
0000
0000
,
0000
0000
0000
0000
0000
0000
0000
3003
,
0000
0000
1001
0000
0000
0000
0100
0000
0001
1000
0010
0100
0010
0000
0001
0000
,
0010
0000
1000
0100
1000
0010
0100
0001
0010
0100
1000
0100
0010
0100
0000
0000
,
0000
0000
0010
1000
0001
0100
0001
0000
0001
0010
0100
0010
0001
1000
0000
1000
,
0010
1000
0001
0010
0100
1000
0100
0010
0001
1000
0010
0100
0010
0100
0010
0000
,
0000
1000
0100
1000
0100
1000
0000
1000
,
0100
0010
0001
0010
0001
0000
0110
0100
,
1000
0100
0001
0100
1000
0001
0000
0001
,
1000
0010
1000
0010
0001
0010
0000
0100
,
0010
0000
0000
0011
1100
0000
0000
0100
,
0001
0100
0001
0000
0001
0000
0110
0100
,
0001
0100
1000
0100
0001
1000
0000
1000
,
0010
0100
0001
0100
1001
0000
1001
0000
,
0001
0100
0000
1000
0000
0010
0000
0100
,
0000
0001
0000
0010
0000
1000
0000
0010
,
0000
0001
0000
1000
0000
0100
0000
0001
,
0000
0110
0000
0000
0000
1000
0000
0001
,
0000
0010
0100
0010
0000
0000
0000
0011
,
0000
0000
0000
0000
0000
1000
0000
0100
,
0000
0010
0000
0100
0000
0010
0000
0001
,
0000
1000
0000
0010
0000
1000
0000
0100
,
0000
1000
0000
0100
0000
0101
0000
0000
,
0000
1000
0000
0001
0000
0010
0000
0100
,
1000
0100
0000
1010
0000
1010
0000
0001
,
0000
0001
0000
0010
0000
0010
0000
0100
,
0000
0100
0000
0110
0000
0110
0000
1001
,
0000
1001
0000
0000
0011
0000
1100
0000
,
1000
0100
0001
0100
0000
0000
0000
0010
,
0000
1001
0000
0000
0000
0000
0000
0010
,
0001
0010
0100
1000
0100
0010
0001
0010
,
0100
1000
0100
0000
0000
0001
0100
0000
,
0000
0000
0000
0000
0100
1000
0100
1000
,
0000
0000
0000
0000
1000
0001
1000
0001
,
0000
0000
0000
0000
0000
0000
1000
0010
,
1000
0010
1000
0010
1000
0010
1000
0001
,
1000
0001
1000
0001
1000
0001
0100
0010
,
0100
0010
0000
0000
0000
0100
0010
0001
,
0000
0000
0010
0000
0100
0000
1000
0000
0000
0000
0010
0001
0010
0000
1000
0000
,
0000
0000
0100
1000
0100
0000
0001
0000
0000
0000
0100
0000
0010
0000
0100
0000
,
0000
0000
0000
0000
;
#NOTES:
     dance-single:
     :
     Challenge:
     18:
     :
0000
0000
0000
0000
,
0000
0000
0000
0000
,
0000
0000
0000
0000
,
0000
0000
0000
0000
,
0000
0000
0000
0000
,
MMMM
0100
0010
0001
1000
0010
MMMM
1000
,
0010
0001
1000
0010
MMMM
0010
0100
1000
,
0001
0100
MMMM
0100
0001
0011
0110
1100
,
1000
0100
0001
0000
0100
0000
1000
0000
MMMM
0000
0010
0000
0100
1000
0001
0000
,
1000
0000
0100
1000
0001
0000
MMMM
0000
0001
0010
1000
0000
0010
0000
0001
0000
,
MMMM
0000
0100
0000
0010
0001
1000
0000
0010
0000
0100
0000
0000
0100
0001
0000
,
0100
0000
0001
0100
1000
0000
MMMM
0000
1000
0010
0001
0000
0010
0000
0001
0010
,
1000
0000
1000
0000
0001
0010
0100
0000
0010
0000
1000
0100
0010
0000
0100
0000
,
MMMM
0000
0000
0000
0110
0000
0000
0000
0011
0000
0000
0000
MMMM
0000
0000
0000
0110
0000
0000
0000
1100
0000
0000
0000
1010
0000
0000
0100
0000
0000
0001
0000
,
0000
1000
0000
0000
0010
0000
0100
0000
1100
0000
0100
0000
0010
0000
1000
0000
1001
0000
0010
0000
0100
0000
1000
0000
0011
0000
0000
1100
0000
0000
0101
0000
,
0000
0011
0000
0000
1100
0000
0110
0000
0011
0000
0001
0000
0110
0000
0001
0000
1000
0100
0010
0001
0010
0100
0010
0001
1000
0000
0000
0000
0000
0000
0000
0000
,
0001
0000
MMMM
0100
1000
0000
MMMM
0100
,
1000
0010
0001
0010
1000
0000
1000
0100
,
MMMM
0000
1000
0010
MMMM
0000
1000
0100
,
0010
0001
0100
0010
0001
0010
1100
0000
,
0011
0000
1010
0000
0101
0000
0001
0010
,
0001
0100
1000
0100
MMMM
0000
0001
0100
,
MMMM
0000
0001
0010
MMMM
0000
0001
0010
,
0100
1000
0010
0100
1000
0010
1000
0100
,
1000
0010
0100
0001
0010
0001
0010
1000
,
0010
0000
0001
0000
1000
0100
1000
0000
0001
0010
0001
0000
1000
0000
0100
0000
,
0010
0000
1000
0001
0100
0000
1000
0000
0000
0000
0100
0000
0000
0000
0001
0000
,
0000
0100
0000
MMMM
0000
1000
0000
0001
,
0000
MMMM
0000
1000
0000
MMMM
0000
0001
,
0000
1000
0000
0001
0010
0001
0010
0100
,
1000
0000
0000
0001
0000
0100
0000
1000
,
0000
0100
0000
0001
0000
MMMM
0000
1000
,
0000
MMMM
0000
0001
0000
1000
0000
0001
,
0100
0001
0100
0010
1000
0000
0000
1000
,
0000
0010
0000
0001
0000
0010
0000
MMMM
,
0000
0001
0000
1000
0000
MMMM
0000
0001
,
0000
MMMM
0000
1000
0000
0000
0000
1000
,
0010
0000
0000
0100
0001
0000
0000
0001
,
0000
0100
0000
MMMM
0000
0100
0000
0001
,
0000
1000
0000
MMMM
0000
0010
0000
0001
,
0000
0010
0000
MMMM
0000
0001
0000
1000
,
0010
1000
0010
0100
0001
0000
0000
1000
,
0000
0100
0000
1000
0000
0010
0000
MMMM
,
0000
0010
0000
1000
0100
1000
0000
0001
,
0000
0010
0000
MMMM
0000
1000
0000
0001
,
0010
0001
0000
0100
0000
1000
0000
0001
,
0000
0100
0000
MMMM
0000
0010
0000
1000
,
0000
0010
0000
0001
0100
0001
0000
0010
,
0001
0000
0001
0010
0100
1000
0000
MMMM
,
0000
1000
0100
0010
0100
1000
0000
MMMM
,
0000
0001
0010
0100
0010
0001
0000
MMMM
,
0000
0010
0100
0000
0000
0001
1000
0000
,
0000
1000
0010
0100
0010
0100
0001
2000
,
0002
0000
0000
0000
,
0000
0000
0000
0000
0000
0000
0000
3003
,
0000
0000
MMMM
0000
0000
0000
0100
0000
0001
1000
0010
0100
0010
0000
0001
0000
,
MMMM
0000
1000
0100
1000
0010
0100
0001
0010
0100
1000
0100
0010
0100
0000
0000
,
MMMM
0000
0010
1000
0001
0100
0001
0000
0001
0010
0100
0010
0001
1000
0000
1000
,
0010
1000
0001
0010
0100
1000
0100
0010
0001
1000
0010
0100
0010
0100
0010
0000
,
0000
1000
0100
1000
0100
1000
0000
1000
,
0100
0010
0001
0010
0001
0000
MMMM
0100
,
1000
0100
0001
0100
1000
0001
0000
0001
,
1000
0010
1000
0010
0001
0010
0000
0100
,
0010
MMMM
0000
0011
1100
0000
0000
0100
,
0001
0100
0001
0000
0001
0000
MMMM
0100
,
0001
0100
1000
0100
0001
1000
0000
1000
,
0010
0100
0001
0100
1001
0000
1001
0000
,
0001
0100
0000
1000
0000
0010
0000
MMMM
,
0000
0001
0000
0010
0000
1000
0000
0010
,
0000
MMMM
0000
1000
0000
0100
0000
0001
,
0000
MMMM
0000
0000
0000
1000
0000
0001
,
0000
0010
0100
0010
0000
0000
0000
0011
,
0000
0000
0000
MMMM
0000
1000
0000
0100
,
0000
0010
0000
0100
0000
0010
0000
0001
,
0000
1000
0000
0010
0000
MMMM
0000
0100
,
0000
1000
0000
0100
0000
MMMM
0000
0000
,
0000
1000
0000
0001
0000
0010
0000
0100
,
1000
0100
0000
1010
0000
MMMM
0000
0001
,
0000
0001
0000
0010
0000
0010
0000
0100
,
0000
0100
0000
0110
0000
MMMM
0000
1001
,
0000
MMMM
0000
0000
0011
0000
1100
0000
,
1000
0100
0001
0100
0000
0000
0000
0010
,
0000
MMMM
0000
0000
0000
0000
0000
0010
,
0001
0010
0100
1000
0100
0010
0001
0010
,
0100
1000
0100
0000
0000
0001
0100
0000
,
0000
0000
MMMM
0000
0100
1000
0100
1000
,
0000
0000
MMMM
0000
1000
0001
1000
0001
,
0000
0000
0000
0000
MMMM
0000
1000
0010
,
1000
0010
1000
0010
1000
0010
1000
0001
,
1000
0001
1000
0001
1000
0001
0100
0010
,
0100
0010
0000
0000
0000
0100
0010
0001
,
MMMM
0000
0010
0000
0100
0000
1000
0000
MMMM
0000
0010
0001
0010
0000
1000
0000
,
MMMM
0000
0100
1000
0100
0000
0001
0000
MMMM
0000
0100
0000
0010
0000
0100
0000
,
0000
0000
0000
0000
;
#NOTES:
     dance-double:
     :
     Easy:
     10:
     :
00000000
00000000
00000000
00000000
,
00000000
00000000
00000000
00000000
,
00000000
00000000
00000000
00000000
,
00000000
00000000
00000000
00000000
,
00000000
00000000
00000000
00000000
,
10000000
00000000
00000000
01000000
00000000
00000000
00010000
00000000
,
00000000
00000010
00000000
00000000
00001000
00000000
00000000
00000100
,
00000000
00000000
00010000
00000000
00000000
00100000
00000000
00000000
,
10010000
00000000
00000000
00100000
00001000
00010000
00001000
00000000
,
00000000
00000100
00000000
00000000
00001001
00000000
00000000
00000010
,
00010000
00001000
00010000
00000000
00000000
00001000
00000000
00000000
,
00000000
00010000
00001000
00010000
00000010
00000000
00000000
00010000
,
00001000
00010000
00100000
00000000
00000000
00001000
00010000
00001000
,
00000010
00000000
00000000
00000110
00000000
00000000
00000001
00000000
,
00001000
00010000
10000000
10000000
,
00010000
00000000
00001000
00000000
00000010
00000100
00000001
00000000
,
00000000
00000100
00000000
00000001
,
00001000
00000100
00000000
00010000
,
00000000
01000000
00000000
10000000
,
00100000
10000000
00000000
10000000
,
00000000
01000000
00000000
10000000
,
00010000
01000000
00000000
00001000
,
00000000
00000100
00000000
00000001
,
00000010
00000001
00000000
00001000
,
00000100
00010000
00000000
00001000
,
00100000
00001000
01000000
00100000
,
00000000
00000000
00000000
10000000
00000000
00000000
00000000
01000000
,
00000000
00000000
00000000
00010000
00000000
00000000
00000000
00001000
,
00000000
00000000
00000000
00010000
00000000
00000000
00000000
00000000
,
00000000
00000000
00000000
00000010
00000000
00000000
00000000
00000100
,
00000000
00000000
00000000
00000001
00000000
00000000
00000000
00000100
,
00000000
00000000
00000000
00000000
00000000
00000000
00000000
00001000
,
00000000
00000000
00000000
00000000
00000000
00000000
00000000
00100000
,
00000000
00000000
00000000
01000000
00000000
00000000
00000000
10000000
,
00000000
00000000
00000000
01000000
00000000
00000000
00000000
00010000
,
00000000
00000000
00000000
00001000
00000000
00000000
00000000
00010000
,
00000000
00000000
00000000
00000000
00000000
00000000
00000000
00000010
,
00000000
00000000
00000000
00000000
00000000
00000000
00000000
00000001
,
00000000
00000000
00000000
00001000
00000000
00000000
00000000
00000100
,
00000000
00000000
00000000
00010000
00000000
00000000
00000000
00001000
,
00000000
01000000
00000000
00001000
00000000
00000000
00000000
00100000
,
00000000
00000000
00000000
00100000
00000000
00000000
00000000
01000000
,
00000000
00000000
00000000
10000000
00000000
00000000
00000000
01000000
,
00000000
00000000
00000000
00010000
00000000
00000000
00000000
00001000
,
00000000
00000000
00000000
00000100
00000000
00000000
00000000
00000001
,
00000000
00000010
00000000
00000001
00000000
00000000
00000000
00001000
,
00000000
00000100
00000000
00010000
00000000
00000000
00000000
00001000
,
00000000
01000000
00000000
00100000
00000000
01000000
00000000
00000000
,
00000000
00001000
00000000
00000000
00000000
00010000
00000000
00000000
,
00000000
00000000
00000000
00000000
00000000
00101000
00000000
00000000
,
00000000
00000000
00000000
00000000
00000000
00010100
00000000
00000000
,
00000000
00000010
00000000
00000000
00000000
00000100
00000000
00000000
,
00000000
00002000
00000000
00000000
00000000
00000000
00000000
00020000
,
00000000
00000000
00000000
00000000
,
00000000
00000000
00000000
00000000
00000000
00000000
00000000
00033000
,
00000000
00001000
00000000
00100000
00000000
00010000
00000000
01000000
,
00000000
00001000
00010000
00000010
00000000
00001000
00000100
00000001
,
00000000
00000100
00000000
00010000
00000000
00100000
00010000
00001000
,
00000000
00100000
00000000
01000000
00000000
10000000
00010000
10000000
,
00000000
01000000
00000000
00000000
00000000
00100000
00000000
00001000
,
00000000
00010000
00000000
00001000
00000000
01000000
00000000
00000000
,
00000000
00001000
00000000
00010000
00000000
00000010
00000000
00001000
,
00000000
00000100
00000000
00000100
00000000
00000010
00000000
00000000
,
00000000
00000000
00000000
00000000
,
00000000
00001000
00000000
00010000
00000000
00000100
00000000
00000000
,
00000000
00010000
00000000
00001000
00000000
00100000
00000000
00010000
,
00000000
01000000
00000000
00000000
00000000
00100000
00000000
01100000
,
00000000
10000000
00000000
00000000
00000000
00000000
00000000
00000000
,
00000000
01000000
00000000
00000000
00000000
00100000
00000000
00000000
,
00000000
00001000
00000000
00000000
00000000
00001000
00000000
00010000
,
00000000
00001000
00000000
00000000
00000000
00000000
00000000
00000000
,
00000000
00000010
00000000
00000000
00000000
00000000
00000000
00001001
,
00000000
00000000
00000000
00000000
00000000
00000100
00000000
00000000
,
00000000
00001000
00000000
00000000
00000000
00010000
00000000
00000000
,
00000000
00001000
00000000
00000000
00000000
00000010
00000000
00000000
,
00000000
00001000
00000000
00000000
00000000
00010000
00000000
00000000
,
00000000
01000000
00000000
00000000
00000000
00100000
00000000
00000000
,
00000000
01000000
00000000
10000000
00000000
00000000
00000000
00000000
,
00000000
00000000
00000000
00010000
00000000
00000000
00000000
00000000
,
00000000
00000000
00000000
00001000
00000000
00000000
00000000
00000000
,
00000000
00000001
00000000
00000000
00000000
00000000
00000000
00000000
,
00000000
00001000
00000000
00000000
00000000
00000000
00000000
00000000
,
00000000
00011000
00000000
00000000
00000000
00000000
00000000
00100000
,
00000000
00000000
00000000
00001000
00000000
00000000
00000000
01000000
,
00000000
00000000
00000000
00010000
00000000
00000000
00000000
01100000
,
00000000
00000000
00000000
00000000
00000000
00000000
00000000
00011000
,
00000000
00000000
00000000
00000000
00000000
00000000
00000000
00000110
,
00000000
00000000
00000000
00000000
00000000
00000000
00000000
00001001
,
00000000
00000000
00000000
00000100
00000000
00000000
00000000
00011000
,
00000000
00000000
00000000
00100000
00000000
00000000
00000000
10010000
,
00000000
00000000
00000000
00000000
00000000
01000000
00000000
00010000
,
00000000
00001000
00000000
00010000
00000000
00000010
00000000
00000100
,
00000000
00001000
00000000
00010000
00000000
00100000
00000000
10000000
,
00000000
00000000
00000000
00000000
;
#NOTES:
     dance-double:
     :
     Medium:
     15:
     :
00000000
00000000
00000000
00000000
,
00000000
00000000
00000000
00000000
,
00000000
00000000
00000000
00000000
,
00000000
00000000
00000000
00000000
,
00000000
00000000
00000000
00000000
,
00000101
00000000
00000010
00001000
00000100
00010000
00001000
00000000
,
00100000
00010000
00001000
00010000
11000000
00000000
00100000
00010000
,
01000000
00001000
00011000
00000000
00000010
00001000
00010000
00001000
,
00000100
00000001
00000010
00001000
00010000
01000000
10000000
00100000
,
00010000
00001000
00100000
01000000
01000000
10000000
00100000
00010000
,
00001000
00000100
00000001
00000001
00000010
00000100
00000000
00000010
,
00001000
00010000
00010000
00001000
00000100
00000010
00001000
00000100
,
00010000
00001000
01000000
00100000
00010000
00001000
00001000
00010000
,
01100000
00000000
00000000
00000000
00000000
00000000
00000000
00000000
00100000
00000000
00000000
00000000
01010000
00000000
00000000
00000000
00000000
00000000
00000000
00000000
00100000
00000000
00000000
00000000
10000000
00000000
00000000
01000000
00000000
00000000
00100000
00000000
,
00000000
00001000
00000000
00000000
00010000
00000000
00000010
00000000
00001000
00000000
00000000
00000100
00000000
00000000
00010000
00000000
00000000
00001000
00000000
00000000
00000100
00000000
00000001
00000000
00000001
00000000
00000000
00000110
00000000
00000000
00000010
00000000
,
00000000
00010000
00000000
00000000
00001000
00000000
00100000
00000000
00010000
00000000
00000000
01100000
00000000
00000000
00001000
00000000
00000000
00010000
00000000
00000000
01000000
00000000
10000000
00000000
00100000
00000000
00000000
00000000
00000000
00000000
00000000
00000000
,
00010000
00001000
00000100
00000101
,
00000110
00000000
00010010
00000000
00011000
00000000
00100000
01000000
,
00100000
00000000
10000000
00010000
10000000
00000000
01010000
00000000
,
00101000
00010100
00001010
00000100
,
00001000
00010000
01000000
11000000
,
01100000
00000000
00101000
00000000
00010010
00000000
00000010
00000100
,
00000010
00000000
00000001
00001000
00000100
00000000
00001100
00000000
,
00010010
01001000
00011000
00001010
,
00011000
01010000
00011000
00000100
,
00000001
00000000
00000010
00001000
00010000
01000000
00100000
00010000
,
10000000
00100000
00010000
00001000
00000000
00000100
00000000
00000001
,
00000000
00000100
00000000
00001000
00000000
00000000
00000000
00010000
,
00000000
00000010
00000000
00000100
00000000
00000001
00000000
00000010
,
00000000
00000000
00000000
00001000
00000000
00010000
00000000
01000000
,
00000000
00000000
00000000
01000000
00000000
10000000
00000000
01000000
,
00000000
00010000
00000000
00000000
00000000
00100000
00000000
01000000
,
00000000
10000000
00000000
00100000
00000000
00000000
00000000
00010000
,
00000000
00001000
00000000
00000100
00000000
00000000
00000000
00000100
,
00000000
00000001
00000000
00000100
00000000
00001000
00000000
00000000
,
00000000
00010000
00000000
00000010
00000000
00000100
00000000
00000001
,
00000000
00000010
00000000
00000000
00000000
00000000
00000000
00001000
,
00000000
00000000
00000000
01000000
00000000
00000000
00000000
00100000
,
00000000
00010000
00000000
00001000
00000000
00000010
00000000
00001000
,
00000000
00010000
00000000
00001000
00000000
01000000
00000000
00001000
,
00000000
00100000
00000000
01000000
00000000
00000000
00000000
00101000
,
00000000
00000000
00000000
00010100
00000000
00000000
00000000
00000001
,
00000000
00000010
00000000
00000100
00000000
00001000
00000000
00000001
,
00000000
00000100
00000000
00001000
00000000
00010000
00000000
00100000
,
00000000
10000000
00000000
01000000
00000000
00010000
00000000
00001000
,
00000000
00010000
00000000
01000000
00000000
10000000
00000000
00100000
,
00000000
00010000
00000000
00001000
00000000
01000000
00000000
00100000
,
00000000
00010000
00000000
00001000
00000000
00010000
00000000
00000000
,
00000000
00000010
00000000
00000100
00000000
00000010
00000000
00000000
,
00000000
00010000
00001000
00010000
00000000
00001000
00000000
00000000
,
00000000
00100000
01000000
00100000
00000000
01000000
00000000
00000000
,
00000000
10000000
00000000
00000000
00000000
01010000
00000000
00000000
,
00000000
00100000
00000000
00001000
00000000
00020000
00000000
00002000
,
00000000
00000000
00000000
00000000
,
00000000
00000000
00000000
00000000
00000000
00000000
00000000
00033000
,
00000000
00000010
00000000
00000001
00000000
00000100
00001000
00010000
,
00100000
01000000
00001000
00010000
00000010
00001000
00000100
00001000
,
00000000
00000100
00010000
00001000
00010000
00100000
00010000
00001000
,
00000000
00000100
00000000
00000100
00000001
00001000
00000001
00001000
,
00000000
00000010
00000100
00000010
00000100
00000010
00000000
00001000
,
00000000
00000001
00000100
00000010
00001000
00000000
00000100
00010000
,
00000100
00010000
00001000
00100000
00000000
00010000
00000000
01000000
,
00000000
00001000
00010000
01000000
00000000
10000000
00000000
00010000
,
00000000
00000000
00000000
00011000
00000000
00000000
00000000
00001000
,
00000100
00000001
00000100
00000010
00010000
00000000
00000100
00010000
,
00000100
00010000
00001000
00100000
00000000
00010000
00000000
10000000
,
00000000
00100000
00010000
00001000
00000000
00100000
00000000
00000000
,
00000000
00010000
00000000
00000000
00000000
10000000
00000000
00000000
,
00000000
01000000
00000000
00010000
00000000
00001000
00000000
00000000
,
00000000
00000100
00000000
00000001
00000000
00001000
00000000
00000100
,
00000000
00010000
00000000
00000000
00000000
00001000
00000000
00010000
,
00000000
00100000
00000000
00000000
00000000
00000000
00000000
10010000
,
00000000
00000000
00000000
00000000
00000000
00100000
00000000
00100000
,
00000000
00001000
00000000
00001000
00000000
01000000
00000000
01000000
,
00000000
00010000
00000000
00100000
00000000
00001000
00000000
00000000
,
00000000
00010000
00000000
00001000
00000000
01000000
00000000
00000000
,
00000000
00100000
00000000
00010000
00000000
00001000
00000000
00000100
,
00000000
00000100
00000000
00000001
00000000
00000100
00000000
00000010
,
00000000
00001000
00000000
00000100
00000000
00010000
00000000
00100000
,
00000000
01000000
00000000
00100000
00000000
00010000
00000000
00001000
,
00000000
00100000
00000000
00000000
00001000
00000000
00010000
00000000
,
00000000
00000100
00000000
00000010
00000000
00000000
00000000
00001000
,
00000000
00000100
00000000
00000000
00000000
00000000
00000000
00000001
,
00000000
00000010
00000000
00001000
00000000
00010000
00000000
00001000
,
00000000
00010000
00000000
00100000
00000000
00000000
01000000
00100000
,
00000000
00000000
00000000
01000000
00000000
00001000
00010000
00001000
,
00000000
00000000
00000000
00000100
00000000
00000001
00000010
00000001
,
00000000
00000000
00000000
00000010
00000000
00000000
00000100
00001000
,
00000100
00000000
00010000
00000000
00001000
00000000
00010000
00001000
,
00010000
00000000
01000000
00000000
00100000
00000000
10000000
00010000
,
10000000
00000000
00000000
00000000
00000000
00001000
00000000
00100000
,
00000000
00001000
00000000
00000010
00000000
00000100
00000001
00000100
,
00010000
00001000
01000000
00010000
10000000
00100000
00010000
00001000
,
00000000
00000000
00000000
00000000
;
#NOTES:
     dance-double:
     :
     Hard:
     18:
     :
00000000
00000000
00000000
00000000
,
00000000
00000000
00000000
00000000
,
00000000
00000000
00000000
00000000
,
00000000
00000000
00000000
00000000
,
00000000
00000000
00000000
00000000
,
10000000
01000000
00010000
00001000
00010000
00100000
00010000
00010000
,
00000100
00000010
00000001
00000100
00000101
00000100
00001000
00010000
,
00001000
00000010
00001000
00001000
01000000
10100000
10000000
01000000
,
00100000
00001000
00010000
00000000
00000010
00000000
00010000
00001000
00010000
00000000
01000000
00000000
10000000
00100000
01000000
00000000
,
00010000
00000000
00100000
01000000
00100000
00000000
00010000
00000000
00100000
00001000
00010000
00000000
00000010
00000000
00010000
00001000
,
00010000
00000000
01000000
00000000
00100000
00010000
00100000
00000000
00001000
00000000
01100000
00000000
00000000
00010000
01000000
00000000
,
00100000
00000000
00010000
00001000
00000010
00000000
00000100
00000000
00000100
00001000
00000100
00000000
00000010
00000000
00001000
00010000
,
00100000
00000000
01000000
00000000
01000000
00010000
01000000
00000000
00100000
00000000
00010000
00001000
00000010
00000000
00000100
00000000
,
00010000
00000000
00000010
00000000
00000100
00000000
00000000
00000000
00001000
00000000
00000000
00000000
00100000
00000000
00001000
00000000
00010000
00000000
00000000
00000000
01000000
00000000
00000000
00000000
11000000
00000000
00000000
00010000
00000000
00000000
01100000
00000000
,
00000000
00001000
00000000
00000000
00100000
00000000
01000000
00000000
00100000
00000000
00001000
00000000
00011000
00000000
00010000
00000000
00000100
00000000
00000110
00000000
00001000
00000000
00000010
00000000
00000101
00000000
00000000
00001010
00000000
00000000
00000110
00000000
,
00000000
00010000
00000000
00000000
00000010
00000000
00000100
00000000
00000110
00000000
00010000
00000000
00011000
00000000
00001000
00000000
00100000
01000000
10000000
00010000
01000000
00100000
10000000
00000000
00010000
00000000
00000000
00000000
00100000
00000000
00000000
00000000
,
01000000
10000000
00100000
00010000
00001000
00000000
00000010
00000100
,
00001000
00000001
00000100
00000010
00001010
00000000
00000001
00000010
,
00000100
00010000
00001000
00010000
00100000
00000000
10000000
01000000
,
00010000
01000000
00100000
00001000
00010000
00000010
00001000
00000010
,
00000100
00000001
00000010
00001000
00010000
00000000
00100000
01000000
,
00010000
10000000
01000000
00100000
00110000
00000000
10000000
00100000
,
01000000
00001000
00010000
00001000
00000010
00000000
00000001
00000100
,
00001000
00000100
00000010
00001000
00010000
00000100
00010000
00000010
,
00001000
00000000
01000000
00010000
00001000
00000000
00010000
00100000
,
01000000
00010000
00100000
00001000
00010000
00000010
00001000
00000100
,
00000001
00000100
00000010
00000001
00000000
00000010
00000000
00000001
,
00000000
00001000
00000000
00000100
00000000
00010000
00000000
01000000
,
00000000
00010000
00000000
00000100
00000000
00001000
00000000
00000010
,
00000000
00010000
00000000
00000010
00001000
00000100
00010000
00001000
,
00100000
00010000
00000000
10000000
00000000
00100000
00000000
01000000
,
00000000
00010000
00000000
00000000
00000000
00001000
00000000
01000000
,
00000000
00010000
00000000
00100000
00000000
00001000
00000000
00100000
,
00010000
01000000
00001000
00010000
00000010
00001000
00000000
00000001
,
00000000
00000010
00000000
00000001
00000000
00001000
00000000
00000100
,
00000000
00010000
00000000
01000000
00000000
00010000
00000000
00000100
,
00000000
00001000
00000000
00000001
00000000
00000000
00000000
00000010
,
00001000
00000000
00000000
00001000
00100000
00000000
00000000
10000000
,
00000000
01000000
00000000
00100000
00000000
00001000
00000000
00000010
,
00000000
00001000
00000000
00010000
00000000
01000000
00000000
00010000
,
00000000
00000010
00000000
00000100
00000000
00001000
00000000
00000100
,
00000010
00000100
00000010
00000100
00000000
00000001
00000000
00001000
,
00000000
00000010
00000000
00010000
00000000
00001000
00000000
01000000
,
00000000
00100000
00000000
00010000
00000000
00001000
00000000
00000100
,
00000000
00000010
00000000
00010000
00000000
00000100
00000000
00001000
,
00000010
00010000
00000100
00001000
00000000
00000100
00000000
00010000
,
00000000
00100000
00000000
10000000
00000000
01000000
00000000
00010000
,
00000000
00001000
00000000
00000100
00000000
00000110
00000000
00001000
,
00000000
00000010
00000000
00000100
00000000
00000001
00000000
00000000
,
00000000
00001000
00000010
00000100
00001000
00010000
00000000
00000000
,
00000000
00100000
10000000
01000000
00100000
00010000
00000000
00000000
,
00000000
01000000
00001000
00000000
00000000
00010000
00000100
00000000
,
00000000
00000010
00000000
00001000
00000000
00200000
00000000
00002000
,
00000000
00000000
00000000
00000000
,
00000000
00000000
00000000
00000000
00000000
00000000
00000000
00303000
,
00000000
00020010
00000000
01000000
00000000
00030100
00001000
00000100
,
00000010
00002000
00010000
00000010
00013000
00001020
00000100
00000130
,
00000000
00000000
00000010
00000001
00000010
00000100
00000010
00000000
00001000
00000001
00000100
00000010
00000100
00001000
00000000
00001000
,
00010000
00001000
00100000
01000000
00100000
10000000
00100000
00000000
00001000
00010000
00001000
00100000
00010000
00100000
01000000
00000000
,
00000000
10000000
01000000
00100000
00010000
00100000
00000000
00001000
,
00010000
01000000
00010000
00001000
00010000
00000000
00010000
00000010
,
00000100
00000001
00000100
00001000
00000100
00000001
00000000
00000010
,
00000100
00010000
00001000
00000100
00000001
00000100
00000000
00000001
,
00000010
00000000
00000000
00001000
00000110
00000000
00000000
00001000
,
00000010
00000100
00001000
00010000
00001000
00000000
00001000
00100000
,
01000000
10000000
01000000
00010000
01000000
10000000
00000000
00100000
,
01000000
00100000
01000000
00010000
10000000
00000000
10010000
00000000
,
10000000
01000000
00000000
00100000
00000000
00001000
00000000
00010000
,
00000000
00000010
00001000
00000010
00000000
00000100
00000000
00000010
,
00000000
00010000
00001000
00000100
00000000
00000001
00000000
00000100
,
00000000
00000000
00000000
00001000
00000000
00100000
00000000
01000000
,
00010000
00001000
00000000
00000010
00000000
00000000
00000000
00011000
,
00000000
00000000
00000000
00000000
00000000
00000100
00000000
00001000
,
00000000
00010000
00000000
00100000
00000000
10000000
00010000
10000000
,
00000000
01000000
00000000
00010000
00000000
00001000
00000000
00000010
,
00000000
00001000
00010000
00001000
00000000
01000000
00000000
00000000
,
00000000
10100000
00000000
00100000
00000000
00010000
00000000
00001000
,
00000000
00000100
00000000
00000011
00000000
00000010
00000000
00001000
,
00000000
00010000
00000000
00000010
00000100
00001000
00000000
00010000
,
00000000
00001000
00000000
00010000
01000000
10000000
00000000
00100000
,
00000000
00100000
00000000
00000000
00001000
00000000
00010010
00000000
,
00000000
00010000
00000000
00001100
00000000
00000000
00000000
00000010
,
00000000
00001001
00000000
00000000
00000000
00000000
00000000
00000001
,
00000010
00000100
00000010
00000100
00001000
00000100
00010000
00001000
,
00100000
00010000
01000000
00000000
00010000
10000000
00000000
00000000
,
00000000
00000000
00000000
00000000
00100000
00010000
00001000
00000100
,
00000000
00000000
00000000
00000000
00010000
00001000
00000100
00000001
,
00000000
00000000
00000000
00000000
00000000
00000000
00000010
00000001
,
00000100
00000010
00001000
00000010
00001000
00000100
00010000
00001000
,
00100000
00010000
00100000
00010000
10000000
00100000
01000000
00010000
,
10000000
01000000
00000000
00000000
00000000
10000000
00100000
01000000
,
00010000
10000000
01000000
00100000
00000010
00010000
00001000
00000100
,
00000001
00000010
00000100
01000000
00001000
00010000
00100000
10000000
,
00000000
00000000
00000000
00000000
;
#NOTES:
     dance-double:
     :
     Challenge:
     18:
     :
00000000
00000000
00000000
00000000
,
00000000
00000000
00000000
00000000
,
00000000
00000000
00000000
00000000
,
00000000
00000000
00000000
00000000
,
00000000
00000000
00000000
00000000
,
10000000
01000000
00010000
00001000
00010000
MMMMMMMM
00010000
00010000
,
00000100
00000010
00000001
MMMMMMMM
00000101
00000100
00001000
00010000
,
00001000
MMMMMMMM
00001000
00001000
01000000
10100000
10000000
MMMMMMMM
,
00100000
00001000
00010000
00000000
MMMMMMMM
00000000
00010000
00001000
00010000
00000000
MMMMMMMM
00000000
10000000
00100000
01000000
00000000
,
MMMMMMMM
00000000
00100000
01000000
00100000
00000000
MMMMMMMM
00000000
00100000
00001000
00010000
00000000
MMMMMMMM
00000000
00010000
00001000
,
00010000
00000000
MMMMMMMM
00000000
00100000
00010000
00100000
00000000
00001000
00000000
01100000
00000000
00000000
00010000
01000000
00000000
,
00100000
00000000
00010000
00001000
00000010
00000000
MMMMMMMM
00000000
00000100
00001000
00000100
00000000
00000010
00000000
00001000
00010000
,
00100000
00000000
MMMMMMMM
00000000
01000000
00010000
01000000
00000000
00100000
00000000
00010000
00001000
00000010
00000000
MMMMMMMM
00000000
,
00010000
00000000
00000010
00000000
00000100
00000000
00000000
00000000
00001000
00000000
00000000
00000000
00100000
00000000
00001000
00000000
00010000
00000000
00000000
00000000
MMMMMMMM
00000000
00000000
00000000
11000000
00000000
00000000
00010000
00000000
00000000
01100000
00000000
,
00000000
00001000
00000000
00000000
00100000
00000000
01000000
00000000
00100000
00000000
00001000
00000000
00011000
00000000
00010000
00000000
00000100
00000000
00000110
00000000
00001000
00000000
00000010
00000000
00000101
00000000
00000000
00001010
00000000
00000000
00000110
00000000
,
00000000
00010000
00000000
00000000
00000010
00000000
00000100
00000000
00000110
00000000
00010000
00000000
00011000
00000000
00001000
00000000
00100000
01000000
10000000
00010000
01000000
00100000
10000000
00000000
00010000
00000000
00000000
00000000
00100000
00000000
00000000
00000000
,
01000000
10000000
00100000
00010000
MMMMMMMM
00000000
00000010
00000100
,
00001000
00000001
00000100
00000010
MMMMMMMM
00000000
00000001
00000010
,
00000100
00010000
00001000
00010000
MMMMMMMM
00000000
10000000
01000000
,
00010000
01000000
00100000
00001000
00010000
00000010
00001000
00000010
,
00000100
00000001
00000010
00001000
MMMMMMMM
00000000
00100000
01000000
,
00010000
10000000
01000000
00100000
MMMMMMMM
00000000
10000000
00100000
,
01000000
00001000
00010000
00001000
MMMMMMMM
00000000
00000001
00000100
,
00001000
00000100
00000010
00001000
00010000
00000100
00010000
00000010
,
MMMMMMMM
00000000
01000000
00010000
MMMMMMMM
00000000
00010000
00100000
,
01000000
00010000
00100000
00001000
00010000
00000010
00001000
00000100
,
00000001
00000100
00000010
00000001
00000000
00000010
00000000
00000001
,
00000000
00001000
00000000
MMMMMMMM
00000000
00010000
00000000
01000000
,
00000000
00010000
00000000
MMMMMMMM
00000000
00001000
00000000
00000010
,
00000000
00010000
00000000
00000010
00001000
00000100
00010000
00001000
,
00100000
00010000
00000000
10000000
00000000
MMMMMMMM
00000000
01000000
,
00000000
00010000
00000000
00000000
00000000
00001000
00000000
01000000
,
00000000
00010000
00000000
MMMMMMMM
00000000
00001000
00000000
00100000
,
00010000
01000000
00001000
00010000
00000010
00001000
00000000
00000001
,
00000000
00000010
00000000
MMMMMMMM
00000000
00001000
00000000
00000100
,
00000000
00010000
00000000
01000000
00000000
00010000
00000000
00000100
,
00000000
00001000
00000000
MMMMMMMM
00000000
00000000
00000000
00000010
,
00001000
00000000
00000000
00001000
00100000
00000000
00000000
10000000
,
00000000
01000000
00000000
00100000
00000000
00001000
00000000
00000010
,
00000000
00001000
00000000
00010000
00000000
MMMMMMMM
00000000
00010000
,
00000000
00000010
00000000
00000100
00000000
00001000
00000000
00000100
,
00000010
00000100
00000010
00000100
00000000
00000001
00000000
00001000
,
00000000
00000010
00000000
00010000
00000000
MMMMMMMM
00000000
01000000
,
00000000
00100000
00000000
00010000
00000000
00001000
00000000
00000100
,
00000000
MMMMMMMM
00000000
00010000
00000000
00000100
00000000
00001000
,
00000010
00010000
00000100
00001000
00000000
00000100
00000000
00010000
,
00000000
00100000
00000000
10000000
00000000
01000000
00000000
00010000
,
00000000
00001000
00000000
00000100
00000000
MMMMMMMM
00000000
00001000
,
00000000
00000010
00000000
00000100
00000000
00000001
00000000
MMMMMMMM
,
00000000
00001000
00000010
00000100
00001000
00010000
00000000
MMMMMMMM
,
00000000
00100000
10000000
01000000
00100000
00010000
00000000
00000000
,
00000000
01000000
00001000
00000000
00000000
00010000
00000100
00000000
,
00000000
00000010
00000000
00001000
00000000
00200000
00000000
00002000
,
00000000
00000000
00000000
00000000
,
00000000
00000000
00000000
00000000
00000000
00000000
00000000
00303000
,
00000000
00020010
00000000
01000000
00000000
00030100
00001000
00000100
,
00000010
00002000
00010000
00000010
00013000
00001020
00000100
00000130
,
MMMMMMMM
00000000
00000010
00000001
00000010
00000100
00000010
00000000
00001000
00000001
00000100
00000010
00000100
00001000
00000000
00001000
,
00010000
00001000
00100000
01000000
00100000
10000000
00100000
00000000
00001000
00010000
00001000
00100000
00010000
00100000
01000000
00000000
,
00000000
10000000
01000000
00100000
00010000
00100000
00000000
00001000
,
00010000
01000000
00010000
00001000
00010000
00000000
MMMMMMMM
00000010
,
00000100
00000001
00000100
00001000
00000100
00000001
00000000
00000010
,
00000100
00010000
00001000
00000100
00000001
00000100
00000000
00000001
,
00000010
MMMMMMMM
00000000
00001000
00000110
00000000
00000000
00001000
,
00000010
00000100
00001000
00010000
00001000
00000000
MMMMMMMM
00100000
,
01000000
10000000
01000000
00010000
01000000
10000000
00000000
00100000
,
01000000
00100000
01000000
00010000
10000000
00000000
10010000
00000000
,
10000000
01000000
00000000
00100000
00000000
00001000
00000000
00010000
,
00000000
00000010
00001000
00000010
00000000
00000100
00000000
00000010
,
00000000
00010000
00001000
00000100
00000000
00000001
00000000
MMMMMMMM
,
00000000
00000000
00000000
00001000
00000000
00100000
00000000
01000000
,
00010000
00001000
00000000
00000010
00000000
00000000
00000000
00011000
,
00000000
00000000
00000000
00000000
00000000
MMMMMMMM
00000000
00001000
,
00000000
00010000
00000000
00100000
00000000
10000000
00010000
10000000
,
00000000
01000000
00000000
00010000
00000000
00001000
00000000
00000010
,
00000000
00001000
00010000
00001000
00000000
01000000
00000000
00000000
,
00000000
MMMMMMMM
00000000
00100000
00000000
00010000
00000000
00001000
,
00000000
00000100
00000000
MMMMMMMM
00000000
00000010
00000000
00001000
,
00000000
00010000
00000000
00000010
00000100
00001000
00000000
00010000
,
00000000
00001000
00000000
00010000
01000000
10000000
00000000
00100000
,
00000000
00100000
00000000
00000000
00001000
00000000
00010010
00000000
,
00000000
00010000
00000000
MMMMMMMM
00000000
00000000
00000000
00000010
,
00000000
MMMMMMMM
00000000
00000000
00000000
00000000
00000000
00000001
,
00000010
00000100
00000010
00000100
00001000
00000100
00010000
00001000
,
00100000
00010000
01000000
00000000
00010000
10000000
00000000
00000000
,
00000000
00000000
MMMMMMMM
00000000
00100000
00010000
00001000
00000100
,
00000000
00000000
MMMMMMMM
00000000
00010000
00001000
00000100
00000001
,
00000000
00000000
00000000
00000000
MMMMMMMM
00000000
00000010
00000001
,
00000100
00000010
00001000
00000010
00001000
00000100
00010000
00001000
,
00100000
00010000
00100000
00010000
10000000
00100000
01000000
00010000
,
10000000
01000000
00000000
MMMMMMMM
00000000
10000000
00100000
01000000
,
00010000
10000000
01000000
00100000
00000010
00010000
00001000
00000100
,
00000001
00000010
00000100
01000000
00001000
00010000
00100000
10000000
,
00000000
00000000
00000000
00000000
;
