
//----- song ID: pier -----//
#TITLE:Pierce The Sky;
#ARTIST:JAKAZiD feat. K.N.;
#BANNER:Pierce The Sky.png;
#BACKGROUND:Pierce The Sky-bg.png;
#CDTITLE:./CDTitles/DDR X2.png;
#MUSIC:Pierce The Sky.ogg;
#SAMPLESTART:12.01;
#SAMPLELENGTH:15;
#BPMS:0=170,156=85,164=170;
#STOPS:32=1.059,89=0.353,90=0.353,155=1.059,208=1.059;
#NOTES:
     dance-single:
     :
     Beginner:
     3:
     :
0000
0000
0000
0000
,
0000
0000
0000
0000
,
0000
0000
0000
0000
,
0000
0000
0000
0000
,
0000
0000
0000
0000
,
0010
0000
0000
0000
,
0100
0000
0000
0000
,
0001
0000
0000
0000
,
1000
0001
0000
0000
,
0000
0001
0000
0000
,
0000
1000
0000
0000
,
0000
1000
0000
0000
,
0000
0010
0000
0000
,
0000
0100
0000
0000
,
0000
0010
0000
0000
,
0000
0100
0000
0000
,
0000
0001
0000
0000
,
0000
0001
0000
0000
,
0000
1000
0000
0000
,
0000
1000
0000
0000
,
0000
0010
0000
0000
,
0000
0100
0000
0000
,
0000
0010
0010
0010
,
0000
0000
0000
0010
,
0000
0000
0000
0010
,
0000
0000
0000
0001
,
0000
0000
0000
0001
,
0000
0000
0000
0100
,
0000
0000
0000
0100
,
0000
0000
0000
1000
,
0000
0000
0000
1000
,
0000
0000
0000
1000
,
0000
0000
0000
1000
,
0000
0000
0000
0100
,
0000
0000
0000
0100
,
0000
0000
0000
0001
,
0000
0000
0000
0001
,
0000
0000
0000
0010
,
0000
0100
0000
1001
,
0001
0000
1000
0000
,
0001
0000
1000
0000
,
0010
0000
0100
0000
,
0010
0000
0100
0000
,
0010
0000
0100
0000
,
0010
0000
0000
0000
,
1000
0000
1000
0000
,
1000
0000
0000
0000
,
0001
0000
0001
0000
,
0001
0000
0000
0000
,
0100
0000
0100
0000
,
0100
0000
0000
0000
,
0010
0000
0010
0000
,
0010
0010
0000
0000
,
0000
0010
0000
0000
,
0000
1000
0000
0000
,
0000
1000
0000
0000
,
0000
0001
0000
0000
,
0000
0001
0000
0000
,
0000
0100
0000
0000
,
0000
0100
0000
0000
,
0000
0001
0000
0000
,
0000
0001
0000
0000
,
0000
1000
0000
0000
,
0000
1000
0000
0000
,
0000
0010
0000
0010
,
0000
0100
0000
0100
,
0000
1001
0000
0000
,
0000
1001
0000
0000
,
0000
0000
0000
0000
;
#NOTES:
     dance-single:
     :
     Easy:
     8:
     :
0000
0000
0000
0000
,
0000
0000
0000
0000
,
0000
0000
0000
0000
,
0000
0000
0000
0000
,
0000
0000
0000
0000
,
0010
0010
1000
1000
,
0001
0001
0100
0100
,
0010
1000
0001
0100
,
1001
0010
1000
0100
,
1001
1000
0010
1000
,
0110
0100
0001
0100
,
1001
0001
0010
0001
,
0110
0000
0010
0100
0010
0000
0100
0000
,
0100
0000
0010
0100
0010
0000
0100
0000
,
0100
1000
0010
0001
,
0010
1000
0010
0100
,
1001
0100
0001
0010
,
1001
0001
0100
0001
,
0110
0010
1000
0010
,
1001
1000
0100
1000
,
0110
0000
0100
0010
0100
0000
0010
0000
,
0010
0000
0100
0010
0100
0000
0010
0000
,
0010
0110
1001
0200
,
0000
0000
0000
0000
0300
0000
0001
0100
,
0001
0000
0010
0000
1001
0000
1000
0100
,
1000
0000
0010
0000
1001
0000
0001
0010
,
0100
0010
0100
0020
,
0000
0130
0100
2000
,
3100
0010
0100
0002
,
0103
0010
0100
0001
,
0001
1000
1000
0010
,
0100
1001
0000
0001
,
0010
0000
0001
0010
0100
0000
1000
0000
,
0010
0000
1000
0010
0100
0000
0001
0000
,
1000
0100
0010
0200
,
0000
0300
0000
1000
,
0010
0001
1000
0100
,
0001
0000
0010
0000
0100
0000
1000
0100
,
0010
0000
0001
0100
0010
0000
1001
0000
,
1000
1000
0100
0000
0001
0001
0100
0000
,
1000
1000
0010
0000
0001
0001
0010
0000
,
2000
3100
0002
0103
,
2000
3100
0002
0103
,
2000
3010
0002
0013
,
2000
3010
0002
0013
,
1000
0100
1000
0000
0100
0000
0010
0000
,
0001
0100
0001
0000
0100
0000
0010
0000
,
1000
0100
1000
0000
0100
0000
0010
0000
,
0001
0010
0001
0000
0010
0000
0100
0000
,
1000
0010
1000
0000
0010
0000
0100
0000
,
0001
0010
0001
0000
0010
0000
0100
0000
,
1000
0100
1000
0000
0001
0100
0001
0000
,
2002
3003
0000
0000
0000
0000
0000
0000
0000
0000
0000
0000
0000
0000
0000
0000
0010
0000
0000
0000
0000
0000
0000
0000
0000
0000
0000
0000
0000
0000
0000
0000
1000
0000
0000
0000
0000
0000
0000
0000
0000
0000
0000
0000
0000
0000
0000
0000
0100
0000
0000
0000
0000
0000
0000
0000
1000
0000
0000
0000
0000
0000
0000
0000
,
0100
0000
1000
0000
0010
0000
1000
0010
,
1000
0000
0100
0000
0001
0000
0100
0001
,
0100
0000
0001
0000
0010
0000
0001
0010
,
0001
0010
0010
0100
,
0100
0001
0001
1000
,
1000
0000
1000
0100
1000
0000
0001
0100
,
0001
2000
3100
0002
,
0103
0000
0010
1000
0100
0000
0100
0000
,
0110
0000
0100
1000
0100
0000
0010
0000
,
1001
0000
0010
0001
0010
0000
0110
0000
,
0001
0000
0100
0001
0100
0000
0010
0000
,
1001
2000
3100
0002
,
0103
0020
0130
0200
,
0310
0010
1000
0001
,
0100
2002
0000
0000
,
3003
0000
0000
0000
,
0000
0000
0000
0000
;
#NOTES:
     dance-single:
     :
     Medium:
     11:
     :
0000
0000
0000
0000
,
0000
0000
0000
0000
,
0000
0000
0000
0000
,
0000
0000
0000
0000
,
0000
0000
0000
0000
,
1000
0100
1000
0000
0001
0100
0001
0000
,
1000
0100
1000
0000
0001
0100
0001
0000
,
1000
0010
1000
0010
1000
0100
1000
0100
,
1000
0000
0001
0010
0100
0000
1000
0010
,
0100
0000
0001
0100
1000
0000
0100
0001
,
0010
0000
1000
0010
0001
0000
1000
0010
,
0100
0000
0010
0100
0010
0000
1000
0001
,
0100
0000
0001
0010
0001
0000
1000
0100
,
1000
0000
0010
1000
0001
0000
0010
0001
,
0100
0000
0001
0100
1000
0000
0100
0001
,
0010
0000
0000
0000
0001
0000
0200
0000
0000
0302
0000
0000
2003
0000
0000
3020
,
0000
0130
0001
1000
0100
0000
0010
0001
,
0100
0000
0001
1000
0100
0000
1000
0010
,
0100
0000
0001
0010
0100
0000
1000
0001
,
0100
0000
0001
0010
0100
0000
1000
0010
,
0100
0000
0001
0010
1000
0000
1000
0010
,
0001
0000
1000
0100
0001
0000
0001
0100
,
1000
0000
0000
0000
1100
0000
0000
0000
0011
0000
0000
0000
0020
0000
0000
2030
,
0000
0000
3002
0000
0000
0203
0000
0000
0310
0000
0000
0000
1000
0000
0100
0000
,
1000
0100
1000
0000
1100
0000
0001
0100
,
0001
0100
0000
0001
0001
0000
0010
0100
,
0010
1010
1100
2002
,
3003
0000
0010
0100
0010
0000
0002
0000
,
0000
0000
0013
0001
0100
0000
2000
0000
,
0000
0000
3010
1000
0100
0000
0010
1000
,
0000
0001
0000
0100
0000
0001
1000
0010
,
0100
0001
2002
0000
0000
3003
0002
0000
,
0103
0000
0010
0100
0010
0000
2000
0000
,
3100
0000
0010
0100
0010
0000
0001
0100
,
1000
0100
0002
0000
2003
0000
3020
0000
,
0130
0000
0001
1000
0001
0000
0011
0000
,
0101
1010
1100
0110
,
1001
0000
0110
0000
1001
0000
0001
0010
,
0100
1000
0010
0100
0001
0000
2002
3003
,
0000
0001
0000
0101
0000
0001
0010
0100
0000
1000
0000
1100
0000
1000
0010
0100
,
0000
0010
0000
0110
0000
0010
0100
0010
0000
0100
0000
0001
0000
1000
0000
0010
,
1000
0001
0010
0100
,
1000
0001
0010
0100
,
0010
0100
1000
0001
,
0200
0000
0000
0310
,
1000
0000
0100
0000
1000
0000
0100
0000
1000
0000
0000
0100
0000
0000
1000
0000
,
0010
0000
0100
0000
0010
0000
0100
0000
0010
0000
0000
0100
0000
0000
0010
0000
,
0100
0000
0001
0000
0100
0000
0001
0000
0100
0000
0000
0001
0000
0000
0100
0000
,
0001
0000
0010
0000
0100
0000
1000
0000
1100
0000
0000
0110
0000
0000
0011
0000
,
1000
0000
0100
0000
0001
0000
0100
0000
1000
0000
0000
0010
0000
0000
0100
0000
,
0001
0000
0100
0000
1000
0000
0100
0000
0001
0000
0000
0010
0000
0000
0100
0000
,
1000
0100
1000
0000
0001
0100
0001
0000
,
2002
3003
0000
0000
0000
0000
0000
0000
0000
0000
0000
0000
0000
0000
0000
0000
0001
0000
0000
0000
0000
0000
0000
0000
0100
0000
0000
0000
0000
0000
0000
0000
0001
0000
0000
0000
0000
0000
0000
0000
0010
0000
0000
0000
0000
0000
0000
0000
0100
0000
0000
0000
0000
0000
0000
0000
0000
0000
0000
0000
0000
0000
0000
0000
,
1000
0000
0010
1000
0100
0010
0001
0000
,
0100
0000
0010
0001
0100
0010
1000
0000
,
0100
0000
1000
0010
0100
0001
0010
0000
,
0100
0000
0001
1000
0100
2000
0000
3020
,
0000
0230
0000
0302
0000
0023
0000
0230
,
0000
1300
0001
0100
0010
0000
1000
0001
,
0100
0000
0000
0000
0010
0000
2000
0000
0000
3002
0000
0000
0023
0000
0000
0230
,
0000
1300
0001
0100
0001
0010
0100
1000
,
0100
0000
1000
0100
1000
0010
0100
0001
,
0100
0000
0010
0100
0010
1000
0001
0100
,
0010
0000
0001
0100
1000
0100
0001
0010
,
0100
2000
3100
0002
,
0103
0020
0130
0200
,
0310
0000
0001
0010
0100
1000
0010
0100
,
0010
1000
0002
0000
0000
0000
0000
0000
,
0003
0000
0000
0000
,
0000
0000
0000
0000
;
#NOTES:
     dance-single:
     :
     Hard:
     14:
     :
0000
0000
0000
0000
,
0000
0000
0000
0000
,
0000
0000
0000
0000
,
0000
0000
0000
0000
,
0000
0000
0000
0000
,
0010
0000
0000
0001
0000
0000
0010
0000
0001
0000
0000
0100
0000
0000
0001
0000
,
0100
0000
0000
0010
0000
0000
0100
0000
0010
0000
0000
1000
0000
0000
0010
0000
,
1000
0100
0010
0001
1000
0100
0010
0001
,
0200
0300
0000
0000
0000
0000
0000
0000
0000
0000
0000
0000
0000
0000
0000
0000
0001
0000
0000
0000
0000
0000
0000
0000
0100
0000
0000
0000
0000
0000
0000
0000
0010
0000
0000
0000
0000
0000
0000
0000
1000
0000
0000
0000
0000
0000
0000
0000
0100
0000
0000
0000
0000
0000
0000
0000
0001
0000
0000
0000
0000
0000
0000
0000
,
0100
1000
0010
0001
0010
1000
0010
0100
,
0001
0010
0001
0100
0001
1000
0010
1000
,
0001
0100
1000
0001
0010
1000
0100
1000
,
1001
0000
0100
1000
0010
0100
0001
0010
,
0100
0010
0001
1000
0100
0001
0100
1000
,
0001
0010
1000
0010
0001
0100
0001
0100
,
1000
0100
0010
0001
0010
1000
0001
0100
,
1100
0000
1000
0100
0001
0010
0100
1000
,
0001
0010
1000
0010
0001
0100
1000
0001
,
0010
1000
0100
0001
1000
0010
0001
1000
,
0001
0100
0010
1000
0100
0010
0001
0010
,
0011
0000
0001
0100
0010
0100
1000
0001
,
0010
0100
0010
1000
0001
0010
0100
0010
,
1000
0000
0001
0000
0110
0000
0000
0000
1001
0000
0000
0000
0010
0000
0000
1000
,
0100
0000
1001
0000
0000
0100
0001
0100
0001
0000
0010
0000
0001
0000
0100
0001
,
0000
0010
0001
0000
0010
0000
1000
0000
0010
0000
0001
0000
1000
0000
0100
1000
,
0000
0010
1000
0000
0001
0000
0010
0000
0100
0000
1000
0000
0001
0000
0100
0000
,
1000
0100
0101
0000
1100
0000
0110
0100
,
1000
0100
0001
0010
1000
0010
0002
0000
,
0013
0100
1000
0010
0100
0001
2000
0000
,
3001
0010
1000
0010
0001
0100
1000
1100
,
0000
0101
0000
1010
0000
0011
1000
0001
,
0010
0000
0100
0000
2002
0000
0000
0000
3003
0000
0000
0000
1000
0000
0010
1000
,
0000
0100
1000
0000
0100
0000
0001
0000
0100
0000
1000
0000
0001
0000
0010
0001
,
0000
0100
0001
0000
1000
0000
0100
0000
0010
0000
0001
0000
1000
0000
0010
0000
,
0001
0010
1010
0000
0011
0000
0110
0010
,
0001
0010
1000
0100
0001
0100
2000
0000
,
3200
0320
0032
0203
,
0320
0000
0000
0000
2030
0000
0000
0000
3002
0000
0000
0000
0013
0000
0100
1000
,
0000
0000
0000
0000
0100
0000
0000
0000
0001
0000
0000
0000
0000
0000
0000
0000
0100
0000
0000
0000
0000
0000
0000
0000
0010
0000
0000
0000
0000
0000
0000
0000
1000
0000
0000
0000
0000
0000
0000
0000
0010
0000
0000
0000
0000
0000
0000
0000
0200
0300
0000
0000
0000
0000
0000
0000
0000
0000
0000
0000
0000
0000
0000
0000
,
0001
0000
0010
0000
0001
0000
0100
0000
0010
1000
0000
0100
0000
0000
1000
0000
0000
0000
0100
0000
0000
0000
0010
0000
0100
1000
0100
0000
0000
0000
1001
0000
,
1000
0000
0100
0000
1000
0000
0010
0000
0100
0001
0000
0010
0000
0000
0001
0000
0000
0000
1100
0000
0000
0000
0011
0000
0000
0000
0110
0000
0000
0000
1001
0000
,
0010
0100
1000
0000
0100
0001
0010
0000
,
0001
0010
1000
0000
1000
0010
0100
0000
,
0010
0100
0001
0000
0001
0100
1000
0000
,
0001
0010
0100
1000
0010
0100
0002
0000
,
1003
0000
0100
0000
0010
0000
0001
0000
0100
0000
0010
0100
0000
0000
0110
0000
,
0001
0000
0100
0000
0010
0000
1000
0000
0100
0000
0010
0100
0000
0000
0110
0000
,
0001
0000
0010
0000
1000
0000
0010
0000
0001
0000
0100
0010
0000
0000
0110
0000
,
1000
0000
0100
0000
0001
0000
0100
0000
1000
0000
0100
0010
0000
0000
0110
0000
,
0001
0000
0100
0000
0010
0000
1000
0000
0001
0000
0010
0100
0000
1000
0100
0000
,
1100
0000
0100
0000
0010
0000
0001
0000
0100
0000
0010
0100
0000
0001
0100
0000
,
0101
0000
0001
0100
0001
0000
1000
0100
1000
0000
0001
0100
0001
0000
1000
0100
,
2000
3000
0000
0000
0000
0000
0000
0000
0000
0000
0000
0000
0000
0000
0000
0000
0001
0000
0000
0000
0000
0000
0000
0000
0100
0000
0000
0000
0000
0000
0000
0000
1000
0000
0000
0000
0000
0000
0000
0000
0100
0000
0000
0000
0000
0000
0000
0000
0001
0000
0000
0000
0000
0000
0000
0000
0010
0000
0000
0000
0000
0000
0000
0000
,
0001
1000
0010
0001
0010
1000
0100
1000
,
0100
0001
0100
1000
0010
0100
0001
0010
,
1000
0010
0001
0100
1000
0100
0001
0010
,
0110
0000
0001
0100
1000
0010
0100
0001
,
0100
1000
0001
0010
0100
0001
0010
0100
,
0001
0000
0100
0000
1000
0000
0000
0001
0000
0000
0010
0000
0000
0100
0000
0000
,
1000
0000
0000
0010
0000
0000
0200
0000
0000
0302
0000
0000
0023
0000
0000
0230
,
0000
0000
1300
0000
0010
0000
0100
0001
0000
0100
1000
0000
0100
0001
0000
0010
,
0100
0000
0110
0000
0100
0000
0010
1000
0000
0010
0001
0000
0100
1000
0000
0100
,
0010
0000
0110
0000
0100
0000
0001
0010
0000
1000
0001
0000
0100
1000
0000
0010
,
0100
0000
0110
0000
0010
0000
1000
0100
0000
0001
1000
0000
0010
0001
0000
0100
,
0010
0110
2000
0000
3100
0000
0002
0000
,
0103
0020
0130
0200
,
0310
0000
1000
0010
0001
0010
1000
0100
,
0001
0100
0020
0000
0000
0000
0000
0000
,
0030
0000
0000
0000
,
0000
0000
0000
0000
;
#NOTES:
     dance-single:
     :
     Challenge:
     16:
     :
0000
0000
0000
0000
,
0000
0000
0000
0000
,
0000
0000
0000
0000
,
0000
0000
0000
0000
,
0000
0000
0000
0000
,
0010
0000
0001
0010
0000
0001
0100
0000
0010
0000
1000
0100
0000
1000
0010
0000
,
0100
0000
0001
1000
0000
0001
0010
0000
0100
0000
1000
0001
0000
1000
0010
0000
,
1000
0000
0000
0100
0010
0000
0000
0001
0010
0000
0000
0100
1000
0000
0000
0010
,
0100
0000
0000
0000
0010
0000
1000
0010
1000
0000
0100
0000
0010
0001
0010
0000
,
0100
0010
0100
0000
1000
0000
0001
0010
0001
0000
0100
0000
0010
1000
0010
0000
,
0100
0010
0100
0000
0001
0000
1000
0010
1000
0000
0010
0000
0100
0010
0100
0000
,
0001
0010
0001
0000
1000
0000
0001
0010
0001
0000
0010
0000
0100
0010
0100
0000
,
1000
0010
1000
0000
0001
0000
0100
0010
0100
0000
1000
0000
0100
0010
0100
0000
,
0001
0010
0001
0000
0010
0000
0100
0010
0100
0000
0001
0000
0100
0010
0100
0000
,
1000
0100
1000
0000
0001
0000
0100
0010
0000
0010
1000
0000
1000
0100
0000
0100
,
0010
0000
0001
0000
1000
0000
0001
0000
0001
0010
0000
0010
0100
0000
0100
1000
,
0000
1000
0001
0000
0100
0000
0001
0100
0001
0000
0010
0000
0100
1000
0100
0000
,
0010
0100
0010
0000
0001
0000
1000
0100
1000
0000
0010
0000
0100
0001
0100
0000
,
0010
0100
0010
0000
1000
0000
0001
0100
0001
0000
0100
0000
0010
0100
0010
0000
,
1000
0100
1000
0000
0001
0000
1000
0100
1000
0000
0100
0000
0010
0100
0010
0000
,
0001
0100
0001
0000
1000
0000
0010
0100
0010
0000
0001
0000
0010
0100
0010
0000
,
1000
0100
1000
0000
0100
0000
0010
0100
0010
0000
1000
0000
0010
0100
0010
0000
,
0001
0010
0001
0000
0011
0000
0000
0000
1100
0000
0000
0000
0011
0000
0000
1100
,
0000
0000
0110
0000
0000
0010
0100
0010
0100
0000
0110
0000
1000
0000
0010
1000
,
0000
0010
0001
0000
0010
0100
0001
0000
0010
0100
1000
0000
0100
0000
0010
0001
,
0000
0010
1000
0000
0010
0001
1000
0000
0010
1000
0001
0000
0100
0000
0010
1000
,
0000
0010
0001
0000
1000
0100
0010
0000
0001
0010
0100
0000
1000
0000
0100
0001
,
0000
0100
1000
0000
0001
0000
0010
0000
1000
0000
0100
0000
0020
0000
0000
0000
,
0031
0010
1000
0010
0001
0100
2000
0000
,
3001
0010
1000
0100
0001
0100
0010
0110
,
0000
1010
0000
0011
0000
0110
0001
1000
,
0010
0000
0100
0000
2002
0000
0000
0000
3003
0000
0000
0000
0100
0000
0001
0010
,
0000
0010
1000
0000
0010
0100
0001
0000
0100
1000
0010
0000
1000
0000
0100
0010
,
0000
0010
0100
0000
1000
0010
0100
0000
0001
0010
0100
0000
0010
0000
0001
0010
,
0000
0010
0001
0000
1100
0000
0000
0000
0011
0000
0000
0000
0110
0000
0100
1000
,
0000
0100
0001
0000
0100
0010
0001
0000
0100
0010
1000
0000
2000
0000
0000
3100
,
0020
0000
0000
0130
2000
0000
0000
3100
0002
0000
0000
0103
0020
0000
0000
0130
,
2000
0000
0000
3100
0002
0000
0000
0103
2000
0000
0000
0000
3001
0000
0100
0010
,
0000
1000
0001
0000
0010
0000
1000
0000
0010
0000
0001
0000
0100
0000
0000
0000
,
1000
0000
0010
0000
0001
0000
0010
0000
0100
0010
0000
0110
0000
0000
0101
0000
0000
0000
1010
0000
0000
0000
0011
0000
0001
0010
0001
0000
0000
0000
1001
0000
,
0000
0000
0001
0000
0100
0000
0010
0000
1000
0010
0000
1010
0000
0000
0101
0000
0000
0000
0011
0000
0000
0000
0110
0000
0000
0000
1100
0000
0000
0000
0101
0000
,
0000
0000
1000
0000
0100
0000
0010
0000
0001
0010
0000
0011
0000
0000
0101
0000
,
0000
0000
0100
0000
0010
0000
1000
0000
0100
1000
0100
0000
0000
0000
1010
0000
,
0000
0000
0100
0000
0010
0000
0100
0000
0010
1000
0000
1001
0000
0000
0110
0000
,
0001
0010
0000
0100
1000
0000
0010
0100
0000
0001
1000
0000
1001
0000
0000
0000
,
1000
0000
0100
0000
0010
0000
0001
0000
1000
0100
0010
0001
0000
0100
0010
0000
,
1000
0000
0010
0000
0001
0000
0010
0000
1000
0100
0010
0001
0000
0100
0010
0000
,
0001
0000
0010
0000
1000
0000
0100
0000
1000
0100
0010
0001
0000
0100
0010
0000
,
0100
0001
0100
0010
1000
0010
0100
0001
0010
0001
0100
0010
0000
1000
0001
0000
,
1000
0000
0100
0000
0010
0100
0010
0000
0001
0100
0000
0010
1000
0000
0100
0010
,
0001
0000
0100
0000
0010
0000
1000
0000
0001
0100
0000
0010
1000
0000
0100
0010
,
0001
0010
0001
0100
0010
1000
0100
1000
0100
1000
0010
0100
0001
0100
0010
1000
,
0001
0000
0000
0000
0100
0000
0001
0100
0001
0000
0010
0000
0100
1000
0100
0000
,
0010
0100
0010
0000
0001
0000
1000
0100
1000
0000
0010
0000
0100
0001
0100
0000
,
0010
0100
0010
0000
1000
0000
0001
0100
0001
0000
0100
0000
0010
0100
0010
0000
,
1000
0100
1000
0000
0001
0000
1000
0100
1000
0000
0100
0000
0010
0100
0010
0000
,
0001
0100
0001
0000
1000
0000
0010
0100
0010
0000
0001
0000
0010
0100
0010
0000
,
1000
0100
1000
0000
0100
0000
0010
0100
0010
0000
1000
0000
0010
0100
0010
0000
,
0001
0010
0001
0000
1000
0000
0010
0100
0000
0100
0001
0000
0001
0010
0000
0010
,
0100
0000
1000
0000
0001
0000
2000
0000
0000
3200
0000
0000
0320
0000
0000
0032
,
0000
0000
1003
0000
0001
0000
0010
1000
0000
0010
0001
0000
0001
1000
0000
0001
,
0100
0000
1010
0000
0100
0000
0001
0010
0000
0001
0100
0000
0100
0010
0000
0100
,
1000
0000
0101
0000
1000
0000
0100
0001
0000
0100
1000
0000
1000
0001
0000
1000
,
0010
0000
0101
0000
0010
0000
1000
0100
0000
1000
0010
0000
0010
0100
0000
0010
,
0001
1010
1001
0000
0100
0000
0110
0000
,
0010
1001
0100
1001
,
0010
0000
1000
0100
0010
0001
0100
0010
,
1000
0001
1001
0000
0000
0000
0000
0000
,
0000
0000
0000
0000
;
#NOTES:
     dance-double:
     :
     Easy:
     8:
     :
00000000
00000000
00000000
00000000
,
00000000
00000000
00000000
00000000
,
00000000
00000000
00000000
00000000
,
00000000
00000000
00000000
00000000
,
00000000
00000000
00000000
00000000
,
00000010
00000100
00000001
00001000
,
00010000
00100000
01000000
10000000
,
00100000
10000000
00010000
01000000
,
10010000
00010000
00100000
00010000
,
00001000
00000100
00000010
00000001
,
00001000
00000010
00000100
00000001
,
00000010
00000100
00010000
00001000
,
00011000
00100000
01000000
00100000
,
00010000
01000000
00001000
00010000
,
00000100
00000010
00000001
00001000
,
00000100
00000010
00000100
00010000
,
00011000
00000000
00001000
00000000
00010000
00000000
00001000
00010000
,
00001000
00000000
00100000
00000000
01000000
00000000
10000000
01000000
,
10000000
00000000
00100000
00000000
01000000
00000000
00010000
01000000
,
00010000
00000000
00100000
00000000
00001000
00000000
00001000
00010000
,
00001000
00010000
00000010
00001000
,
00000100
00010000
01000000
00100000
,
01000000
01100000
10010000
00002000
,
00000000
00000000
00000000
00000000
00003000
00000000
00001000
00010000
,
00001000
00000000
00010000
00000000
00000010
00000000
00001000
00000100
,
00001000
00000000
00000010
00000000
00000100
00000000
00000001
00000100
,
00000001
00001000
00000100
00020000
,
00000000
00030000
00000000
00200000
,
01300000
00010000
00001000
00000020
,
00000130
00010000
00001000
00010000
,
00010000
00001000
00001000
00100000
,
01000000
10010000
00000000
00010000
,
00100000
00000000
00001000
00010000
00000100
00000000
00001000
00000000
,
00000010
00000000
00010000
00001000
01000000
00000000
00010000
00000000
,
10000000
00010000
01000000
00200000
,
00000000
00300000
00000000
10000000
,
00100000
00010000
00001000
00000010
,
00000001
00000100
00001000
00010000
,
00000100
00001000
01000000
00011000
,
10000000
01000000
00010000
00000000
00001000
00000100
00000001
00000000
,
00000001
00000010
00001000
00000000
00010000
01000000
10000000
00000000
,
20000000
31000000
00020000
01030000
,
00200000
00301000
00000200
00010300
,
00002000
00003010
00000002
00000013
,
00000020
00000130
00000200
00010300
,
00001000
00010000
00001000
00000000
01000000
00000000
00100000
00000000
,
00010000
01000000
00010000
00000000
00100000
00000000
00001000
00000000
,
00010000
00001000
00010000
00000000
00000100
00000000
00000010
00000000
,
00000001
00000100
00000001
00000000
00001000
00000000
00000010
00000000
,
00000100
00001000
00000100
00000000
00010000
00000000
00001000
00000000
,
00010000
00100000
00010000
00000000
00100000
00000000
01000000
00000000
,
10000000
01000000
10000000
00000000
00100000
01000000
00010000
00000000
,
00022000
00033000
00000000
00000000
00000000
00000000
00000000
00000000
00000000
00000000
00000000
00000000
00000000
00000000
00000000
00000000
00010000
00000000
00000000
00000000
00000000
00000000
00000000
00000000
00000000
00000000
00000000
00000000
00000000
00000000
00000000
00000000
00001000
00000000
00000000
00000000
00000000
00000000
00000000
00000000
00000000
00000000
00000000
00000000
00000000
00000000
00000000
00000000
00010000
00000000
00000000
00000000
00000000
00000000
00000000
00000000
00001000
00000000
00000000
00000000
00000000
00000000
00000000
00000000
,
00010000
00000000
00000100
00000000
00000010
00000000
00000001
00000010
,
00000001
00000000
00000100
00000000
00000010
00000000
00001000
00000010
,
00001000
00000000
00000100
00000000
00010000
00000000
00010000
00001000
,
00010000
00001000
00100000
01000000
,
00100000
00001000
00010000
00000010
,
00000100
00000000
00000010
00000100
00001000
00000000
00000001
00000010
,
00000100
00000010
00000100
00010000
,
00011000
00000000
00001000
00000000
00010000
00000000
00001000
00010000
,
01000000
00000000
10000000
00000000
01000000
00000000
00100000
00010000
,
01000000
00000000
00010000
00000000
00001000
00000000
00010000
00001000
,
00000100
00000000
00000001
00000000
00000100
00000000
00000010
00000001
,
00000100
00000002
00000103
00002000
,
00003100
00020000
00031000
00002000
,
00013000
00000000
00010000
00001000
00000100
00000000
00001000
00010000
,
01000000
20020000
00000000
00000000
,
30030000
00000000
00000000
00000000
,
00000000
00000000
00000000
00000000
;
#NOTES:
     dance-double:
     :
     Medium:
     11:
     :
00000000
00000000
00000000
00000000
,
00000000
00000000
00000000
00000000
,
00000000
00000000
00000000
00000000
,
00000000
00000000
00000000
00000000
,
00000000
00000000
00000000
00000000
,
00000001
00000010
00000100
00000000
00001000
00000100
00010000
00000000
,
00001000
00100000
01000000
00000000
10000000
00010000
01000000
00000000
,
00010000
01000000
00100000
10000000
01000000
00100000
00010000
00000000
,
10010000
00000000
00100000
10000000
01000000
00000000
00100000
00010000
,
01000000
00000000
00010000
01000000
00100000
00000000
00100000
01000000
,
00001000
00000000
00100000
00001000
00010000
00000000
00000100
00001000
,
00010000
00000000
01000000
00010000
00001000
00000000
00010000
00001000
,
00000100
00000000
00000010
00001000
00000001
00000000
00000010
00000100
,
00001000
00000000
00000010
00000100
00000001
00000000
00001000
00000001
,
00000100
00000000
00000010
00001000
00000100
00000000
00000010
00000001
,
00000100
00000000
00000000
00000000
00000100
00000000
00000002
00000000
00000000
00000203
00000000
00000000
00002300
00000000
00000000
00023000
,
00000000
00030100
00010000
00000100
00000010
00000000
00000001
00001000
,
00000100
00000000
00010000
00001000
01000000
00000000
00100000
00010000
,
00001000
00000000
00010000
00001000
00000010
00000000
00000001
00001000
,
00000100
00000000
00001000
00000010
00000100
00000000
00000001
00000010
,
00000100
00000000
00000001
00000100
00001000
00000000
00010000
01000000
,
10000000
00000000
10000000
00100000
00010000
00000000
00001000
00000010
,
00000001
00000000
00000000
00000000
00001100
00000000
00000000
00000000
00110000
00000000
00000000
00000000
00200000
00000000
00000000
00320000
,
00000000
00000000
20030000
00000000
00000000
32000000
00000000
00000000
03100000
00000000
00000000
00000000
00010000
00000000
01000000
00000000
,
00001000
00100000
00010000
00000000
01000000
00000000
00001000
00010000
,
00001000
00000100
00000000
00000001
00000001
00000000
00000010
00000100
,
00010000
00010100
00011000
00202000
,
00303000
00000000
00001000
00100000
01000000
00000000
20000000
00000000
,
31000000
00000000
00100000
01000000
00001000
00000000
00020000
00000000
,
00031000
00000000
00001000
00000100
00000010
00000000
00000001
00000010
,
00000000
00000100
00000000
00000010
00000000
00001000
00010000
01000000
,
10000000
00100000
02000000
00000000
03000000
00000000
20000000
00000000
,
31000000
00000000
00100000
00001000
01000000
00000000
00002000
00000000
,
00013000
00000000
00001000
00000100
00000001
00000000
00001000
00000100
,
00000001
00000100
00002000
00000000
00003002
00000000
00000203
00000000
,
00000300
00000000
00000010
00000100
00000010
00000000
00000001
00000000
,
00000011
00000100
00001100
00010000
,
00011000
00000000
00100000
00000000
00110000
00000000
10000000
00010000
,
01000000
00000000
00010000
10000000
01000000
00000000
01100000
00000000
,
00000000
10000000
00000000
11000000
00000000
00100000
01000000
00010000
00000000
00100000
00000000
00110000
00000000
00100000
00010000
00001000
,
00000000
00010000
00000000
00011000
00000000
00001000
00000100
00000001
00000000
00001000
00000000
00000010
00000000
00000100
00000000
00000001
,
00000010
00000001
00001000
00000010
,
00010000
00001000
00100000
01000000
,
00100000
00010000
10000000
01000000
,
20000000
00000000
00000000
30100000
,
10000000
00000000
00100000
00000000
10000000
00000000
00100000
00000000
01000000
00000000
00000000
00010000
00000000
00000000
00100000
00000000
,
00001000
00000000
00010000
00000000
00000100
00000000
00010000
00000000
00001000
00000000
00000000
00010000
00000000
00000000
00001000
00000000
,
00000100
00000000
00000001
00000000
00000010
00000000
00000001
00000000
00000010
00000000
00000000
00000100
00000000
00000000
00001000
00000000
,
00000010
00000000
00000100
00000000
00000001
00000000
00000010
00000000
00000011
00000000
00000000
00000110
00000000
00000000
00001100
00000000
,
00000100
00000000
00010000
00000000
00001000
00000000
00010000
00000000
01000000
00000000
00000000
10000000
00000000
00000000
00100000
00000000
,
10000000
00000000
00100000
00000000
01000000
00000000
00010000
00000000
00100000
00000000
00000000
00001000
00000000
00000000
00010000
00000000
,
00001000
00000100
00000001
00000000
00000010
00000100
00001000
00000000
,
00001001
00000000
00000001
00000010
00001000
00000010
00000100
00000000
,
00001000
00000000
00000001
00000100
00001000
00000100
00000010
00000000
,
00001000
00000000
00000100
00010000
00001000
00100000
01000000
00000000
,
10000000
00000000
00010000
01000000
00100000
10000000
01000000
00000000
,
00100000
00000000
00010000
00000100
00000010
00002000
00000000
00003002
,
00000000
00000023
00000000
00002030
00000000
00003020
00000000
00000032
,
00000000
00000103
00000010
00001000
00000100
00000000
00000010
00000001
,
00000100
00000000
00000000
00000000
00000001
00000000
00000200
00000000
00000000
00002300
00000000
00000000
00023000
00000000
00000000
02030000
,
00000000
13000000
00100000
10000000
01000000
10000000
00100000
01000000
,
00010000
00000000
01000000
00010000
00100000
00001000
00000100
00000010
,
00001000
00000000
00000001
00000010
00001000
00000010
00000001
00000100
,
00001000
00000000
00000001
00000010
00001000
00000001
00000100
00001000
,
00010000
00020000
00130000
20000000
,
31000000
02000000
03100000
00020000
,
10030000
00000000
10000000
01000000
00010000
00001000
00000100
00000001
,
00000010
00000100
00002000
00000000
00000000
00000000
00000000
00000000
,
00003000
00000000
00000000
00000000
,
00000000
00000000
00000000
00000000
;
#NOTES:
     dance-double:
     :
     Hard:
     14:
     :
00000000
00000000
00000000
00000000
,
00000000
00000000
00000000
00000000
,
00000000
00000000
00000000
00000000
,
00000000
00000000
00000000
00000000
,
00000000
00000000
00000000
00000000
,
10000000
00000000
01000000
00100000
00000000
00000000
01000000
00000000
00100000
00000000
00010000
01000000
00000000
00000000
00001000
00000000
,
00000100
00000000
00000010
00000100
00000000
00000000
00000001
00000000
00000100
00000000
00000001
00001000
00000000
00000000
00000001
00000000
,
00000100
00001000
00010000
01000000
10000000
00100000
00010000
00001000
,
00000020
00000030
00000000
00000000
00000000
00000000
00000000
00000000
00000000
00000000
00000000
00000000
00000000
00000000
00000000
00000000
00000001
00000000
00000000
00000000
00000000
00000000
00000000
00000000
00000100
00000000
00000000
00000000
00000000
00000000
00000000
00000000
00001000
00000000
00000000
00000000
00000000
00000000
00000000
00000000
00000100
00000000
00000000
00000000
00000000
00000000
00000000
00000000
00000001
00000000
00000000
00000000
00000000
00000000
00000000
00000000
00000010
00000000
00000000
00000000
00000000
00000000
00000000
00000000
,
00000100
00000000
00000100
00000001
00000100
00010000
00001000
00100000
,
01000000
00000000
10000000
00100000
00010000
00100000
10000000
01000000
,
00010000
00000000
01000000
10000000
00010000
01000000
00001000
00000100
,
00000010
00000000
00001000
00000010
00000001
00000010
00001000
00000100
,
00000010
00000000
00000100
00010000
00001000
00010000
01000000
00100000
,
00010000
00000000
10000000
00100000
00010000
00100000
00010000
00001000
,
00000100
00000000
00000001
00000000
00000000
00000000
00000002
00000000
00000000
00002003
00000000
00000000
00003020
00000000
00000000
00000230
,
00000000
00000301
00000010
00000001
00000100
00001000
00000100
00000001
,
00000010
00000100
00000001
00001000
00000001
00000100
00001000
00000100
,
00010000
01000000
00100000
00010000
10000000
01000000
00100000
00010000
,
00100000
10000000
00010000
01000000
10000000
00100000
01000000
00010000
,
00000100
00000010
00001000
00000001
00000010
00000001
00000100
00001000
,
00000100
00000001
00000010
00001000
00000010
00000001
00000010
00000100
,
00001000
00000000
00000010
00000000
00010010
00000000
00000000
00000000
00101000
00000000
00000000
00000000
00100000
00000000
00000000
01000000
,
00020000
00000000
00031000
00000000
00000000
00000100
00000001
00000100
00000001
00000000
00001000
00000000
00000001
00000000
00000010
00000001
,
00000000
00000010
00000001
00000000
00000100
00000000
00001000
00000000
00000100
00000000
00000001
00000000
00000010
00000000
00000100
00000010
,
00000000
00000100
00000010
00000000
00001000
00000000
00010000
00000000
01000000
00000000
00100000
00000000
00010000
00000000
00100000
00010000
,
00000000
00100000
00010000
00000000
10000000
00000000
00100000
00000000
01000000
00000000
10000000
00000000
01000000
00000000
00010000
01000000
,
00000000
00010000
01000000
00000000
00001000
00000000
00010000
00000000
00000100
00000000
00000010
00000000
00000002
00000000
00000000
00000000
,
00000103
00000010
00001000
00010000
01000000
00100000
20000000
00000000
,
30010000
00100000
10000000
00100000
01000000
00010000
00001000
00101000
,
00000000
00011000
00000000
00010010
00000000
00000110
00000001
00000010
,
00000100
00000000
00001000
00000000
00002002
00000000
00000000
00000000
00000000
00000000
00003003
00000000
00001000
00000000
00000010
00000100
,
00000000
00000100
00000010
00000000
00001000
00000000
00000100
00000000
00000110
00000000
00000000
00000000
00000001
00000000
00000100
00000000
,
00001000
00000000
00000000
00000000
00010000
00000000
01000000
00000000
10000000
00000000
00000000
00000000
00010000
00000000
00100000
01000000
,
00000000
01000000
00100000
00000000
00010000
00000000
01000000
00000000
01100000
00000000
00000000
00000000
10000000
00000000
00100000
00000000
,
00010000
00000000
00001000
00000010
00000001
00000000
00000011
00000000
,
00000101
00001010
00001100
00110000
,
01010000
00000000
00000000
00000000
10100000
00000000
00000000
00000000
11000000
00000000
00000000
00000000
00010000
00000000
00100000
01000000
,
00000000
00100000
00001000
00000000
00010000
00000000
00001000
00000000
00000010
00000000
00000001
00000000
00000010
00000000
00000000
00000000
,
00000000
00000000
00000001
00000000
00000000
00000000
00000100
00000000
00000001
00000100
00000001
00000000
00000000
00000000
00000101
00000000
00000000
00000000
00001000
00000000
00000000
00000000
00000100
00000000
00001000
00000100
00001000
00000000
00000000
00000000
00001100
00000000
,
00000000
00000000
00010000
00000000
00000000
00000000
00001000
00000000
00010000
00001000
00010000
00000000
00000000
00000000
00011000
00000000
00000000
00000000
00110000
00000000
00000000
00000000
10100000
00000000
00000000
00000000
01010000
00000000
00000000
00000000
11000000
00000000
,
10000000
00100000
01000000
00000000
01000000
00010000
00100000
00000000
,
00100000
00001000
00010000
00000000
00010000
00000010
00000100
00000000
,
00000100
00000001
00000010
00000100
00001000
00000010
00000100
00000001
,
00002000
00000000
00000000
00000001
,
00003001
00000000
00000010
00000000
00000100
00000000
00000010
00000000
00000001
00000000
00000010
00000001
00000000
00000000
00000011
00000000
,
00000001
00000000
00000100
00000000
00001000
00000000
00000100
00000000
00000001
00000000
00000010
00001000
00000000
00000000
00001010
00000000
,
00000010
00000000
00001000
00000000
00010000
00000000
01000000
00000000
10000000
00000000
01000000
10000000
00000000
00000000
11000000
00000000
,
10000000
00000000
00100000
00000000
00010000
00000000
00100000
00000000
01000000
00000000
00010000
00100000
00000000
00000000
00110000
00000000
,
00010000
00100000
10000000
00100000
00010000
01000000
00001000
00000100
,
00000010
00001000
00000001
00000010
00000100
00001000
00000001
00000010
,
00000001
00000000
00000010
00000001
00000010
00000000
00000100
00001000
00000100
00000000
00010000
00001000
00010000
00000000
00001000
00010000
,
02000000
03000000
00000000
00000000
00000000
00000000
00000000
00000000
00000000
00000000
00000000
00000000
00000000
00000000
00000000
00000000
00100000
00000000
00000000
00000000
00000000
00000000
00000000
00000000
00010000
00000000
00000000
00000000
00000000
00000000
00000000
00000000
01000000
00000000
00000000
00000000
00000000
00000000
00000000
00000000
10000000
00000000
00000000
00000000
00000000
00000000
00000000
00000000
01000000
00000000
00000000
00000000
00000000
00000000
00000000
00000000
00010000
00000000
00000000
00000000
00000000
00000000
00000000
00000000
,
00000100
00000010
00001000
00000100
00000010
00000001
00000010
00001000
,
00000010
00000100
00000001
00000100
00001000
00000010
00000100
00000001
,
00000100
00001000
00010000
00100000
00010000
00001000
00000100
00000010
,
00001000
00000100
00010000
01000000
00100000
00010000
01000000
00100000
,
10000000
01000000
00010000
01000000
10000000
00100000
00010000
00001000
,
00010000
00100000
01000000
00100000
10000000
00010000
00100000
10000000
,
00010000
01000000
00001000
00000100
00000010
00001000
00000001
00000100
,
00002000
00000000
00000000
00000000
00003001
00000000
00001000
00000010
00000000
00001000
00000100
00000000
00000010
00000001
00000000
00000100
,
00000001
00000000
00000100
00000000
00001000
00000000
00010000
00001000
00000000
00100000
00010000
00000000
00100000
00001000
00000000
00010000
,
00000010
00000000
00001000
00000000
01000000
00000000
00100000
00010000
00000000
10000000
01000000
00000000
10000000
00100000
00000000
01000000
,
00010000
00000000
00100000
00000000
00010000
00000000
01000000
00001000
00000000
00010000
00001000
00000000
00100000
00001000
00000000
00010000
,
00000010
00000100
00000020
00000000
00000130
00000000
00002000
00000000
,
00013000
02000000
03100000
00020000
,
00031000
00000000
00001000
00010000
01000000
00010000
00001000
00000100
,
00000010
00000001
00000020
00000000
00000000
00000000
00000000
00000000
,
00000030
00000000
00000000
00000000
,
00000000
00000000
00000000
00000000
;
#NOTES:
     dance-double:
     :
     Challenge:
     16:
     :
00000000
00000000
00000000
00000000
,
00000000
00000000
00000000
00000000
,
00000000
00000000
00000000
00000000
,
00000000
00000000
00000000
00000000
,
00000000
00000000
00000000
00000000
,
00100000
00000000
10000000
01000000
00000000
10000000
00100000
00000000
01000000
00000000
00001000
00100000
00000000
00001000
00010000
00000000
,
00000100
00000000
00001000
00000010
00000000
00001000
00000100
00000000
00000010
00000000
00000001
00000100
00000000
00000001
00001000
00000000
,
00000001
00000000
00000000
00000100
00000010
00000000
00000000
00010000
00000010
00000000
00000000
00000100
00001000
00000000
00000000
00010000
,
00100000
00000000
00000000
00000000
01000000
00000000
00010000
01000000
00010000
00000000
00100000
00000000
01000000
10000000
01000000
00000000
,
00100000
01000000
00100000
00000000
00010000
00000000
01000000
00001000
01000000
00000000
00100000
00000000
00010000
00000000
00001000
00000000
,
00000010
00000000
00000001
00000000
00000100
00000000
00000001
00000010
00000001
00000000
00000010
00000000
00000100
00000010
00000100
00000000
,
00001000
00000010
00001000
00000000
00000001
00000000
00001000
00000100
00001000
00000000
00000010
00000000
00000100
00000000
00001000
00000000
,
00010000
00000000
00100000
00000000
10000000
00000000
00100000
01000000
00100000
00000000
00010000
00000000
00100000
01000000
00100000
00000000
,
10000000
01000000
10000000
00000000
01000000
00000000
00100000
01000000
00100000
00000000
10000000
00000000
00100000
01000000
00100000
00000000
,
00010000
00100000
00010000
00000000
00100000
00000000
00001000
00010000
00000000
00010000
00000100
00000000
00000100
00001000
00000000
00001000
,
00000010
00000000
00000100
00000000
00000001
00000000
00001000
00000000
00000100
00010000
00000000
00010000
00001000
00000000
00001000
00100000
,
00000000
00100000
01000000
00000000
10000000
00000000
00010000
01000000
00010000
00000000
00100000
00000000
01000000
10000000
01000000
00000000
,
00100000
01000000
00100000
00000000
00001000
00000000
00010000
00001000
00010000
00000000
00000010
00000000
00000100
00000000
00000001
00000000
,
00000010
00000000
00000100
00000000
00001000
00000000
00000001
00000100
00000001
00000000
00000100
00000000
00000010
00000100
00000010
00000000
,
00001000
00000100
00001000
00000000
00000001
00000000
00001000
00000100
00001000
00000000
00000010
00000000
00000100
00000000
00001000
00000000
,
00010000
00000000
00100000
00000000
10000000
00000000
00100000
01000000
00100000
00000000
00010000
00000000
00100000
01000000
00100000
00000000
,
10000000
00000000
01000000
00000000
00010000
00000000
00001000
00010000
00001000
00000000
00000010
00000000
00001000
00010000
00001000
00000000
,
00000100
00000000
00000001
00000000
00000101
00000000
00000000
00000000
00001010
00000000
00000000
00000000
00110000
00000000
00000000
11000000
,
00000000
00000000
01100000
00000000
00000000
00100000
01000000
00100000
01000000
00000000
01100000
00000000
10000000
00000000
01000000
00010000
,
00000000
01000000
10000000
00000000
00100000
00010000
00001000
00000000
00010000
00001000
00000100
00000000
00001000
00000000
00000100
00000001
,
00000000
00000100
00001000
00000000
00000100
00000001
00001000
00000000
00000001
00001000
00000100
00000000
00001000
00000000
00000010
00000000
,
00000001
00000000
00000010
00000000
00001000
00000100
00000010
00000000
00000001
00000100
00000010
00000000
00000100
00000000
00001000
00000000
,
00010000
00100000
10000000
00100000
10000000
01000000
00200000
00000000
,
00301000
00010000
00000100
00001000
00000010
00000000
00000002
00000000
,
00000013
00001000
00000100
00010000
00001000
00000000
00100000
01100000
,
00000000
11000000
00000000
01010000
00000000
01100000
00010000
10000000
,
00100000
00000000
01000000
00000000
20020000
00000000
00000000
00000000
30030000
00000000
00000000
00000000
00100000
00000000
10000000
01000000
,
00000000
01000000
00010000
00000000
01000000
10000000
00010000
00000000
01000000
00010000
10000000
00000000
00100000
00000000
00010000
00001000
,
00000000
00001000
00010000
00000000
00001000
00000100
00000010
00000000
00001000
00000100
00000010
00000000
00000001
00000000
00000010
00000000
,
00001000
00000000
00000010
00000000
00000110
00000000
00000000
00000000
00000011
00000000
00000000
00000000
00000110
00000000
00001000
00000010
,
00000000
00001000
00010000
00000000
01000000
00000000
10000000
00000000
00100000
01000000
00100000
00000000
20000000
00000000
00000000
31000000
,
00200000
00000000
00000000
00310000
02000000
00000000
00000000
03100000
00020000
00000000
00000000
00031000
00000200
00000000
00000000
00000310
,
00002000
00000000
00000000
00003100
00000020
00000000
00000000
00000031
00000200
00000000
00000000
00000000
00000301
00000000
00000100
00000010
,
00000000
00001000
00000100
00000000
00010000
00000000
00001000
00000000
01000000
00000000
00100000
00000000
10000000
00000000
00000000
00000000
,
10000000
00000000
00100000
00000000
00010000
00000000
00100000
00000000
01000000
00100000
00000000
01100000
00000000
00000000
00110000
00000000
00000000
00000000
00010000
00000000
00001000
00000000
00000100
00000000
00000010
00000100
00000010
00000000
00000000
00000000
00001001
00000000
,
00000000
00000000
00000001
00000000
00000010
00000000
00000100
00000000
00010000
00001000
00000000
00011000
00000000
00000000
00100000
00000000
00010000
00000000
01000000
00000000
00000000
00000000
01100000
00000000
00000000
00000000
11000000
00000000
00000000
00000000
01010000
00000000
,
00000000
00000000
10000000
00000000
00100000
00000000
01000000
00000000
00010000
00100000
00000000
00110000
00000000
00000000
01010000
00000000
,
00000000
00000000
00100000
00000000
00001000
00000000
00010000
00000000
00000100
00000010
00000100
00000000
00000000
00000000
00000101
00000000
,
00000000
00000000
00000100
00000000
00000010
00000000
00001000
00000000
00000100
00001000
00000000
00001001
00000000
00000000
00001001
00000000
,
00000001
00000100
00000000
00000010
00001000
00000000
00000010
00010000
00000000
00001000
00010000
00000000
00011000
00000000
00000000
00000000
,
00100000
00000000
00010000
00000000
10000000
00000000
01000000
00000000
00100000
00010000
10000000
01000000
00000000
00100000
01000000
00000000
,
10000000
00000000
00100000
00000000
01000000
00000000
00001000
00000000
00100000
00001000
00010000
00000100
00000000
00010000
00001000
00000000
,
00000010
00000000
00000001
00000000
00001000
00000000
00000100
00000000
00000010
00000001
00001000
00000100
00000000
00000010
00000001
00000000
,
00001000
00000000
00000001
00000000
00000100
00000000
00001000
00000000
00010000
00001000
01000000
00010000
00000000
10000000
00010000
00000000
,
10000000
00000000
01000000
00000000
00100000
01000000
00100000
00000000
00001000
00010000
00000000
00001000
00010000
00000000
00000100
00000000
,
00001000
00000000
00000010
00000000
00000100
00000000
00000001
00000000
00000010
00000001
00000000
00001000
00000100
00000000
00000010
00000000
,
00000001
00001000
00000100
00000010
00000100
00001000
00000100
00000000
00010000
00001000
00100000
00010000
00100000
00001000
00010000
00000100
,
00001000
00000000
00000000
00000000
00000010
00000000
00001000
00000010
00001000
00000000
00000100
00000000
00000010
00000001
00000010
00000000
,
00000100
00000010
00000100
00000000
00001000
00000000
00000010
00010000
00000010
00000000
00000100
00000000
00001000
00000000
00010000
00000000
,
01000000
00000000
10000000
00000000
00100000
00000000
10000000
01000000
10000000
00000000
01000000
00000000
00100000
01000000
00100000
00000000
,
00010000
01000000
00010000
00000000
10000000
00000000
00010000
00100000
00010000
00000000
01000000
00000000
00100000
00000000
00010000
00000000
,
00001000
00000000
00000100
00000000
00000001
00000000
00000100
00000010
00000100
00000000
00001000
00000000
00000100
00000010
00000100
00000000
,
00000001
00000010
00000001
00000000
00000010
00000000
00000100
00000010
00000100
00000000
00000001
00000000
00000100
00000010
00000100
00000000
,
00001000
00000100
00001000
00000000
00000100
00000000
00010000
00001000
00000000
00001000
00100000
00000000
00100000
00010000
00000000
00010000
,
01000000
00000000
00100000
00000000
10000000
00000000
02000000
00000000
00000000
03200000
00000000
00000000
00320000
00000000
00000000
00032000
,
00000000
00000000
00003100
00000000
00000010
00000000
00000001
00000010
00000000
00001000
00000010
00000000
00000001
00001000
00000000
00000001
,
00000100
00000000
00001001
00000000
00000100
00000000
00010000
00001000
00000000
00100000
00010000
00000000
01000000
00100000
00000000
10000000
,
00100000
00000000
10010000
00000000
01000000
00000000
00010000
01000000
00000000
00001000
00010000
00000000
00000100
00001000
00000000
00000100
,
00000010
00000000
00000011
00000000
00000100
00000000
00001000
00000010
00000000
00000100
00000010
00000000
00000001
00000010
00000000
00001000
,
00010000
00001000
00011000
00000000
01000000
00000000
01100000
00000000
,
00010000
00011000
00000100
00001001
,
00000010
00000000
00000001
00000100
00000010
00001000
00010000
01000000
,
00100000
10000000
10010000
00000000
00000000
00000000
00000000
00000000
,
00000000
00000000
00000000
00000000
;
