
//----- song ID: meii -----//
#TITLE:冥;
#ARTIST:Amuro vs Killer;
#TITLETRANSLIT:Mei;
#BANNER:Mei.png;
#BACKGROUND:Mei-bg.png;
#CDTITLE:./CDTitles/bm IIDX 12 HAPPY SKY.png;
#MUSIC:Mei.ogg;
#SAMPLESTART:21.59;
#SAMPLELENGTH:15;
#DISPLAYBPM:66:200;
#BPMS:0=200,200=100,216=110,220=120,224=130,228=140,232=150,236=160,240=170,244=180,248=190,252=200,256=189.8,260=200,370=180,372=174.3,376=165.138,378=107.143,379=128.571,380=109.756,381=90,382=66.055;
#NOTES:
     dance-single:
     :
     Beginner:
     3:
     :
0000
0000
0000
0000
,
0000
0000
0000
0000
,
0000
0000
0000
0000
,
0000
0000
0000
0000
,
0000
0000
0000
0000
,
0000
0000
0000
0000
,
0000
0000
0000
0000
,
0000
0000
0000
0000
,
0000
0000
0000
0000
,
0000
0000
0000
0000
,
0100
0000
0000
0000
,
0010
0000
0000
0000
,
1000
0000
0000
0000
,
0001
0000
0000
0000
,
0100
0000
0000
0000
,
0010
0000
0000
0000
,
1000
0000
0000
0000
,
0000
0000
0000
0000
,
1000
0000
0000
0000
,
1000
0000
0000
0000
,
0001
0000
0000
0000
,
0001
0000
0000
0000
,
0010
0000
0000
0000
,
0001
0000
0000
0000
,
0100
0000
0000
0000
,
1000
0000
0000
0000
,
0100
0100
0000
0000
,
0001
0001
0000
0000
,
0100
0100
0000
0000
,
1000
1000
0000
0000
,
0010
0010
0000
0000
,
0001
0001
0000
0000
,
1000
1000
0000
0000
,
1001
0000
0000
0000
,
1000
0000
1000
0000
,
1000
0000
0000
0000
,
0001
0000
0001
0000
,
0001
0000
0000
0000
,
1000
0000
1000
0000
,
0001
0000
0001
0000
,
0100
0000
0000
0000
,
0010
0000
0000
0000
,
0001
0000
0001
0000
,
0010
0000
0000
0000
,
0100
0000
0100
0000
,
1000
0000
0000
0000
,
0001
0000
0001
0000
,
1000
0000
1000
0000
,
0010
0000
0010
0000
,
0010
0000
0000
0000
,
0010
0000
0000
0000
,
1000
0000
0100
0000
,
0001
0000
0000
0000
,
0001
0000
0100
0000
,
1001
0000
0000
0000
,
1001
0000
0000
0000
,
1001
0000
0000
0000
,
1001
0000
0000
0000
,
0100
0000
0100
0000
,
0100
0000
0100
0000
,
0010
0000
0010
0000
,
0010
0010
0010
0010
,
1000
0001
1000
0001
,
1000
0000
0000
0000
,
0000
0000
0000
0000
,
1001
0000
1000
1000
,
1000
0000
1000
0000
,
0010
0000
0010
0000
,
0001
0000
0001
0000
,
0100
0000
0000
0000
,
0010
0000
0010
0000
,
0010
0000
0100
0000
,
1000
0000
0100
0000
,
0001
0000
1000
1000
,
0000
0000
0100
0100
,
0000
0000
0010
0010
,
0000
0000
0001
0001
,
0001
0000
0001
0000
,
0100
0000
1000
0000
,
0100
0000
0100
0000
,
0010
0010
0010
0000
,
1000
0000
0001
0000
,
1000
1000
1000
0000
,
0100
0000
0010
0000
,
0100
0000
0010
0000
,
0100
0000
0010
0000
,
0000
0000
0001
0000
,
0001
0000
0010
0010
,
0010
0000
1000
0000
,
1001
0000
0000
0000
,
0000
0000
0000
0000
,
0110
0000
0000
0000
,
0000
0000
0000
0000
,
1000
0000
0100
0000
,
0001
0000
0000
0000
,
2000
0000
0000
3000
,
0000
0000
0000
0000
;
#NOTES:
     dance-single:
     :
     Easy:
     7:
     :
0000
0000
0000
0000
,
0000
0000
0000
0000
,
0000
0000
0000
0000
,
0000
0000
0000
0000
,
0000
0000
0000
0000
,
0000
0000
0000
0000
,
0000
0000
0000
0000
,
0000
0000
0000
0000
,
0000
0000
0000
0000
,
0000
0000
0000
0000
,
0100
0000
0010
0000
,
1000
0001
0100
0000
,
0100
0000
0010
0000
,
0001
1000
0100
0000
,
0100
0000
0010
0000
,
1000
0100
0010
0000
,
0100
0100
0010
0010
,
0000
0000
0000
0000
,
0100
1000
0000
1000
,
0001
1000
0000
1000
,
0001
0100
0000
0100
,
0010
0100
0010
0100
,
0100
0001
0000
0001
,
0100
0010
0000
0010
,
1000
0010
0000
0010
,
0100
0001
1000
0001
,
1000
0100
0000
0100
,
0010
0001
0000
0001
,
0100
0010
0000
0010
,
1000
0001
0000
1001
,
0001
1000
0000
1000
,
0001
0100
0000
0100
,
0010
0100
0000
1000
,
1001
0000
0000
0000
,
0001
0000
0010
0000
0100
0000
0000
0100
,
0000
0100
1000
0000
0100
0000
0000
0000
,
0100
0000
0010
0000
0001
0000
0000
0001
,
0000
0001
0010
0000
0001
0000
0000
0000
,
0001
0000
0100
0000
0100
0000
0000
0010
,
0000
0010
1000
0000
0010
0000
0000
0000
,
0010
0100
1000
0000
,
0001
0100
1000
0000
,
0010
0100
0010
1000
,
0010
1000
0010
0100
,
0001
1000
0001
0100
,
1000
0100
0001
0000
,
1000
0000
0100
0010
,
0100
0010
0100
1000
,
0001
0010
0100
0001
,
0010
0100
0010
0100
,
2000
0000
0000
3000
,
0002
0000
0000
0003
,
0200
0000
0000
0300
,
0020
0000
0000
0030
,
1001
0000
0100
0000
,
0110
0000
0001
0000
,
1100
0000
0010
0000
,
0101
0000
1000
0000
,
1010
0000
0110
0000
,
0011
0000
0110
0000
,
1000
0000
0001
0000
,
1000
1000
0001
0001
,
1000
0100
0010
0001
,
2002
0000
0000
0000
,
3003
0000
0000
0000
,
1001
0000
0100
0010
,
0001
0010
0100
1000
,
1001
0000
0100
1000
,
0001
0100
0010
1000
,
0100
0000
0010
0000
,
0100
0000
0100
0000
1000
0100
1000
0000
,
0100
0010
0001
0100
,
0010
1000
0001
0000
,
1001
0000
0000
0001
1000
0000
0001
1000
,
0000
0000
0000
0010
0100
0000
0010
0100
,
0000
0000
0000
1000
0010
0000
1000
0010
,
0000
0000
0000
0100
0001
0000
0100
0001
,
0100
0000
0001
0010
,
0100
0001
0010
0000
,
0100
1000
0100
0000
0010
0001
0010
0000
,
0010
0100
0010
0000
,
0001
0000
0010
0000
0100
0000
0010
0100
,
0000
0100
0010
0000
0100
0000
0010
0000
,
0001
0000
0010
0000
1000
0000
0001
1000
,
0000
1000
0001
0000
0100
0000
1000
0000
,
1001
0000
0100
0010
,
0100
0000
0100
0010
,
0001
1000
0001
0010
,
0001
0000
0100
0000
0010
0100
0010
0000
,
2200
0000
0000
3300
,
1001
0000
0000
0000
,
0022
0000
0000
0033
,
0101
0000
0000
0000
,
1000
0000
0100
0010
,
0001
0000
0010
0000
,
0100
0000
0000
1001
,
0000
0000
0000
0000
;
#NOTES:
     dance-single:
     :
     Medium:
     11:
     :
0000
0000
0000
0000
,
0000
0000
0000
0000
,
0000
0000
0000
0000
,
0000
0000
0000
0000
,
0000
0000
0000
0000
,
0000
0000
0000
0000
,
0000
0000
0000
0000
,
0000
0000
0000
0000
,
0000
0000
0000
0000
,
0000
0000
0000
0000
,
1000
0000
0001
0000
0010
0100
0001
0000
,
1000
0010
0001
0000
,
0100
0000
0010
0000
1000
0001
0010
0000
,
0100
1000
0100
0100
,
0100
0000
0001
0000
0100
0010
1000
0000
,
0001
0100
1000
0000
,
0010
0000
0100
0000
1000
0010
0001
0000
,
0000
0000
0000
0000
,
0100
0000
0001
0000
0000
0100
0001
0000
,
1000
0000
0010
0000
0000
1000
0010
0000
,
1000
0000
0001
0000
0000
1000
0001
0000
,
0010
0000
0001
0000
0000
0001
0010
0100
,
1000
0000
0001
0000
0000
0100
0010
0000
,
0001
0000
0010
0000
0000
1000
0100
0000
,
0010
0000
1000
0000
0000
0001
1000
0000
,
0100
0000
0001
0000
0000
0010
0001
0000
,
0100
0000
0001
1000
0000
0001
1000
0000
,
0010
0000
1000
0100
0000
1000
0100
0000
,
0001
0000
0100
1000
0000
0100
1000
0000
,
0001
0000
0010
0001
0000
0010
0001
0000
,
0100
0000
0001
0010
0000
0001
0010
0000
,
0100
0000
1000
0001
0000
1000
0001
0000
,
1000
0000
0010
0100
0000
0010
0100
0000
,
2002
0000
0000
3003
,
0001
0010
0100
0000
1000
0000
0001
0000
,
0010
0100
1000
0000
0100
1000
0001
0000
,
0010
0100
0001
0010
,
0100
1000
0100
0000
0001
0000
0010
0000
,
0100
0010
0001
0000
0100
0010
0100
0000
,
1000
0000
0001
0000
0100
0010
1000
0000
,
0010
0100
1000
0000
0001
0010
0100
1000
,
0010
0100
1000
0000
0010
1000
0100
0000
,
1000
0011
0100
1010
,
0100
0000
1000
0001
0000
0001
1000
0000
,
0001
0010
0100
0000
0001
0010
0100
1000
,
0100
0000
0010
0000
1001
0000
0010
0100
,
2000
0000
0001
0000
3010
0100
0001
0000
,
0100
1000
0100
0010
0001
1000
0100
0000
,
1000
0010
1000
0100
1000
0001
0100
0000
,
0001
0100
0001
0010
0100
1000
0100
0000
,
1000
0000
0001
0000
0000
0100
0000
0000
0001
0000
0000
0010
0000
0000
0001
0000
,
0001
0000
1000
0000
0000
0100
0000
0000
1000
0000
0000
0010
0000
0000
1000
0000
,
0100
0000
0010
0000
0000
0010
0000
0000
0001
0000
0000
1000
0000
0000
0001
0000
,
0010
0000
0100
0000
0000
0100
0000
0000
1000
0000
0000
0001
0000
0000
1000
0000
,
1100
0000
0100
0000
0000
0010
0000
0000
0001
0000
0000
1000
0000
0000
0010
0000
,
1010
0000
1000
0000
0000
0100
0000
0000
0010
0000
0000
0001
0000
0000
0100
0000
,
0101
0000
0001
0000
0000
1000
0000
0000
0010
0000
0000
0100
0000
0000
0001
0000
,
0011
0000
0010
0000
0000
0001
0000
0000
1000
0000
0000
0001
0000
0000
0010
0000
,
0100
0000
0100
0000
0000
1000
0000
0000
0100
0000
0100
0000
0000
0001
0000
0000
,
0100
0000
0100
0000
0000
0010
0000
0000
0100
0000
0100
0000
0000
0010
0000
0000
,
0110
0110
0000
0010
0110
0110
0000
1000
,
1100
0101
0011
1010
,
1000
0100
0010
0001
1000
0100
0010
0001
,
2002
0000
0000
0000
,
3003
0000
0000
0000
,
1001
0000
0000
0100
0010
0100
1000
0100
,
0010
0001
0010
0001
0010
0100
1000
0010
,
0100
0000
0010
0100
1000
0000
0010
0000
,
0100
0000
1000
0000
0001
1000
0100
0000
,
0010
0000
0001
1000
0020
0000
0000
0000
,
0030
0000
0100
0000
0010
0100
0010
0000
,
2100
0000
3002
0000
0013
0100
1000
0001
,
0200
0000
0301
0000
0010
0100
0010
0000
,
0001
0000
0000
0100
1000
0100
0010
0100
,
0000
0000
0000
0100
1000
0100
0010
0100
,
0000
0000
0000
0100
0001
0100
0010
0100
,
0000
0100
0010
0100
1000
0100
0010
0100
,
0100
0000
1010
0000
0010
0100
0010
1000
,
0000
1000
0001
0000
1000
0100
0010
0000
,
1000
1100
0110
0011
,
0100
0010
0001
1000
0100
0010
0001
0000
,
0010
0001
0100
0010
1000
0100
0010
0001
,
0100
0010
1000
0100
0010
0001
0100
0001
,
0100
0001
0010
0000
0010
0100
0010
0100
,
1000
0100
0010
0000
0011
0000
0100
1000
,
0200
0000
0010
0000
1300
0100
0010
0001
,
0000
0000
0001
0000
0010
0000
0000
0000
1000
0000
0000
0100
0000
0000
0010
0000
,
0001
0000
0100
0010
0001
0010
0100
1000
,
0010
0000
1000
0000
0100
0010
0001
0000
,
1001
0000
0010
0001
0000
0010
0001
0000
,
1000
0100
0001
0000
0001
0100
1000
0000
,
1000
0100
0010
0001
0100
0000
0010
0000
,
0100
0001
1000
0000
0010
1000
0100
0000
,
1000
0100
0010
0001
,
0010
0000
0001
0100
,
0110
1000
0010
0001
,
0000
0000
0000
0000
;
#NOTES:
     dance-single:
     :
     Hard:
     16:
     :
0000
0000
0000
0000
,
0000
0000
0000
0000
,
0000
0000
0000
0000
,
0000
0000
0000
0000
,
0000
0000
0000
0000
,
0000
0000
0000
0000
,
0000
0000
0000
0000
,
0000
0000
0000
0000
,
0000
0000
0000
0000
,
0000
0000
0000
0000
,
0001
1000
0010
0100
0001
1000
0010
0100
,
0010
0000
1010
0000
0001
0010
0000
0010
,
0001
1000
0001
0100
0010
1000
0001
0100
,
0010
0000
1000
0100
1000
0000
0001
0100
0001
0000
0100
0000
0010
0000
0000
0000
,
1000
0100
0010
0001
0100
0001
1000
0010
,
1000
0000
0011
0000
1000
0100
0000
0010
,
0001
0000
1000
0000
0010
0000
1000
0000
0001
0000
0010
0000
0100
0010
0100
0000
,
0000
0000
0000
0000
,
0100
0000
0011
0000
0000
1000
0001
0000
,
0100
0000
1001
0000
0000
0100
0001
0000
,
1000
0000
0110
0000
0000
0001
0100
0000
,
0001
0000
1100
0000
0000
0001
1000
0001
,
0100
0000
0011
0000
0000
1000
0100
0000
,
0010
0000
0101
0000
0000
0010
1000
0000
,
0001
0000
0110
0000
0000
0001
1000
0000
,
0100
0000
1000
1000
0000
0001
0001
0000
,
1001
0000
0010
0100
0001
1000
0100
0000
,
1010
0000
0001
0100
0001
0010
0100
0000
,
1100
0000
0010
0001
0010
0100
1000
0000
,
0011
0000
1000
0010
1000
0100
0010
0001
,
1001
0000
1000
0001
0100
0010
1000
0000
,
0101
0000
0001
0010
0100
1000
0100
0000
,
0011
0000
1000
1000
0001
0001
0010
0000
,
2002
0000
0000
3003
,
1000
0100
1000
0000
0001
0000
1000
0010
1000
0000
0001
0000
0100
0000
0010
0000
,
1000
0001
1000
0010
0100
0010
1000
0100
,
0010
0000
0100
1000
0100
0000
0010
0000
0001
0000
0100
0001
0100
0000
0010
0000
,
0100
0000
0001
0000
0010
0000
0100
0000
1000
0001
1000
0000
0100
0000
0000
0000
,
0001
0010
0100
0000
1000
0010
0100
0000
,
0001
0010
0100
0100
0010
0001
0100
0000
,
0010
1000
0100
0010
0001
0100
0010
1000
,
0001
0000
1000
0000
0100
0000
0010
0000
0001
0000
0010
0100
0010
0000
0100
0000
,
0110
0011
1100
0011
,
1100
0000
0010
0001
0010
0100
1000
0000
,
0100
0010
0100
0001
0100
1000
0100
0010
,
0001
0000
0010
0000
0001
0000
0010
0000
0100
0000
1000
0000
0001
0100
0001
0100
,
0001
0000
0000
0000
1100
0000
0000
0000
0010
0001
0000
0000
1000
0100
0000
0000
,
0010
0001
0000
0000
1000
0100
0000
0000
1000
0000
0100
0000
0010
0000
0001
0000
,
0010
0100
1000
0001
0010
0100
0010
0100
,
1000
0000
0100
1000
0100
0010
0001
0000
0010
0000
0001
0000
0100
0010
0100
0010
,
2000
0000
0010
0010
0000
0100
0100
0000
0001
0001
0000
0010
3000
0001
0100
0000
,
0002
0000
0010
0010
0000
0100
0100
0000
1000
1000
0000
0010
0003
1000
0100
0000
,
0200
0000
0001
0001
0000
1000
1000
0000
0010
0010
0000
0001
0300
1000
0001
0000
,
0020
0000
0001
0001
0000
0100
0100
0000
1000
1000
0000
0100
0030
1000
0100
0000
,
1001
0000
0010
0100
0000
0010
0100
0000
0010
2000
0000
0001
0000
0000
3100
0000
,
0011
0000
0100
0010
0000
0100
0010
0000
0001
1000
0000
0001
0000
1000
0100
0000
,
0110
0000
0001
1000
0000
0100
0010
0000
0100
2000
0000
0001
0000
0000
3010
0000
,
1100
0000
1000
0001
0000
0100
0010
0000
0100
0001
0000
1000
0000
0010
0100
0000
,
0101
0000
0010
0100
0000
0010
1000
0000
1010
0000
1000
0010
0000
0100
0010
0000
,
0110
0000
0100
0001
0000
1000
0001
0000
1001
0000
1000
0010
0000
1000
0100
0000
,
1100
1100
0000
0001
0101
0101
0000
0010
,
1001
1100
0110
0101
,
1000
1000
0001
0001
0100
0100
0010
0010
,
1000
0100
1000
0100
1000
0100
1000
0100
0010
0001
0010
0001
0010
0001
0010
0001
,
0020
0000
0000
0000
,
0130
0000
0000
0000
1001
0000
1000
0100
0010
0000
0100
0000
0010
0000
0001
0000
,
0010
0000
0100
0000
1000
0000
0001
0000
1000
0000
0010
0000
0100
0001
0010
0000
,
0011
0000
0100
1000
1100
0000
0010
0101
,
0000
0100
0010
0010
0100
0100
0001
0010
,
0110
0000
1000
0100
0010
0000
0010
0001
,
0000
0001
1000
0000
0100
0010
0001
0000
,
0100
0000
0010
1000
0010
0000
0100
0000
0001
0000
0010
0000
0100
0000
1000
0000
,
0100
0000
1000
0000
0001
0000
0010
0000
0001
0000
0010
0000
0100
1000
0100
1000
,
0100
0000
0000
0000
0110
0000
0100
1000
0010
0000
0100
0000
0010
0000
0010
0000
,
0000
0000
0100
0000
0010
0000
0100
0001
0010
0000
0100
0000
0010
0000
0010
0000
,
0100
0000
0000
0000
0010
0000
0100
1000
0010
0000
0100
0000
0010
0000
0010
0000
,
0000
0000
0100
0000
0010
0000
0100
0001
0010
0000
0100
0000
1000
0000
0010
0000
,
0110
0000
0100
0010
0100
0001
1000
0100
,
0000
0100
1000
0000
1000
0001
0010
0000
,
0010
0000
0100
1000
0100
0000
0010
0000
0001
1000
0001
0000
0010
0000
0100
0000
,
1000
0010
1000
0010
0100
0001
0100
0001
1000
0100
0010
0001
1000
0000
0000
0000
,
1000
0010
1000
0000
1000
0000
0001
0010
0001
0000
0001
0000
1000
0010
1000
0000
,
1000
0001
0010
0100
1000
0100
0010
0000
,
0010
0100
0000
0100
1000
0010
0100
0001
,
0010
0100
0010
0000
0110
0000
1000
0001
,
1001
0000
1100
0000
0010
0001
0010
0110
,
0000
0000
1000
0000
1000
0000
0000
0000
0100
0000
0000
0010
0000
0000
0001
0000
,
0101
0000
1000
0100
0010
0010
0100
0000
,
1010
0000
0110
0000
0001
1000
0110
0000
,
0010
1000
0001
0100
0010
1000
0010
0000
,
0010
1000
1000
0100
0010
0001
0100
0000
,
0001
1000
1000
0100
1000
0010
1000
0000
,
0100
0001
0100
0010
1000
0100
0001
0000
,
0010
0001
1000
0100
1000
0100
0010
0001
,
0020
0000
0230
1300
,
2001
0000
0100
3002
0010
1003
1001
0000
,
0000
0000
0000
0000
;
#NOTES:
     dance-single:
     :
     Challenge:
     18:
     :
0000
0000
0000
0000
,
0000
0000
0000
0000
,
0000
0000
0000
0000
,
0000
0000
0000
0000
,
0000
0000
0000
0000
,
0000
0000
0000
0000
,
0000
0000
0000
0000
,
0000
0000
0000
0000
,
0000
0000
0000
0000
,
0000
0000
0000
0000
,
0100
0000
0100
0000
0010
0000
1000
0010
1000
0001
0100
0000
0010
0000
1000
0001
,
1000
0100
0010
0001
0010
0010
0000
0100
,
1000
0000
1000
0000
0001
0000
1000
0100
1000
0001
0100
0000
0010
0000
0100
0000
,
0010
0000
1000
0010
1000
0000
0001
0100
0001
0000
0010
0000
0110
0000
0000
0000
,
0100
0000
0100
0000
0010
0000
0001
0010
0001
1000
0010
0000
0100
0000
0001
0010
,
0001
0100
0010
0100
0001
0001
0000
0100
,
0001
0000
0001
0000
1000
0000
0001
1000
0010
0100
0001
0000
0100
0010
0100
0000
,
0000
0000
0000
0000
,
0100
0000
0011
0001
0000
1000
0001
0000
,
0100
0000
1010
1000
0000
0001
0100
0000
,
1000
0000
0110
0100
0000
0010
1000
0000
,
0100
0000
1001
1000
0000
0110
0000
0110
,
0100
0000
1001
1000
0000
1000
1010
0000
,
0001
0000
0011
0001
0000
0001
0101
0000
,
0010
0000
1001
1000
0000
0100
0110
0000
,
1000
0000
0110
0010
0000
0001
1001
0000
,
0100
0000
0010
0000
0100
0000
0100
0000
0000
0001
1000
0000
0010
0000
0100
0000
,
0010
0000
1000
0000
1000
0000
0100
0000
0000
0010
0001
0000
1001
0000
0000
0000
,
1000
0000
0001
0000
0001
0000
0100
0000
0000
0010
0100
0000
0001
0000
1000
0000
,
0010
0000
0100
0000
0100
0000
0001
0000
0000
0100
0010
0000
1001
0000
0000
0000
,
0100
0000
0010
0000
0010
0000
0100
0000
0000
0001
1000
0000
0010
0000
0100
0000
,
0001
0000
0010
0000
0010
0000
0100
0000
0000
1000
0001
0000
0110
0000
0000
0000
,
0001
0000
0010
0000
0010
0000
0100
0000
0000
1000
0001
0000
0010
0000
0100
0000
,
2002
0000
0000
3003
,
1000
0100
0010
0000
0100
0000
1000
0100
0010
0000
0100
0000
1000
0100
1000
0000
,
0010
1000
0100
0000
1000
0000
0010
1000
0100
0000
0010
0000
0100
0000
0010
0000
,
0001
0000
1000
0100
0010
0000
0100
0010
0001
0000
0010
0001
0100
0000
0010
0000
,
1000
0010
1000
0000
0100
0010
0100
0000
0010
0001
0010
0000
0001
0000
0000
0000
,
1000
0000
0010
0100
0001
0000
0001
0000
1000
0000
0010
0100
0001
0000
0001
0000
,
1000
0000
0010
0100
0001
0000
0001
0000
0100
0010
0100
0000
0010
0000
0000
0000
,
0010
0000
1000
0100
0010
0000
0100
0000
0010
0000
0001
0100
0010
0000
0100
0000
,
0010
0000
0100
0010
1000
0000
0100
0000
0010
0000
0001
0010
0100
0000
0000
0000
,
1100
0011
1010
0101
,
0110
0000
1001
0011
0000
1001
1100
0000
,
0001
1000
0100
0010
0001
1000
0100
0010
,
1001
0000
0000
0001
0100
0000
0000
0010
1000
0000
0001
0000
0100
0010
0100
0010
,
0100
0000
0000
0000
1001
0000
0000
0000
0010
1000
0010
0000
0100
0001
0100
0000
,
0010
1000
0010
0000
0100
0001
0100
0000
0001
0000
1000
0000
0100
0000
0010
0000
,
0100
1000
0100
1000
0001
0010
0001
0010
0001
1000
0001
1000
0100
0010
0100
0010
,
0001
0010
0001
0010
0100
1000
0100
1000
0001
0100
0010
1000
0001
0100
0010
1000
,
0001
0000
1000
0100
0000
0010
0100
0000
0001
0100
0000
0010
0000
0100
0010
0100
,
1001
0000
0001
1000
0000
0100
0001
0000
0100
1000
0000
0010
0000
0100
0010
0100
,
1001
0000
0001
0010
0000
0100
1000
1000
0010
0100
0000
0001
0000
0010
0100
0010
,
1001
0000
1000
0100
0000
0001
0010
0010
1000
0100
0000
0001
0000
0010
0100
0010
,
1001
0000
1000
0100
0010
0001
0100
0010
1000
0100
0000
1010
0000
0100
0010
0000
,
1100
0000
0001
1000
0100
0010
0001
0100
0010
1000
0000
0011
0000
1000
0100
0000
,
0101
0000
1000
0100
0001
0100
1000
0100
0001
0100
0000
1001
0000
0001
0100
0000
,
1010
0000
0010
1000
0010
0001
0010
1000
0010
0001
0000
0110
0000
1000
0010
0000
,
0011
0000
1000
0100
0000
0010
0100
1000
0100
0000
0010
0001
0000
0100
0010
0001
,
0010
0000
1000
0100
0000
0010
0100
1000
0100
0000
0010
0001
0000
0100
0010
0001
,
0010
0110
0000
0110
1001
0110
0000
0110
,
1001
1100
0110
0011
,
1001
1000
0100
0010
1001
0001
0010
0100
,
1000
0100
0010
0001
1000
0100
0010
0001
0100
0010
1000
0001
0100
0010
1000
0001
,
0020
0000
0000
0030
,
1001
0000
0000
0000
1100
0000
0001
0010
0100
0000
0010
0000
0100
0000
1000
0000
,
0100
0000
0010
0001
0010
0000
0100
0010
0100
0000
1000
0000
0100
0000
0010
0000
,
1001
0000
0110
1000
1000
0000
0110
0001
,
0000
0000
0010
0000
0001
0000
1000
0000
0001
0000
0100
0000
0010
1000
0001
0000
,
1001
0000
0100
0010
0010
0000
0010
0100
,
0000
0100
1001
0000
1000
0100
0010
0000
,
1001
0000
0100
0010
1000
0001
0100
0010
1000
0100
0010
0001
1000
0010
0100
0010
,
1000
0001
0100
0010
1000
0100
0010
0001
0100
0010
1000
0001
0100
0010
1000
0001
,
0100
0000
0000
0000
0100
0000
1000
0100
0010
0000
1000
0100
0010
0000
0020
0000
,
0000
0000
0130
0000
0100
0000
0001
0100
0010
0000
0001
0100
0010
0000
0020
0000
,
0000
0000
0130
0000
0100
0000
0010
0100
0001
0000
0010
0100
0001
0000
0002
0000
,
0000
0000
0103
0000
0100
0000
0010
0100
1000
0000
0010
0100
1000
0000
0010
0000
,
0100
0000
0001
0000
1000
0000
0010
0100
,
0000
0001
0100
0000
1000
0100
0010
0000
,
0100
0000
1000
0100
0001
1000
0010
0001
1000
0100
0001
1000
0010
0100
1000
0010
,
0100
0001
0010
1000
0001
0100
1000
0001
0010
1000
0010
0001
1000
0000
0000
0000
,
0100
1000
0001
0010
0100
0000
1000
0010
0100
0001
1000
0000
0010
1000
0001
0010
,
0100
1000
0100
0000
0001
0010
0001
0000
1000
0100
1000
0100
0010
0001
0010
0000
,
0100
0010
0000
0100
1000
0001
1001
1000
,
0100
0001
1001
0000
1010
0000
0011
0001
,
0101
0000
1010
0000
1001
1000
0100
0011
,
0000
0000
0100
0000
0010
0000
0100
0000
0110
0000
0000
1001
0000
0000
1100
0000
,
0010
0000
1001
0100
1001
0010
0100
1010
,
0000
0101
0010
0100
0001
1000
0110
0000
,
1001
1000
0010
0100
0001
0010
0100
1000
,
0001
1000
0100
0010
0001
0100
0100
0000
,
1100
1000
0100
1000
0100
0010
0001
0010
,
0001
1000
0100
0010
0001
0010
0100
0000
,
0001
1000
0001
0010
0001
1000
0001
0100
,
2002
0000
0000
3003
2020
3030
0202
0303
,
2002
3003
1100
0110
0011
0101
2002
0000
,
0000
3003
0000
0000
,
0000
0000
0000
0000
;
#NOTES:
     dance-double:
     :
     Easy:
     7:
     :
00000000
00000000
00000000
00000000
,
00000000
00000000
00000000
00000000
,
00000000
00000000
00000000
00000000
,
00000000
00000000
00000000
00000000
,
00000000
00000000
00000000
00000000
,
00000000
00000000
00000000
00000000
,
00000000
00000000
00000000
00000000
,
00000000
00000000
00000000
00000000
,
00000000
00000000
00000000
00000000
,
00000000
00000000
00000000
00000000
,
00000100
00000001
00000100
00001000
,
00010000
00001000
00010000
00000000
,
00001000
00100000
00010000
00100000
,
01000000
01000000
00100000
00100000
,
01000000
10000000
01000000
00100000
,
01000000
00010000
00001000
00000000
,
00000010
00000010
00000100
00000100
,
00000000
00000000
00000000
00000000
,
00000100
00000010
00000000
00000110
,
00001000
00000100
00000000
00001100
,
00010000
00001000
00000000
00011000
,
00100000
01000000
00000000
01100000
,
10000000
00010000
00000000
10010000
,
00100000
00001000
00000000
00101000
,
00010000
00000100
00000000
00001100
,
00000010
00000001
00000000
00000110
,
00001001
00000010
00001000
00000100
,
00001000
00000010
00000100
00000000
,
00001000
00010000
00100000
01000000
,
00010000
10000000
01000000
10000000
,
01000000
00100000
00001000
00010000
,
00001000
00000010
00000100
00000000
,
00000100
00001000
00010000
00001000
,
00011000
00000000
00000000
00000000
,
00000001
00000010
00000100
00001000
,
00010000
00100000
01000000
10000000
,
00010000
00100000
01000000
10000000
,
01000000
00010000
00001000
00000000
,
00000100
00000010
00000100
00000010
,
00000100
00000010
00000100
00000010
,
00000001
00000010
00000100
00001000
,
00010000
00000000
00100000
00000000
01000000
00100000
01000000
00000000
,
01100000
00000000
10010000
00000000
,
00010000
00000000
10000000
00010000
00000000
00010000
10000000
00000000
,
01000000
00010000
00001000
00010000
,
00000100
00000010
00000100
00001000
,
00000001
00000000
00001000
00000100
,
00010000
00001000
00010000
00100000
,
01000000
00001000
00010000
00100000
,
01000000
00010000
00100000
01000000
,
20010000
00000000
01000000
30000000
,
02000000
00000000
00100000
03000000
,
00020000
00000000
00001000
00030000
,
00002000
00000000
00000001
00003000
,
00000110
00000000
00000001
00000000
,
00000110
00000000
00001000
00000000
,
00011000
00000000
00100000
00000000
,
10010000
00000000
01000000
00000000
,
01100000
00000000
00011000
00000000
,
00000110
00000000
00011000
00000000
,
01100000
00000000
10010000
00000000
,
10000000
01000000
00100000
00010000
,
00001000
00000100
00000010
00000001
,
00002002
00000000
00000000
00000000
,
00003003
00000000
00000000
00000000
,
00011000
00000000
00000100
00001000
,
00010000
00100000
01000000
00100000
,
10000000
00000000
00000000
00100000
01000000
00000000
00100000
00000000
,
10000000
01000000
00010000
00001000
,
00011000
00000000
00000010
00000000
,
00000000
00000000
00000100
00000001
00000100
00000001
00000100
00000000
,
00000100
00000001
00000010
00000100
,
00001000
00010000
00100000
01000000
,
10000000
00000000
00000000
01000000
00100000
00000000
01000000
00100000
,
00000000
00000000
00000000
00010000
00001000
00000000
00010000
00001000
,
00000000
00000000
00000000
00000100
00000010
00000000
00000100
00000010
,
00000000
00000000
00000000
00000001
00000010
00000000
00000001
00000010
,
00000001
00000100
00001000
00010000
,
00000000
00000000
01000000
00100000
,
10000000
00000000
01000000
00000000
00100000
01000000
00010000
00000000
,
00001000
00000000
00000100
00000000
00000010
00000100
00000001
00000000
,
00001000
00000000
00000000
00001000
00000000
00000000
00001000
00000000
,
00000010
00000100
00000010
00000000
00001000
00000000
00000100
00000000
,
00000001
00000100
00001000
00010000
,
00001000
00010000
00100000
01000000
,
01100000
00000000
00000000
00000000
10000000
01000000
00100000
00010000
,
00000000
00000000
00100000
00000000
,
00011000
00000000
00001000
00000100
,
00000010
00000000
00000100
00000000
00000001
00000010
00000100
00000000
,
00000220
00000000
00000000
00000330
,
00000100
00010000
00001000
00000000
,
00022000
00000000
00000000
00033000
,
00001000
00100000
00010000
00000000
,
10000000
01000000
00100000
00010000
,
00001000
00000000
00000010
00000100
,
00000010
00000000
00000000
00011000
,
00000000
00000000
00000000
00000000
;
#NOTES:
     dance-double:
     :
     Medium:
     11:
     :
00000000
00000000
00000000
00000000
,
00000000
00000000
00000000
00000000
,
00000000
00000000
00000000
00000000
,
00000000
00000000
00000000
00000000
,
00000000
00000000
00000000
00000000
,
00000000
00000000
00000000
00000000
,
00000000
00000000
00000000
00000000
,
00000000
00000000
00000000
00000000
,
00000000
00000000
00000000
00000000
,
00000000
00000000
00000000
00000000
,
00000001
00000000
00000100
00000000
00001000
00010000
00001000
00000000
,
00010000
01000000
00100000
00000000
,
00010000
00000000
00100000
00000000
10000000
00100000
00010000
00000000
,
01000000
00001000
00010000
00000000
,
00001000
00000000
00000100
00000000
00001000
00000010
00000001
00000000
,
00000010
00001000
00000100
00001000
,
00100000
00000000
00010000
00000000
00001000
00010000
00001000
00000000
,
00000000
00000000
00000000
00000000
,
00000100
00000000
00001100
00000000
00000000
00001000
00000001
00000000
,
00001000
00000000
00001001
00000000
00000000
00000100
00000010
00000000
,
00001000
00000000
00001010
00000000
00000000
00000010
00010000
00000000
,
00001000
00000000
00011000
00000000
00000000
00001000
00010000
00000000
,
01000000
00000000
10010000
00000000
00000000
01000000
00100000
00000000
,
10000000
00000000
00110000
00000000
00000000
01000000
10000000
00000000
,
00100000
00000000
01010000
00000000
00000000
00100000
00001000
00000000
,
00010000
00000000
00001100
00000000
00000000
00000001
00000010
00000000
,
00000100
00000000
00000001
00001000
00000000
00001000
00000001
00000000
,
00000010
00000000
00001000
00010000
00000000
00010000
00001000
00000000
,
00010000
00000000
01000000
00100000
00000000
00100000
01000000
00000000
,
10000000
00000000
00100000
00010000
00000000
00010000
00100000
01000000
,
00100000
00000000
01000000
00001000
00000000
00001000
00010000
00000000
,
00001000
00000000
00010000
00000100
00000000
00000100
00000010
00000000
,
00000001
00000000
00000100
00000010
00000000
00000010
00010000
00000000
,
00022000
00000000
00000000
00033000
,
00001000
00010000
00100000
00000000
00010000
00100000
10000000
00000000
,
00100000
00000000
10000000
00000000
10000000
01000000
00010000
00000000
,
00010000
00001000
00010000
00000000
00010000
00001000
00000010
00000000
,
00000001
00000000
00000010
00000000
00000010
00000001
00000100
00000000
,
00000001
00000100
00001000
00000000
00000100
00001000
00010000
00000000
,
00001000
00000000
00010000
00100000
10000000
00100000
00010000
00000000
,
00100000
10000000
01000000
00000000
10000000
01000000
00100000
00000000
,
00010000
00000000
00100000
01000000
00100000
00001000
00010000
00000000
,
00011000
00000100
00011000
00100000
,
00011000
00010000
00001000
00000100
,
00010000
00001000
00000100
00000000
00001000
00000100
00000010
00000000
,
00000020
00000032
00000203
00002300
,
00013000
00000000
00011000
00000000
00001000
01000000
00001000
00000000
,
00001000
00100000
00001000
00010000
00001000
01000000
00100000
00000000
,
10000000
00000000
01000000
00000000
00010000
00001000
00010000
00000000
,
00010000
00001000
00010000
00000010
00010000
00000100
00000010
00000000
,
00000100
00000000
00000100
00000000
00000000
00000010
00000000
00000000
00000100
00000000
00000000
00001000
00000000
00000000
00000001
00000000
,
00001000
00000000
00000100
00000000
00000000
00010000
00000000
00000000
00001000
00000000
00000000
00010000
00000000
00000000
00000010
00000000
,
00002000
00000000
00000100
00000000
00000000
00000010
00000000
00000000
00000100
00000000
00000000
00000001
00000000
00000000
00000010
00000000
,
00023000
00000000
01000000
00000000
00000000
00100000
00000000
00000000
01000000
00000000
00000000
10000000
00000000
00000000
00130000
00000000
,
00011000
00000000
00010000
00000000
00000000
00001000
00000000
00000000
00000010
00000000
00000000
00000001
00000000
00000000
00000100
00000000
,
00000100
00000000
00000100
00000000
00000000
00001000
00000000
00000000
00010000
00000000
00000000
00100000
00000000
00000000
10000000
00000000
,
10000000
00000000
10000000
00000000
00000000
01000000
00000000
00000000
00010000
00000000
00000000
00001000
00000000
00000000
00000100
00000000
,
00000001
00000000
00000010
00000000
00000000
00001000
00000000
00000000
00010000
00000000
00000000
01000000
00000000
00000000
10000000
00000000
,
00100000
00000000
00010000
00000000
00000000
00001000
00000000
00000000
00001000
00000000
00000010
00000000
00000000
00000001
00000000
00000000
,
00000001
00000000
00000100
00000000
00000000
00001000
00000000
00000000
00001000
00000000
00010000
00000000
00000000
00100000
00000000
00000000
,
01000000
01000000
00000000
00100000
10000000
10000000
00000000
10000000
,
10000000
00110000
00001000
00011000
,
00000010
00000001
00000100
00001000
00010000
00100000
01000000
10000000
,
22000000
00000000
00000000
00000000
,
33000000
00000000
00000000
00000000
,
00011000
00000000
00000000
00000100
00000010
00000000
00000001
00000000
,
00001000
00000001
00000100
00000000
00001000
00010000
00001000
00000000
,
00011000
00010000
01000000
00100000
,
10000000
01000000
00100000
00000000
01000000
00000000
00100000
00010000
,
00001000
00000000
00010000
00001000
00010000
00000000
00000010
00000000
,
00000000
00000000
00000100
00000010
00000100
00001000
00000001
00000000
,
00001000
00000100
00000010
00000001
00000010
00000100
00001000
00000000
,
00000010
00000100
00001000
00000000
00010000
00100000
01000000
00000000
,
10010000
00000000
00000000
00100000
00010000
00000000
00001000
00000010
,
00000000
00000000
00000000
00000100
00001000
00000000
00010000
01000000
,
00000000
00000000
00000000
00100000
00010000
00000000
00001000
00000010
,
00000000
00000000
00000000
00000100
00001000
00000000
00010000
01000000
,
00100000
00000000
11000000
00000000
10000000
01000000
00100000
00010000
,
00000000
00000000
00001000
00000000
00010000
00001000
00000010
00000000
,
00000002
00000203
00002300
00023000
,
01030000
10000000
00100000
00010000
00001000
00000010
00000100
00000000
,
00000001
00000100
00001000
00000000
00000001
00000100
00001000
00000000
,
00010000
01000000
10000000
00100000
,
01100000
00000000
00000000
00100000
10000000
01000000
00100000
00000000
,
01000000
00100000
00010000
00000000
00100000
00000000
01000000
00001000
,
00010000
00000000
01000000
00000000
00010000
00001000
00000100
00000010
,
00000000
00000000
00000000
00000000
00000000
00000000
00000000
00000000
00000010
00000000
00000000
00000001
00000000
00000000
00000100
00000000
,
00000010
00000000
00000000
00001000
00000100
00000010
00000000
00000000
,
00000001
00000000
00000100
00001000
00010000
00001000
00010000
00000000
,
00011000
00100000
00010000
01000000
,
00000000
01000000
00010000
00100000
,
00011000
00010000
00001000
00000010
,
00000100
00000010
00001000
00010000
,
00100000
01000000
00010000
00001000
,
00000110
00000000
00000001
00001000
,
00011000
00000000
01000000
00010000
00001000
00000010
00000001
00000000
,
00000000
00000000
00000000
00000000
;
#NOTES:
     dance-double:
     :
     Hard:
     15:
     :
00000000
00000000
00000000
00000000
,
00000000
00000000
00000000
00000000
,
00000000
00000000
00000000
00000000
,
00000000
00000000
00000000
00000000
,
00000000
00000000
00000000
00000000
,
00000000
00000000
00000000
00000000
,
00000000
00000000
00000000
00000000
,
00000000
00000000
00000000
00000000
,
00000000
00000000
00000000
00000000
,
00000000
00000000
00000000
00000000
,
00000001
00000100
00000010
00001000
00000100
00000010
00000001
00000000
,
00000100
00001000
00010000
00000000
00001000
01000000
00000000
00100000
,
10000000
00100000
01000000
00010000
10000000
00100000
00100000
00000000
,
10000000
00000000
00000000
10000000
01000000
00000000
00000000
01000000
00010000
00000000
00000000
00010000
00001000
00000000
00000000
00000000
,
00010000
00001000
00010000
00000010
00000100
00000001
00001000
00000000
,
00000001
00000100
00000010
00000000
00010000
00001000
00000000
00001000
,
00010000
00001000
00100000
01000000
00100000
00010000
10000000
10000000
,
00000000
00000000
00000000
00000000
,
01000000
00000000
00011000
00000000
00000000
00000010
00000001
00000000
,
00000100
00000000
00001010
00000000
00000000
00010000
00001000
00000000
,
01000000
00000000
10100000
00000000
00000000
01000000
00010000
00000000
,
00001000
00000000
00010010
00000000
00000000
00000100
00001000
00000010
,
00000100
00000000
00000011
00000000
00000000
00000100
00010000
00000000
,
00001000
00000000
01100000
00000000
00000000
10000000
00010000
00000000
,
01000000
00000000
00011000
00000000
00000000
00000010
00000001
00000000
,
00001000
00000000
00010100
00000000
00000000
00001000
00010000
00000000
,
01100000
00000000
01000000
00100000
10000000
00010000
00100000
00000000
,
11000000
00000000
00100000
00001000
00010000
00000100
00001000
00000000
,
00000110
00000000
00000001
00001000
00000010
00010000
00001000
00000000
,
00011000
00000000
00100000
10000000
00010000
00100000
00001000
00000000
,
00011000
00000000
00010000
00000010
00001000
00000001
00000100
00000000
,
00001010
00000000
00010000
00001000
00100000
00010000
01000000
00000000
,
11000000
00000000
00100000
10000000
00010000
00100000
00001000
00000000
,
00022000
00000000
00000000
00033000
,
00010000
00001000
00010000
00000000
00001000
00000000
00010000
00000000
00000010
00000000
00000100
00000000
00000001
00000000
00000010
00000000
,
00000100
00001000
00000010
00001000
00000100
00010000
00001000
00100000
,
00001000
00000000
00010000
00001000
00010000
00000000
00001000
00000000
00100000
00000000
00010000
00000000
01000000
00000000
00100000
00000000
,
01000000
00000000
00001000
00000000
00100000
00010000
00100000
00010000
00100000
00000000
00010000
00000000
10000000
00000000
00000000
00000000
,
10010000
10000000
00100000
00000000
01001000
00001000
00010000
00001000
,
00100000
00010000
10000000
01000000
00100000
00001000
00010000
00000000
,
00001000
00000000
00010000
00001000
00010000
00000000
00000010
00000000
00000100
00000000
00000001
00000000
00001000
00000000
00000100
00000000
,
00000010
00000000
00000001
00001000
00000001
00000000
00000100
00000000
00000010
00000000
00000100
00000000
00001000
00000000
00010000
00000000
,
00011000
00010010
00011000
01001000
,
00011000
00000000
00010000
00001000
01000000
00100000
01000000
00000000
,
00100000
10000000
01000000
00100000
00010000
10000000
01000000
00100000
,
00001000
00000000
00000000
00001000
00010000
00000000
00000000
00010000
00001000
00000000
00010000
00000000
00000100
00001000
00000100
00001000
,
00000100
00000000
00000110
00000000
00000010
00000001
00001000
00000010
,
00000100
00000001
00000100
00001000
00010000
01000000
00100000
00010000
,
00100000
00000000
00010000
10000000
00010000
00000000
01000000
00010000
01000000
00000000
00010000
00000000
00100000
00000000
00001000
00000000
,
00010000
00000000
00000100
00001000
00000100
00000000
00001000
00000001
00001000
00000000
00000100
00000000
00000010
00000000
00000000
00000000
,
00000001
00000000
00000100
00001000
00000000
00010000
00001000
00000000
00000100
00000001
00000000
00000020
00000000
00000000
00000100
00000000
,
00001030
00000000
00010000
00001000
00000000
00000100
00000001
00000000
00000010
00001000
00000000
00020000
00000000
00000000
00001000
00000000
,
01030000
00000000
00100000
10000000
00000000
00100000
00010000
00000000
00001000
00010000
00000000
20000000
00000000
00000000
00100000
00000000
,
31000000
00000000
00010000
01000000
00000000
00001000
00000010
00000000
00010000
01000000
00000000
00020000
00000000
00000000
00031000
00000000
,
00011000
00000000
00010000
00001000
00000000
00001000
00000100
00000000
00000100
00000001
00000000
00000010
00000000
00000000
00001000
00000000
,
00001001
00000000
00000010
00001000
00000000
00001000
00010000
00000000
00010000
01000000
00000000
00100000
00000000
00000000
10000000
00000000
,
10010000
00000000
10000000
00010000
00000000
00010000
00100000
00000000
00100000
00001000
00000000
00010000
00000000
00000000
00001000
00000000
,
00011000
00000000
00010000
00000010
00000000
00000010
00000100
00000000
00000100
00000001
00000000
00000100
00000000
00000000
00000001
00000000
,
00000101
00000000
00000001
00000100
00000000
00000100
00000010
00000000
00001010
00000000
00000010
00010000
00000000
00010000
00001000
00000000
,
00011000
00000000
00010000
00001000
00000000
00001000
01000000
00000000
01100000
00000000
00100000
10000000
00000000
10000000
00010000
00000000
,
10010000
10010000
00000000
00100000
00011000
00011000
00000000
00000010
,
00001001
00000110
00001001
00000110
,
00000001
00000100
00000010
00010000
00001000
01000000
00100000
10000000
,
01000000
00010000
00001000
00000010
00000001
00000100
00001000
00010000
,
02000000
00000000
00000000
00000000
,
03100000
00000000
00000000
00000000
10010000
00000000
10000000
00100000
01000000
00000000
00100000
00000000
01000000
00000000
00010000
00000000
,
10000000
01000000
00010000
00001000
00000100
00000010
00001000
00000100
,
00000110
00000000
00000010
00000001
00000101
00000000
00001000
00010000
,
00000000
00010000
00001000
00001000
00010000
01000000
10000000
00010000
,
10010000
00000000
00010000
01000000
00100000
00000000
00100000
01000000
,
00000000
01000000
00010000
00000000
00010000
01000000
00100000
00000000
,
01000000
00100000
10000000
01000000
00010000
00001000
00000100
00000001
,
00000010
00000100
00001000
00000001
00001000
00000010
00000100
00000001
,
00000101
00000000
00000000
00000000
00000100
00000000
00000010
00001000
00000010
00000000
00010000
00000000
00001000
00000000
00001000
00000000
,
00000000
00000000
00000000
00000000
00000000
00000000
01000000
00010000
01000000
00000000
00010000
00000000
00100000
00000000
00100000
00000000
,
01000000
00000000
00000000
00000000
00000000
00000000
00010000
10000000
00010000
00000000
01000000
00000000
00100000
00000000
00100000
00000000
,
00000000
00000000
00000000
00000000
00000000
00000000
00001000
00010000
00001000
00000000
00010000
00000000
00001000
00000000
00001000
00000000
,
00000100
00000000
00000010
00001000
00000001
00000100
00000010
00001000
,
00000000
00000100
00010000
00000000
00001000
00010000
00100000
00000000
,
01000000
00000000
00100000
10000000
00100000
00000000
10000000
00000000
01000000
00000000
00100000
00000000
00001000
00000000
00010000
00001000
,
00010000
00000000
00000100
00001000
00000100
00000000
00001000
00000000
00000010
00000100
00000010
00000100
00000010
00000000
00000000
00000000
,
00000001
00000100
00000001
00000000
00000010
00000000
00000100
00001000
00000100
00000000
00010000
00000000
00001000
00010000
00001000
00000000
,
01000000
00100000
10000000
01000000
00010000
00001000
00010000
01000000
,
00100000
01000000
00000000
10000000
01000000
00100000
00010000
00000000
,
00100000
00010000
00001000
00000000
00011000
00000000
00000010
00001000
,
00001100
00000000
00000011
00000000
00001000
00000100
00000010
00000001
,
00000000
00000000
00000001
00000000
00000100
00000000
00000000
00000000
00001000
00000000
00000000
01000000
00000000
00000000
00100000
00000000
,
01100000
00000000
10000000
01000000
00100000
00010000
00001000
00000000
,
00022000
00000000
00033000
00000000
00000010
00000001
00001001
00000000
,
00001000
00000001
00000010
00000100
00001000
00000001
00000010
00000100
,
00001000
00000100
00010000
00001000
00100000
01000000
00100000
00000000
,
10000000
01000000
00100000
00010000
01000000
00100000
00010000
00001000
,
01000000
00100000
01000000
00010000
00100000
01000000
00100000
00000000
,
00010000
10000000
01000000
00100000
00010000
00001000
00000100
00000010
,
00000001
00000000
00000011
00001100
,
00011000
00000000
01000000
00010000
00001000
00000010
00001001
00000000
,
00000000
00000000
00000000
00000000
;
#NOTES:
     dance-double:
     :
     Challenge:
     18:
     :
00000000
00000000
00000000
00000000
,
00000000
00000000
00000000
00000000
,
00000000
00000000
00000000
00000000
,
00000000
00000000
00000000
00000000
,
00000000
00000000
00000000
00000000
,
00000000
00000000
00000000
00000000
,
00000000
00000000
00000000
00000000
,
00000000
00000000
00000000
00000000
,
00000000
00000000
00000000
00000000
,
00000000
00000000
00000000
00000000
,
00000100
00000000
00000100
00000000
00000010
00000000
00000001
00001000
00000100
00000000
00000010
00000000
00000010
00000000
00000100
00001000
,
00000100
00001000
00000010
00000000
00010000
00001000
00000000
00100000
,
01000000
00000000
01000000
00000000
00100000
00000000
00010000
10000000
01000000
00000000
01000000
00000000
00100000
00000000
01000000
00000000
,
10000000
00000000
00000000
10000000
01000000
00000000
00000000
01000000
00010000
00000000
00000000
00010000
00001000
00000000
00000000
00000000
,
00010000
00000000
00010000
00000000
00000010
00000000
00001000
00000001
00001000
00000000
00000100
00000000
00000010
00000000
00000001
00000000
,
00001000
00000010
00010000
00000000
00001000
00100000
00000000
00100000
,
01000000
00000000
01000000
00000000
00100000
00000000
00010000
01000000
00010000
00000000
00100000
00000000
00001000
00010000
00001000
00000000
,
00000000
00000000
00000000
00000000
,
00201000
00000000
10000000
00000000
00000000
00301000
00010000
00000000
,
00001020
00000000
00000001
00000000
00000000
00001030
00010000
00000000
,
00210000
00000000
10000000
00000000
00000000
00301000
00010000
00000000
,
00001020
00000000
00000001
00000000
00000000
00001030
00000010
00000001
,
00000010
00000000
00000101
00000000
00000000
00001000
00010000
00000000
,
00100000
00000000
11000000
00000000
00000000
00010000
00001000
00000000
,
00000010
00000000
00001100
00000000
00000000
00000010
00000100
00000000
,
00000001
00000000
00001100
00000000
00000000
00010000
00001000
00000000
,
00001000
00000000
00010000
00000000
00001000
00000000
00100000
00000000
00000000
01000000
10000000
00000000
00010000
00000000
00100000
00000000
,
00001000
00000000
00010000
00000000
00001000
00000000
00000100
00000000
00000000
00000100
00000010
00000000
00000110
00000000
00000000
00000000
,
00000100
00000000
00000001
00000000
00001000
00000000
00000010
00000000
00000000
00010000
00001000
00000000
00100000
00000000
01000000
00000000
,
10000000
00000000
00100000
00000000
01000000
00000000
00010000
00000000
00000000
10000000
00010000
00000000
10010000
00000000
00000000
00000000
,
01000000
00000000
00010000
00000000
00100000
00000000
00001000
00000000
00000000
00010000
00000100
00000000
00001000
00000000
00000010
00000000
,
00001000
00000000
00000100
00000000
00000010
00000000
00000001
00000000
00000000
00001000
00000001
00000000
00001001
00000000
00000000
00000000
,
00000001
00000000
00000010
00000000
00000100
00000000
00001000
00000000
00000000
00000010
00001000
00000000
00000100
00000000
00010000
00000000
,
00022000
00000000
00000000
00033000
,
10000000
01000000
00000000
01000000
00100000
00000000
00100000
00001000
00000000
00001000
00010000
00000000
00000100
00000000
00000010
00000000
,
00000001
00000010
00000000
00000010
00000100
00000000
00000100
00010000
00000000
00010000
00001000
00000000
00010000
00000000
00100000
00000000
,
01000000
00000000
00010000
00100000
01000000
00000000
10000000
00000000
00010000
00000000
10000000
00100000
01000000
00000000
00010000
00000000
,
00100000
00001000
00100000
00000000
00001000
00010000
00001000
00000000
00010000
00000100
00010000
00000000
00000100
00000000
00001000
00000000
,
00000001
00001000
00000010
00001000
00000100
00000010
00000001
00001000
,
00000100
00010000
00001000
01000000
00100000
10000000
00010000
00000000
,
10010000
00000000
10000000
01000000
00100000
00000000
00010000
00000000
01000000
00000000
00001000
00010000
00000100
00000000
00000010
00000000
,
00000001
00000000
00000100
00000010
00001000
00000000
00000001
00000000
00001000
00000001
00001000
00000001
00001000
00000000
00000000
00000000
,
00001001
00011000
00001100
00011000
,
00110000
00000000
01000000
01100000
00000000
00001000
00011000
00000000
,
00001000
01000000
00010000
00100000
01000000
10000000
00100000
01000000
,
00010000
00000000
00100000
00000000
00001000
00000000
00010000
00000000
00000100
00000000
00001000
00000100
00001000
00000100
00000010
00000001
,
00000010
00000000
00000000
00000000
00001001
00000000
00000000
00000000
00000010
00010000
00000000
00000000
00001000
00010000
00000000
00000000
,
00001000
01000000
00000000
00000000
00010000
01000000
00000000
00000000
00010000
00000000
10000000
00000000
10010000
00000000
00000000
00000000
,
00100000
00000000
01000000
10000000
01000000
10000000
00010000
00100000
00010000
00100000
00001000
00010000
00001000
00010000
00000100
00001000
,
00000100
00001000
00000010
00001000
00000010
00001000
00000001
00000100
00000001
00000100
00000010
00000000
00000110
00000000
00000000
00000000
,
00001001
00000000
00000001
00000010
00000100
00001000
00000010
00000100
00000001
00000010
00000100
00001000
00000010
00000100
00000001
00000000
,
00001100
00000000
00000100
00001000
00010000
01000000
00001000
00010000
00000100
00001000
00010000
01000000
00001000
00010000
01000000
00000000
,
01010000
00000000
10000000
01000000
00100000
00010000
10000000
00100000
01000000
00010000
00100000
01000000
10000000
01000000
00100000
00000000
,
00101000
00000000
00010000
00000100
00000010
00001000
00010000
00000010
00001000
00000100
00010000
00000010
00000100
00001000
00010000
00000000
,
00011000
00000000
00001000
00010000
00001000
00000010
00000100
00000010
00001000
00010000
00000000
00011000
00000000
00000000
00100000
00000000
,
10010000
00000000
00100000
01000000
10000000
00010000
00100000
00010000
01000000
00100000
00000000
01100000
00000000
00000000
10000000
00000000
,
10010000
00000000
00100000
00010000
00001000
00010000
00001000
00000100
00000010
00000100
00000000
00000110
00000000
00000000
00000001
00000000
,
00001001
00000000
00001000
00010000
00001000
00100000
01000000
00100000
00010000
00001000
00000000
00011000
00000000
00000000
01000000
00000000
,
01100000
00000000
10000000
01000000
00100000
01000000
10000000
00000000
10010000
00000000
00100000
00010000
00001000
00010000
00100000
00000000
,
00011000
00000000
00010000
00001000
00000100
00001000
00010000
00000000
00001001
00000000
00000100
00000010
00000001
00000010
00000100
00000000
,
00001001
00001010
00000000
00000100
00001001
00000011
00000000
00000110
,
00000110
00011000
01100000
10010000
,
10000000
01000000
00100000
00010000
00001000
00000100
00000010
00000001
,
00000001
00000100
00000010
00001000
00000100
00010000
00001000
00100000
00010000
01000000
00100000
10000000
00010000
00100000
01000000
10000000
,
02000000
00000000
00000000
00000000
00000000
03000000
00000000
00000000
,
00011000
00000000
00000000
00000000
00001000
00000000
00010000
00100000
01000000
00000000
00100000
00000000
10000000
00000000
01000000
00000000
,
00100000
00000000
00001000
00000000
00010000
00000000
00000100
00000010
00000100
00000000
00001000
00000000
00000010
00000000
00000100
00000000
,
00000110
00000000
00000101
00001000
00001000
00000000
00001100
00000001
,
00000000
00001000
00000100
00010000
00001000
00100000
00010000
10000000
,
10010000
00000000
00110000
00100000
01000000
00000000
10010000
01000000
,
00000000
01000000
00010000
00000000
00001000
00010000
00000010
00000000
,
00001001
00000000
00000001
00000010
00000100
00000000
00000010
00000100
00001000
00000000
00000100
00001000
00010000
00000000
00001000
00010000
,
00100000
00000000
00010000
00100000
01000000
00000000
00100000
01000000
10000000
00000000
00100000
00000000
01000000
00000000
00010000
00000000
,
10010000
00000000
00000000
00000000
00110000
00000000
00001000
00010000
00000100
00000000
00010000
00001000
01000000
00000000
00020000
00000000
,
00000000
00000000
00030000
00000000
10010000
00000000
00100000
00010000
01000000
00000000
00100000
10000000
01000000
00000000
00200000
00000000
,
00000000
00000000
00300000
00000000
00011000
00000000
00010000
00001000
00100000
00000000
00001000
00010000
00000010
00000000
00002000
00000000
,
00000000
00000000
00003000
00000000
00001001
00000000
00000010
00001000
00000100
00000000
00000010
00000001
00000100
00000000
00000010
00000000
,
00000110
00000000
00001001
00000000
00000001
00000000
00000100
00000010
,
00000000
00000010
00000100
00000000
00001000
00000000
00000001
00000000
,
00000010
00000000
00000001
00000010
00000100
00001000
00000001
00000010
00000100
00001000
00000001
00000010
00000100
00001000
00000100
00010000
,
00000100
00010000
00001000
00010000
00001000
00100000
00010000
00100000
00010000
00100000
01000000
10000000
01000000
00000000
00000000
00000000
,
10000000
01000000
10000000
01000000
00100000
00000000
00001000
00010000
00001000
00010000
00000100
00000000
00001000
00000100
00001000
00000100
,
00000010
00000001
00001000
00010000
00001000
00100000
01000000
00100000
,
00010000
00210000
00000000
10300000
00100000
00010000
10010000
00000000
,
11000000
01000000
00100000
00000000
00101000
00000000
00010000
00000010
,
00010020
00000000
00000001
00000000
00001030
00000001
00000010
00001100
,
00000000
00000000
00001000
00000000
00001000
00000000
00000000
00000000
00010100
00000000
00000000
00011000
00000000
00000000
00101000
00000000
,
00210000
00000000
10300000
00100000
01000000
10000000
10010000
00000000
,
00021000
00000000
00130000
01000000
00100000
00010000
00011000
00000000
,
00001100
00010000
00000010
00000100
00001000
00010000
00000010
00000100
,
00001000
00010000
00001000
00000100
00000001
00000100
00001000
00000000
,
00010100
00010000
00001000
00010000
00001000
00100000
01000000
00100000
,
00001000
00010000
00001000
00100000
00010000
01000000
10000000
00000000
,
10010000
01000000
00100000
00010000
00001000
00000100
00000010
00000001
,
00001001
00000000
00000110
00011000
,
00101000
00000000
12000000
03010000
00001000
00000001
00000011
00000000
,
00000000
00000000
00000000
00000000
;
