
//----- song ID: batf -----//
#TITLE:羽之谣;
#ARTIST:SHIN SOUND DESIGN feat.罗斓;
#TITLETRANSLIT:BALLAD THE FEATHERS;
#ARTISTTRANSLIT:SHIN SOUND DESIGN feat.Luo Lan;
#BANNER:BALLAD THE FEATHERS (Chinese).png;
#BACKGROUND:BALLAD THE FEATHERS (Chinese)-bg.png;
#CDTITLE:./CDTitles/bm IIDX 13 DistorteD.png;
#MUSIC:BALLAD THE FEATHERS (Chinese).ogg;
#SAMPLESTART:51.32;
#SAMPLELENGTH:15;
#BPMS:0=132;
#BGCHANGES:0=../BALLAD THE FEATHERS/BALLAD THE FEATHERS.avi=1=0=0=0;
#NOTES:
     dance-single:
     :
     Beginner:
     2:
     :
0000
0000
0000
0000
,
0000
0000
0000
0000
,
0000
0000
0000
0000
,
0001
0000
0000
0000
,
1000
0000
0000
0000
,
0010
0000
0000
0000
,
0010
0000
0000
0000
,
0100
0000
0000
0000
,
0100
0000
0000
0000
,
0001
0000
0001
0000
,
1000
0000
0000
0000
,
1000
0000
1000
0000
,
0001
0000
0000
0000
,
0010
0000
0000
0000
,
1000
0000
0000
0000
,
0010
0000
0000
0000
,
1000
0000
0000
0000
,
0010
0000
0000
0000
,
0001
0000
0000
0000
,
0010
0000
0000
0000
,
0001
0000
0000
0000
,
1000
0000
1000
0000
,
0100
0000
0000
0000
,
0001
0000
0001
0000
,
0100
0000
0000
0000
,
1000
0000
1000
0000
,
0010
0000
0000
0000
,
0001
0000
0001
0000
,
0010
0000
0000
0000
,
0000
0000
0000
0000
,
1000
1000
1000
1000
,
0000
0000
0000
0000
,
0010
0010
0010
0010
,
0000
0000
0000
0000
,
0001
0001
0001
0001
,
0000
0000
0000
0000
,
0100
0100
0100
0100
,
0100
0000
0000
0000
,
0100
0000
0000
0000
,
0100
0000
0000
0000
,
0000
0000
0000
0000
,
1000
0000
0010
0000
,
1000
0000
0000
0000
,
0001
0000
0010
0000
,
0001
0000
0000
0000
,
1000
0000
0100
0000
,
1000
0000
0000
0000
,
0001
0000
0100
0000
,
0001
0000
0000
0000
,
1000
0000
0001
0000
,
1000
0000
0000
0000
,
0001
0000
0000
0000
,
1000
0000
0000
0000
,
0001
0000
0000
0000
,
1000
0000
0001
0000
,
0000
0000
0000
0000
;
#NOTES:
     dance-single:
     :
     Easy:
     4:
     :
0000
0000
0000
0000
,
0000
0000
0000
0000
,
0000
0000
0000
0000
,
0001
0000
1000
0000
,
0010
0100
0010
0000
,
0001
0000
0000
0000
,
1000
0000
0000
0000
,
0010
0000
0000
0000
,
0001
1000
1001
0000
,
0100
1000
0001
0000
,
0010
0100
1000
0001
,
0010
0100
0001
0000
,
0100
0010
0110
0000
,
1000
0000
0010
0000
,
0001
0000
0010
0000
,
0100
0000
0010
0000
,
1000
0000
0001
0000
,
0100
0000
0010
0000
,
1000
0000
0010
0000
,
0001
0000
0100
0000
,
1000
0001
1001
0000
,
0010
1000
0001
0000
,
0010
0001
1000
0000
,
0010
0000
0001
0000
,
0010
0000
1000
0000
,
0100
0010
0100
0000
,
0010
0100
0010
0000
,
0100
0001
1000
0000
,
1001
0000
0000
0000
,
0001
0100
0010
0000
,
0100
0010
0100
1000
,
0010
0100
0010
0000
,
0100
0010
0100
0000
,
0001
1000
0010
0000
,
0010
1000
0100
0100
,
1000
0001
0010
0000
,
0010
0001
1000
0000
,
0001
0000
0000
0000
,
1000
0000
0000
0000
,
0100
0000
0000
0000
,
0110
0000
0000
0000
,
1000
0100
0010
0000
,
0100
0010
0100
1000
,
0010
0100
0010
0000
,
0100
0010
0100
0000
,
1000
0001
0010
0000
,
0010
0001
0100
0100
,
0001
1000
0010
0000
,
0010
1000
0001
0000
,
1000
0001
0010
0000
,
0010
0001
1000
0000
,
0100
0000
0000
0000
,
0010
0000
0000
0000
,
1000
0000
0000
0000
,
0001
0100
1000
0100
,
0000
0000
0000
0000
;
#NOTES:
     dance-single:
     :
     Medium:
     7:
     :
0000
0000
0000
0000
,
0000
0000
0000
0000
,
0000
0000
0000
0000
,
1000
0100
0001
0010
,
0100
0010
0100
0000
,
1000
0000
0100
0000
,
0001
0000
0010
1000
,
0100
0000
0001
0000
,
1000
0001
1001
0000
,
0100
0000
0001
0000
1000
0000
0010
0001
,
0010
0000
0100
0000
0001
0000
1000
0100
,
0010
0000
0100
0000
1000
0000
0001
0010
,
0100
0000
0010
0000
0110
0000
0010
0010
,
0001
0000
0010
0000
,
1000
0000
0010
0000
,
0100
0000
0010
0000
,
0001
1000
0001
0000
,
0100
1000
0010
0000
,
0100
0001
0010
0000
,
0001
1000
0100
1000
,
0001
1000
0110
1001
,
0010
0000
0001
0000
1000
0000
0010
0100
,
0010
0000
1000
0000
0001
0000
0010
1000
,
0010
0000
0100
0000
1000
0000
0001
0100
,
0010
0100
0001
0001
,
0100
0000
0010
0000
0100
1000
0010
0000
,
0100
0000
0010
0000
0100
0001
0010
0000
,
0100
0000
1000
0001
0000
0110
0000
1001
,
0000
0000
0000
0000
,
1000
0000
0100
0000
0010
0000
0001
1000
,
0100
0000
0010
0000
0100
0000
0001
1000
,
0010
0000
0100
0000
0010
0000
0001
1000
,
0100
0000
0010
0000
0100
0100
0100
0000
,
1000
0000
0001
0000
0010
0000
1000
0001
,
0010
0001
0100
0100
,
0001
1000
0010
0001
,
0010
0000
1000
0000
0001
0001
0001
0000
,
1000
0000
0100
0000
,
0001
0000
0010
1000
,
0100
0000
0001
0000
,
0110
0000
0010
0010
,
0001
0000
0100
0000
0010
0000
1000
0001
,
0100
0000
0010
0000
0100
0000
1000
0001
,
0010
0000
0100
0000
0010
0000
1000
0001
,
0100
0000
0010
0000
0100
0100
0100
0000
,
0001
0000
1000
0000
0010
0000
0001
1000
,
0010
1000
0100
0100
,
1000
0001
0010
1000
,
0010
0000
0001
0000
1000
1000
1000
0000
,
0001
1000
0010
0001
,
0010
0000
1000
0000
0001
0001
0001
0000
,
0100
0000
0001
0000
,
0010
0000
1000
0100
,
0001
0000
0010
0000
,
1000
0101
0001
1100
,
0000
0000
0000
0000
;
#NOTES:
     dance-single:
     :
     Hard:
     10:
     :
0000
0000
0000
0000
,
0000
0000
0000
0000
,
0000
0000
0000
0000
,
0001
0010
1000
0100
,
0010
0000
0000
0000
0100
0000
0000
0100
0010
0000
0010
0000
0010
0000
0010
0000
,
0001
0000
0010
0000
,
1000
0000
0100
0001
,
0010
0000
1000
0000
,
0001
0000
0000
1000
0000
0000
0001
0000
1001
0000
0000
0000
0000
0000
0000
0000
,
0010
0000
0000
0010
1000
0000
0000
0000
0001
0000
0000
0001
0100
0000
1000
0000
,
0100
0000
0000
0100
0010
0000
0000
0000
1000
0000
0000
1000
0001
0000
0010
0000
,
0100
0000
0000
0100
0010
0000
0000
0000
0001
0000
0000
0001
1000
0000
0100
0000
,
0010
0000
0000
0100
0000
0000
0110
0000
0000
0000
0100
0000
0100
0000
0100
0000
,
1000
0000
0100
0000
,
0001
0000
0100
0000
,
0010
0000
0100
0000
,
1000
1000
0001
0001
,
0010
0001
0100
0000
,
0010
1000
0100
0000
,
1000
0001
0010
0001
,
1000
0000
0000
0001
0000
0000
1000
0000
1001
0000
0000
0000
0110
0000
0000
0000
,
0100
0000
0000
0100
1000
0000
0000
0000
0001
0000
0000
0001
0100
0000
0010
0000
,
0100
0000
0000
0100
0001
0000
0000
0000
1000
0000
0000
1000
0100
0000
0001
0000
,
0100
0000
0000
0100
0010
0000
0000
0000
0001
0000
0000
0001
1000
0000
0010
0000
,
0100
0000
0110
0000
1000
0001
1000
0000
,
0010
0000
0000
0010
0100
0000
0000
0000
0010
0000
0001
0000
0100
0000
0000
0000
,
0010
0000
0000
0010
0100
0000
0000
0000
0010
0000
1000
0000
0100
0000
0000
0000
,
0010
0000
0000
0010
0001
0000
1000
0000
0000
0000
0110
0000
0000
0000
1001
0000
,
0000
0000
0000
0000
,
0001
0000
0000
0001
0010
0000
0000
0010
0100
0000
0000
0100
1000
0000
0000
1000
,
0010
0000
0000
0010
0100
0000
0000
0100
0010
0000
0000
0010
1000
0000
0000
1000
,
0001
0000
0000
0001
0010
0000
0000
0010
0100
0000
0000
0100
1000
0000
0000
1000
,
0001
0000
0000
0001
0100
0000
0010
0000
0100
0000
0100
0000
0100
0000
0000
0000
,
0010
0000
0000
0010
1000
0000
0000
1000
0100
0000
0000
0100
0001
0000
0000
0001
,
0100
0000
0000
0100
1000
0000
0000
1000
0010
0000
0000
0010
0000
0000
0010
0000
,
1000
0000
0000
1000
0001
0000
0000
0001
0100
0000
0000
0100
1000
0000
0000
1000
,
0100
0000
0000
0100
0001
0000
0000
0001
1000
0000
1000
0000
1000
0000
0000
0000
,
0001
0000
0010
0000
,
1000
0000
0100
0001
,
0010
0000
1000
0000
,
0110
0000
0000
0000
0000
0000
0000
0000
0100
0000
0000
0100
0000
0000
0100
0000
,
1000
0000
0000
1000
0010
0000
0000
0010
0100
0000
0000
0100
0001
0000
0000
0001
,
0010
0000
0000
0010
0100
0000
0000
0100
0010
0000
0000
0010
0001
0000
0000
0001
,
1000
0000
0000
1000
0010
0000
0000
0010
0100
0000
0000
0100
0001
0000
0000
0001
,
1000
0000
0000
1000
0100
0000
0010
0000
0100
0000
0100
0000
0100
0000
0000
0000
,
0010
0000
0000
0010
0001
0000
0000
0001
0100
0000
0000
0100
1000
0000
0000
1000
,
0100
0000
0000
0100
0001
0000
0000
0001
0010
0000
0000
0010
0000
0000
0010
0000
,
0001
0000
0000
0001
1000
0000
0000
1000
0100
0000
0000
0100
0001
0000
0000
0001
,
0100
0000
0000
0100
1000
0000
0000
1000
0001
0000
0001
0000
0001
0000
0000
0000
,
1000
0000
0000
1000
0001
0000
0000
0001
0100
0000
0000
0100
1000
0000
0000
1000
,
0100
0000
0000
0100
0001
0000
0000
0001
1000
0000
1000
0000
1000
0000
0000
0000
,
0010
0000
1000
0000
,
0100
0000
0001
0010
,
1000
0000
0100
0000
,
0001
0000
0000
1000
0000
0000
1010
0000
1000
0000
0000
0001
0000
0000
0011
0000
,
0000
0000
0000
0000
;
#NOTES:
     dance-single:
     :
     Challenge:
     8:
     :
0000
0000
0000
0000
,
0000
0000
0000
0000
,
0000
0000
0000
0000
,
0001
0100
1000
0010
,
0100
0010
0100
MMMM
,
0001
0000
0100
0000
,
1000
0000
0010
0001
,
0100
0000
1000
0000
,
0001
1000
1001
MMMM
,
0100
0000
1000
0000
0001
0000
MMMM
1000
,
0010
0000
0100
0000
1000
0000
MMMM
0100
,
0010
0000
0100
0000
0001
0000
MMMM
0010
,
0100
0010
0110
MMMM
,
1000
0000
0010
0000
,
0001
0000
0010
0000
,
0100
0000
0010
0000
,
1000
0001
1000
0000
,
0100
0001
0010
0000
,
0100
1000
0010
0000
,
1000
0001
0100
0001
,
1000
0001
0110
MMMM
,
0010
0000
1000
0000
0001
0000
MMMM
0100
,
0010
0000
0001
0000
1000
0000
MMMM
0001
,
0010
0000
0100
0000
0001
0000
MMMM
0100
,
0010
0100
1000
1000
,
0100
0000
0010
0000
0100
0001
0010
0000
,
0100
0000
0010
0000
0100
1000
0010
0000
,
0100
0000
0001
1000
0000
0110
0000
1001
,
0000
0000
0000
MMMM
,
0001
0000
0100
0000
0010
0000
MMMM
0001
,
0100
0000
0010
0000
0100
0000
MMMM
0001
,
0010
0000
0100
0000
0010
0000
MMMM
0001
,
0100
0000
0010
0000
0100
0100
0100
0000
,
0001
0000
1000
0000
0010
0000
MMMM
1000
,
0010
1000
0100
0100
,
1000
0001
0010
1000
,
0010
0000
0001
0000
1000
1000
1000
0000
,
0001
0000
0100
0000
,
1000
0000
0010
0001
,
0100
0000
1000
0000
,
0110
0000
0010
MMMM
,
1000
0000
0100
0000
0010
0000
MMMM
1000
,
0100
0000
0010
0000
0100
0000
MMMM
1000
,
0010
0000
0100
0000
0010
0000
MMMM
1000
,
0100
0000
0010
0000
0100
0100
0100
0000
,
1000
0000
0001
0000
0010
0000
MMMM
0001
,
0010
0001
0100
0100
,
0001
1000
0010
0001
,
0010
0000
1000
0000
0001
0001
0001
0000
,
1000
0001
0010
1000
,
0010
0000
0001
0000
1000
1000
1000
0000
,
0100
0000
1000
0000
,
0010
0000
0001
0100
,
1000
0000
0010
0000
,
0001
MMMM
1000
MMMM
,
0000
0000
0000
0000
;
#NOTES:
     dance-double:
     :
     Easy:
     4:
     :
00000000
00000000
00000000
00000000
,
00000000
00000000
00000000
00000000
,
00000000
00000000
00000000
00000000
,
00001000
00000000
00000001
00000000
,
00000010
00000100
00000010
00000000
,
00010000
00000000
00000000
00000000
,
00001000
00000000
00000000
00000000
,
00100000
00000000
00000000
00000000
,
10000000
00010000
10010000
00000000
,
01000000
00010000
10000000
00000000
,
01000000
00010000
00001000
00000000
,
00010000
00001000
00000100
00000000
,
00000010
00000100
00000110
00000000
,
00000001
00000000
00001000
00000000
,
00000010
00000000
00001000
00000000
,
00000001
00000000
00000100
00000000
,
00001000
00000000
00010000
00000000
,
00001000
00000000
00010000
00000000
,
01000000
00000000
10000000
00000000
,
00010000
00000000
01000000
00000000
,
10000000
00010000
10010000
00000000
,
00100000
10000000
00100000
00000000
,
10000000
01000000
10000000
00000000
,
01000000
00010000
01000000
00000000
,
00010000
00001000
00010000
00000000
,
00000010
00001000
00000010
00000000
,
00001000
00000100
00001000
00000000
,
00000010
00000000
00000100
00000000
,
00001001
00000000
00000000
00000000
,
00001000
00000000
00000010
00000000
,
00000100
00000010
00000100
00000100
,
00001000
00000000
00010000
00000000
,
01000000
00100000
01000000
01000000
,
00010000
00000000
00001000
00000000
,
00000010
00000010
00000100
00000100
,
00001000
00000000
00000010
00000000
,
00000001
00000000
00000100
00000000
,
00001000
00000000
00000000
00000000
,
00010000
00000000
00000000
00000000
,
00001000
00000000
00000000
00000000
,
00011000
00000000
00000000
00000000
,
00010000
00000000
00100000
00000000
,
01000000
00100000
01000000
01000000
,
00010000
00000000
00001000
00000000
,
00000100
00000010
00000100
00000100
,
00001000
00000000
00010000
00000000
,
00100000
00100000
01000000
01000000
,
00010000
00000000
00000000
00000000
,
10000000
00000000
00000000
00000000
,
00100000
01000000
00100000
00000000
,
00100000
00010000
01000000
00000000
,
00001000
00000000
00001000
00000000
,
00010000
00000000
00010000
00000000
,
00000010
00000000
00000010
00000000
,
00001000
00000100
00000001
00000100
,
00000000
00000000
00000000
00000000
;
#NOTES:
     dance-double:
     :
     Medium:
     7:
     :
00000000
00000000
00000000
00000000
,
00000000
00000000
00000000
00000000
,
00000000
00000000
00000000
00000000
,
00010000
01000000
10000000
00100000
,
00010000
00001000
00010000
00000000
,
00001000
00000000
00000100
00000000
,
00000001
00000000
00001000
00000001
,
00001000
00000000
00000010
00000000
,
00010000
00001000
00011000
00000000
,
01000000
00000000
10000000
00000000
00010000
00000000
00100000
01000000
,
00100000
00000000
01000000
00000000
10000000
00000000
00100000
00010000
,
00001000
00000000
00000010
00000000
00001000
00000000
00010000
00001000
,
00000100
00000010
00000110
00000000
,
00001000
00000000
00000100
00000000
,
00000010
00000000
00010000
00000000
,
00001000
00000000
00100000
00000000
,
10000000
00010000
10000000
00000000
,
01000000
00010000
00100000
00000000
,
00100000
00001000
00010000
00000000
,
00000010
00010000
00001000
00000100
,
00000001
00001000
00000110
00001001
,
00000100
00000000
00000100
00000000
00000010
00010000
00000100
00000000
,
00001000
00000000
00001000
00000000
00000010
00010000
00001000
00000000
,
00100000
01000000
10000000
00100000
,
01000000
00000000
01000000
00000000
00100000
01000000
00100000
00000000
,
10000000
00000000
00010000
00000000
01000000
00001000
00010000
00000000
,
00000100
00000000
00001000
00000000
00000001
00000010
00000100
00000000
,
00001000
00000000
00000001
00000100
00000000
00000110
00000000
00001001
,
00000000
00000000
00000000
00000000
,
00000100
00000000
00001000
00000000
00010000
00000000
00000010
00010000
,
00001000
00000000
00100000
00000000
01000000
00000000
10000000
00010000
,
00100000
00000000
01000000
00000000
00100000
00000000
00010000
00001000
,
00000100
00000000
00000010
00000000
00000100
00000100
00000100
00000000
,
00001000
00000000
00000001
00000000
00000100
00000000
00000010
00000100
,
00000001
00000010
00001000
00001000
,
00010000
00100000
10000000
00010000
,
00100000
00000000
00010000
00000000
10000000
10000000
10000000
00000000
,
00010000
00000000
01000000
00000000
,
00001000
00000000
00010000
00000010
,
00001000
00000000
00000100
00000000
,
00011000
00000000
00010000
00010000
,
01000000
00000000
00010000
00000000
00001000
00000000
00100000
00001000
,
00010000
00000000
00000010
00000000
00000100
00000000
00000001
00001000
,
00000010
00000000
00000100
00000000
00000010
00000000
00001000
00010000
,
01000000
00000000
00100000
00000000
01000000
01000000
01000000
00000000
,
00010000
00000000
10000000
00000000
01000000
00000000
00100000
01000000
,
10000000
00100000
00010000
00010000
,
00001000
00000010
00000001
00001000
,
00000010
00000000
00001000
00000000
00000001
00000001
00000001
00000000
,
00000100
00001000
00010000
00100000
,
10000000
00000000
00010000
00000000
10000000
10000000
10000000
00000000
,
01000000
00000000
10000000
00000000
,
00100000
00000000
10000000
00010000
,
01000000
00000000
00001000
00000000
,
00100000
00011000
00000010
00011000
,
00000000
00000000
00000000
00000000
;
#NOTES:
     dance-double:
     :
     Hard:
     11:
     :
00000000
00000000
00000000
00000000
,
00000000
00000000
00000000
00000000
,
00000000
00000000
00000000
00000000
,
00000001
00000010
00001000
00010000
,
00001000
00000000
00000000
00000000
00000100
00000000
00000000
00000100
00000010
00000000
00000010
00000000
00000010
00000000
00000010
00000000
,
00001000
00000000
00010000
00000000
,
10000000
00000000
01000000
10000000
,
00100000
00000000
00010000
00000000
,
00001000
00000000
00000000
00010000
00000000
00000000
00001000
00000000
00011000
00000000
00000000
00000000
00000000
00000000
00000000
00000000
,
00000010
00000000
00000000
00000010
00000001
00000000
00000000
00000000
00001000
00000000
00000000
00001000
00000100
00000000
00000001
00000000
,
00000100
00000000
00000000
00000100
00010000
00000000
00000000
00000000
00001000
00000000
00000000
00001000
00000010
00000000
00000001
00000000
,
00000100
00000000
00000000
00000100
00000010
00000000
00000000
00000000
00010000
00000000
00000000
00010000
00001000
00000000
01000000
00000000
,
00100000
00000000
00000000
01000000
00000000
00000000
01100000
00000000
00000000
00000000
01000000
00000000
01000000
00000000
01000000
00000000
,
00010000
00000000
10000000
00000000
,
01000000
00000000
00100000
00000000
,
00010000
00000000
00001000
00000000
,
00000010
00001000
00000001
00000000
,
00001000
00000000
00010000
00000000
,
00001000
00000000
00000001
00000000
,
00000010
00000001
00001000
00000010
,
00000100
00000000
00000000
00000010
00000000
00000000
00000100
00000000
00000110
00000000
00000000
00000000
00001001
00000000
00000000
00000000
,
00000100
00000000
00000000
00000100
00000001
00000000
00000000
00000000
00001000
00000000
00000000
00001000
00000100
00000000
00000010
00000000
,
00000100
00000000
00000000
00000100
00010000
00000000
00000000
00000000
00001000
00000000
00000000
00001000
00100000
00000000
00010000
00000000
,
01000000
00000000
00000000
01000000
00100000
00000000
00000000
00000000
10000000
00000000
00000000
10000000
01000000
00000000
00010000
00000000
,
01000000
00000000
01100000
00000000
00100000
00001000
00100000
00000000
,
00010000
00000000
00000000
00010000
01000000
00000000
00000000
00000000
00001000
00000000
00010000
00000000
00001000
00000000
00000000
00000000
,
00000100
00000000
00000000
00000100
00000010
00000000
00000000
00000000
00001000
00000000
00000100
00000000
00001000
00000000
00000000
00000000
,
00000001
00000000
00000000
00000001
00000010
00000000
00000001
00000000
00000000
00000000
00000110
00000000
00000000
00000000
00001001
00000000
,
00000000
00000000
00000000
00000000
,
00000010
00000000
00000000
00000010
00001000
00000000
00000000
00001000
00010000
00000000
00000000
00010000
00100000
00000000
00000000
00100000
,
00010000
00000000
00000000
00010000
00001000
00000000
00000000
00001000
00000100
00000000
00000000
00000100
00001000
00000000
00000000
00001000
,
00010000
00000000
00000000
00010000
01000000
00000000
00000000
01000000
10000000
00000000
00000000
10000000
00010000
00000000
00000000
00010000
,
01000000
00000000
00000000
01000000
00100000
00000000
01000000
00000000
00100000
00000000
00100000
00000000
00100000
00000000
00000000
00000000
,
10000000
00000000
00000000
10000000
00010000
00000000
00000000
00010000
01000000
00000000
00000000
01000000
00001000
00000000
00000000
00001000
,
00010000
00000000
00000000
00010000
00000100
00000000
00000000
00000100
00000010
00000000
00000000
00000010
00000000
00000000
00000010
00000000
,
00000001
00000000
00000000
00000001
00001000
00000000
00000000
00001000
00000100
00000000
00000000
00000100
00000001
00000000
00000000
00000001
,
00000100
00000000
00000000
00000100
00010000
00000000
00000000
00010000
00001000
00000000
00001000
00000000
00001000
00000000
00000000
00000000
,
00010000
00000000
00000010
00000000
,
00000001
00000000
00001000
00010000
,
00001000
00000000
01000000
00000000
,
01100000
00000000
00000000
00000000
00000000
00000000
00000000
00000000
01000000
00000000
00000000
01000000
00000000
00000000
01000000
00000000
,
00100000
00000000
00000000
00100000
00010000
00000000
00000000
00010000
00001000
00000000
00000000
00001000
00000010
00000000
00000000
00000010
,
00001000
00000000
00000000
00001000
00010000
00000000
00000000
00010000
01000000
00000000
00000000
01000000
00010000
00000000
00000000
00010000
,
00001000
00000000
00000000
00001000
00000100
00000000
00000000
00000100
00000001
00000000
00000000
00000001
00001000
00000000
00000000
00001000
,
00000100
00000000
00000000
00000100
00000010
00000000
00000100
00000000
00000010
00000000
00000010
00000000
00000010
00000000
00000000
00000000
,
00000001
00000000
00000000
00000001
00001000
00000000
00000000
00001000
00000100
00000000
00000000
00000100
00010000
00000000
00000000
00010000
,
00001000
00000000
00000000
00001000
01000000
00000000
00000000
01000000
00100000
00000000
00000000
00100000
00000000
00000000
00100000
00000000
,
10000000
00000000
00000000
10000000
00010000
00000000
00000000
00010000
01000000
00000000
00000000
01000000
10000000
00000000
00000000
10000000
,
01000000
00000000
00000000
01000000
00001000
00000000
00000000
00001000
00010000
00000000
00010000
00000000
00010000
00000000
00000000
00000000
,
00000100
00000000
00000000
00000100
00001000
00000000
00000000
00001000
00000010
00000000
00000000
00000010
00010000
00000000
00000000
00010000
,
00000100
00000000
00000000
00000100
00001000
00000000
00000000
00001000
00000001
00000000
00000001
00000000
00000001
00000000
00000000
00000000
,
00000010
00000000
00000001
00000000
,
00000100
00000000
00001000
00010000
,
00100000
00000000
10000000
00000000
,
00010000
00000000
00000000
00100000
00000000
00000000
01100000
00000000
10000000
00000000
00000000
00100000
00000000
00000000
01100000
00000000
,
00000000
00000000
00000000
00000000
;
#NOTES:
     dance-double:
     :
     Challenge:
     8:
     :
00000000
00000000
00000000
00000000
,
00000000
00000000
00000000
00000000
,
00000000
00000000
00000000
00000000
,
00001000
00000100
00000001
00000010
,
00001000
00010000
00001000
00000000
,
00010000
00000000
01000000
MMMMMMMM
,
10000000
00000000
00010000
10000000
,
00010000
00000000
00100000
MMMMMMMM
,
00001000
00010000
00011000
00000000
,
00000100
00000000
00000001
00000000
MMMMMMMM
00000000
00000010
00000100
,
00000010
00000000
00000100
00000000
MMMMMMMM
00000000
00000010
00001000
,
00010000
00000000
00100000
00000000
MMMMMMMM
00000000
00001000
00010000
,
01000000
00100000
01100000
00000000
,
00010000
00000000
01000000
00000000
,
00100000
00000000
00001000
MMMMMMMM
,
00010000
00000000
00000010
00000000
,
00000001
00001000
00000001
00000000
,
00000100
00001000
00000010
00000000
,
00000010
00010000
00001000
MMMMMMMM
,
00100000
00001000
00010000
01000000
,
10000000
00010000
01100000
10010000
,
01000000
00000000
01000000
00000000
MMMMMMMM
00001000
01000000
00000000
,
00010000
00000000
00010000
00000000
MMMMMMMM
00001000
00010000
00000000
,
00000010
00000100
00000001
00000010
,
00000100
00000000
00000100
00000000
00000010
00000100
00000010
00000000
,
00000001
00000000
00001000
00000000
MMMMMMMM
00010000
00001000
00000000
,
01000000
00000000
00010000
00000000
MMMMMMMM
00100000
01000000
00000000
,
00010000
00000000
10000000
01000000
00000000
01100000
00000000
10010000
,
00000000
00000000
00000000
MMMMMMMM
,
01000000
00000000
00010000
00000000
MMMMMMMM
00000000
00100000
00001000
,
00010000
00000000
00000010
00000000
MMMMMMMM
00000000
00000001
00001000
,
00000010
00000000
00000100
00000000
MMMMMMMM
00000000
00001000
00010000
,
01000000
00000000
00100000
00000000
01000000
01000000
01000000
00000000
,
00010000
00000000
10000000
00000000
MMMMMMMM
00000000
00100000
01000000
,
10000000
00100000
00010000
00010000
,
00001000
00000010
00000001
00001000
,
00000010
00000000
00001000
00000000
00000001
00000001
00000001
00000000
,
00001000
00000000
00000100
MMMMMMMM
,
00010000
00000000
00001000
00100000
,
00010000
00000000
01000000
MMMMMMMM
,
00011000
00000000
00001000
00001000
,
00000100
00000000
00001000
00000000
MMMMMMMM
00000000
00000010
00010000
,
00001000
00000000
00100000
00000000
MMMMMMMM
00000000
10000000
00010000
,
00100000
00000000
01000000
00000000
MMMMMMMM
00000000
00010000
00001000
,
00000100
00000000
00000010
00000000
00000100
00000100
00000100
00000000
,
00001000
00000000
00000001
00000000
MMMMMMMM
00000000
00000010
00000100
,
00000001
00000010
00001000
00001000
,
00010000
00100000
10000000
00010000
,
00100000
00000000
00010000
00000000
10000000
10000000
10000000
00000000
,
01000000
00010000
00001000
00000010
,
00000001
00000000
00001000
00000000
00000001
00000001
00000001
00000000
,
00000100
00000000
00000001
MMMMMMMM
,
00000010
00000000
00000001
00001000
,
00000100
00000000
00010000
MMMMMMMM
,
00000010
00011000
00100000
00011000
,
00000000
00000000
00000000
00000000
;
