
//----- song ID: cspa -----//
#TITLE:PARANOiA MAX~DIRTY MIX~(SMM-Special);
#ARTIST:190;
#BANNER:PARANOiA MAX~DIRTY MIX~(SMM-Special).png;
#BACKGROUND:PARANOiA MAX~DIRTY MIX~(SMM-Special)-bg.png;
#CDTITLE:./CDTITLES/Dance Dance Revolution X.png;
#MUSIC:PARANOiA MAX~DIRTY MIX~(SMM-Special).ogg;
#SAMPLESTART:1.261;
#SAMPLELENGTH:15;
#DISPLAYBPM:95:380;
#BPMS:0=190.275,20=189.807,32=95.238,34=380.282,94=94.737,95=380.282,155=391.304,156=190.141,186=94.737,187=190.099,219=191.489,220=187.5,220.5=191.489,221.5=187.5,222.5=190.229,253=94.737,254=190.141,284=187.5,285=95.092,300.5=380.36;
#STOPS:155=0.473,219=0.313,220=0.16,220.5=0.313,221.5=0.16,222=0.153,222.5=0.16,284=0.313,300.5=0.313;

//---------------dance-single - ----------------
#NOTES:
     dance-single:
     :
     Medium:
     10:
     :
0000
0000
0000
0000
,
0000
0000
0000
0000
,
0000
0000
0000
0000
,
0000
0000
0000
0000
,
0000
0000
0000
0000
,
0000
0000
0000
0000
,
0000
0000
0000
0000
,
0000
0001
0000
0001
,
0000
0100
0000
0100
0000
0000
0000
0000
,
0100
0000
1000
0000
,
0100
0000
0010
0000
,
0001
0000
1000
0000
,
0100
0000
0001
0000
,
0100
0000
0010
0000
,
1000
0000
0110
0000
,
1001
0000
0110
0000
,
1001
0000
0010
0000
,
0010
0000
0001
0000
,
0100
0000
1000
0000
,
1000
0000
0100
0000
,
0001
0000
0010
0000
,
0000
0000
0010
0000
,
0000
0000
0011
0000
,
1100
0000
0000
0000
0000
0000
0000
0000
0001
1000
0100
0000
0001
0000
0000
0000
,
0000
0100
0000
0010
,
0000
1000
0000
0001
,
0000
0100
0000
0010
,
0000
1000
0000
0001
,
0100
1000
0000
0001
,
0100
1000
0000
0001
,
1000
0001
1000
0001
,
0100
1000
0000
0101
,
0100
0100
0000
1001
,
0000
0000
0000
1010
,
0010
0010
0000
1001
,
0000
0000
0000
0011
,
0001
0001
0000
1100
,
1000
1000
0000
0101
,
0000
1100
0000
1001
,
1000
1100
0001
0101
,
0010
0100
1000
1001
,
0001
0101
0100
1100
,
0010
0100
0001
1001
,
1000
0001
1000
0110
,
0001
1000
0001
1001
,
0010
1100
0001
0101
,
0100
0010
1001
0001
,
0000
1000
0000
0000
0100
0000
0000
1000
,
0000
0001
0010
0010
0010
0000
1000
0000
,
0000
0001
0000
0000
0100
0000
0000
0001
,
0000
1000
0010
0010
0010
0000
0001
0000
,
0000
1000
0000
0000
0100
0000
0000
1000
,
0000
0001
0010
0010
0010
0000
1000
0000
,
0000
0001
0000
0000
0100
0000
0000
0001
,
0000
1000
0010
0010
0010
0000
0010
0000
,
0001
1000
0000
1000
0100
0001
0001
0000
,
0010
1000
0100
0010
,
0100
0010
1000
1000
,
0001
0100
0010
0001
,
0010
0001
0100
0100
,
1000
0010
0001
1000
,
0001
1000
0010
0010
,
0100
0001
1000
0100
,
1000
0000
0100
0001
0010
0000
0001
0000
,
0011
1000
1100
0000
,
0010
0010
0100
0000
0010
0000
0001
0000
,
0011
1000
1100
0000
,
0100
0100
0010
0000
0100
0000
1000
0000
,
1100
0001
0101
0000
,
0100
0100
0010
0000
0100
0000
1000
0000
,
0100
0000
0010
0100
,
0110
0000
0000
0000
1000
0100
1000
0000
0001
0100
0001
0000
1001
0000
1010
0000
,
1100
0000
1000
0000
1000
0100
1000
0000
0001
0100
0001
0000
1001
0000
1100
0000
,
0101
0000
0000
0000
1000
0100
1000
0000
0001
0100
0001
0000
1001
0000
1010
0000
,
1100
0000
1000
0000
1000
0100
1000
0000
0001
0100
0001
0000
1001
0000
1100
0000
,
0101
0000
0000
0001
0000
0100
0000
0000
,
0000
0010
0000
1000
0000
0010
0000
0000
,
0000
0100
0000
0001
0000
0100
0000
0000
,
0000
0010
0000
1000
0000
0010
0000
0000
,
0000
1000
0000
0010
0000
1000
0000
0010
,
0000
1000
0000
0100
0000
1000
0000
0100
,
0000
1000
0000
0001
0000
0100
0000
0001
,
0000
0100
0000
0001
0000
0001
0000
0000
,
0000
0010
0000
0000
0000
0010
0000
0000
,
0000
1100
0000
0000
0000
0101
0000
0000
,
0000
0100
0000
1000
0000
0100
0000
0001
,
0000
0100
0000
0000
0000
0100
0000
0000
,
0000
0010
0000
0000
0000
1001
0000
0000
,
0000
0110
0000
0000
0000
0001
0000
0000
,
0000
1000
0000
0000
0000
0100
0000
0100
,
0000
0100
0000
0000
0000
0000
0000
0000
;

//---------------dance-single - ----------------
#NOTES:
     dance-single:
     :
     Challenge:
     18:
     :
0000
0000
0000
0000
,
0000
0000
0000
0000
,
0000
0000
0000
0000
,
0000
0000
0000
0000
,
0000
0000
0000
0000
,
0000
0000
0000
0000
,
0000
0000
0000
0000
,
0000
0000
0000
0000
,
0000
0000
0000
0000
1000
0100
1000
0000
,
0010
0000
0010
0000
1000
0100
1000
0001
,
0010
0000
0010
0000
0001
0100
0010
1000
,
0100
0001
1000
0100
,
1000
0001
0010
0000
1000
0100
0000
0001
,
0100
0000
1000
0100
0000
0001
0100
0000
,
0010
1000
0001
0000
1000
0000
0100
0000
,
0001
0010
0100
1000
0000
0000
0000
0000
,
0010
0000
0001
0000
0010
0001
1000
0001
,
0010
0100
1000
1000
,
0000
0001
0100
0000
0010
1000
0001
1000
,
0010
0100
0001
0001
,
0000
1000
0100
0000
0010
0000
0001
0000
,
0001
1000
1000
0010
,
0000
0010
0100
0010
1000
0001
0000
0000
,
0001
1000
0000
0000
0100
0100
0001
0100
,
0001
0100
0010
0000
0010
0000
1000
0100
,
1000
0000
0001
0000
0001
1000
0100
0010
,
0001
0000
0001
0100
0010
0000
1000
0100
,
0010
0100
0000
1000
0001
0000
0100
0010
,
1000
0000
0100
0010
0001
0000
1000
0010
,
0100
0001
0000
0001
0100
0000
0010
0000
,
1000
0100
0000
0010
0001
1000
0010
0000
,
0100
0001
0000
0000
0100
0000
0010
1000
,
0010
0000
0100
0001
0100
0000
0001
0000
,
1000
0010
0000
0100
0001
0000
0010
0001
,
0010
0000
0100
1000
0100
0000
1000
0000
,
0001
0100
0000
0010
1000
0000
1000
0001
,
1000
0000
0001
1000
0001
0000
0100
0000
,
0100
0010
0000
0010
0000
0000
1000
0100
,
1000
0100
0000
0000
0010
0001
1000
0000
,
0001
0010
1000
0100
,
0001
0010
1000
0100
,
0001
0010
0001
0010
,
1000
0100
0001
0010
,
1000
0100
0001
0010
,
1000
0100
1000
0100
,
0001
0010
1000
0100
,
0001
0000
0000
0000
0010
0000
0000
0000
1000
0100
0001
0000
0010
0000
1000
0000
,
0100
1000
0100
0010
0001
0010
0001
0100
,
0010
0100
0010
1000
0100
1000
0010
1000
,
0001
0010
0001
1000
0100
0010
0001
0100
,
0010
1000
0001
0100
1000
0100
0010
0100
,
0001
0010
0100
1000
0010
0100
0001
1000
,
0100
0010
0001
0100
0010
1000
0100
0001
,
0100
1000
0100
0010
0001
0010
1000
0010
,
0001
1000
0010
1000
0001
0000
0010
0000
,
0001
0001
0000
1000
1000
1000
0010
1000
,
0100
1000
0001
0100
0001
0000
0010
0000
,
0001
1000
0001
0100
0000
0000
0100
0001
,
0010
0001
1000
0010
1000
0000
0100
0000
,
0100
0000
1100
0000
0101
0000
0100
0001
,
0010
0001
1000
0010
1000
0000
0100
0000
,
1000
0001
1000
0010
0000
0000
0010
1000
,
0100
1000
0001
0100
0001
0000
0010
0000
,
0010
0000
0010
0010
0001
0000
1000
0000
,
0100
0000
0010
1000
0100
0000
0010
0001
,
0100
0000
0001
0100
1000
0100
0001
0010
,
0100
0001
0100
0010
0001
0000
0110
0000
,
1000
0000
0010
0001
1000
0000
0110
0000
,
0110
0000
0010
0001
1000
0000
0000
0110
,
0000
0000
1000
0010
0100
1000
0100
0010
,
1000
0100
0010
1000
0010
0000
0101
0000
,
0010
0000
0000
0000
1000
0100
1000
0100
0001
0100
0001
0100
1000
0001
1000
0001
,
1000
0100
1000
0100
0010
0001
1000
0100
0010
0001
0010
1000
0010
0001
0100
0001
,
0010
1000
0001
0010
0100
0001
1000
0001
0100
1000
0010
1000
0100
0001
0010
0001
,
0100
1000
0010
1000
0100
0001
0010
1000
0001
0100
1000
0010
0100
0001
1000
1000
,
0100
1001
0010
0001
0010
1000
0010
1000
,
0010
0100
1000
0001
0010
0000
0001
0100
,
0010
1000
0010
1000
0010
0001
0010
0001
,
0010
0100
0001
0010
0100
1000
0001
1000
,
0000
0001
0100
0001
0100
1000
0100
1000
,
0100
0010
1000
0001
0100
0000
0001
0010
,
0100
1000
0100
1000
0100
0001
0100
0001
,
0100
0010
0001
0100
0010
1000
0001
1000
,
0000
1000
0010
0100
0010
0001
0010
0100
,
0010
1000
0001
0100
0010
0000
1000
0100
,
0010
0001
0010
0100
0010
1000
0010
0100
,
0010
0001
1000
0010
0100
0001
1000
0001
,
0000
1000
0100
1000
0010
0100
0001
0100
,
0010
1000
0001
1000
0100
0010
0001
0010
,
0100
1000
0000
0000
0000
0001
0000
0000
,
0000
1001
0000
0000
0000
0000
0000
0000
;

//---------------dance-double - ----------------
#NOTES:
     dance-double:
     :
     Challenge:
     17:
     :
00000000
00000000
00000000
00000000
,
00000000
00000000
00000000
00000000
,
00000000
00000000
00000000
00000000
,
00000000
00000000
00000000
00000000
,
00000000
00000000
00000000
00000000
,
00000000
00000000
00000000
00000000
,
00000000
00000000
00000000
00000000
,
00000000
00000000
00000000
00000000
,
00000000
00000000
00000000
00000000
10000000
01000000
00100000
00000000
,
00001000
00000000
00010000
00000000
00001000
01000000
00100000
00000000
,
10000000
00000000
01000000
00000000
00100000
00001000
00010000
00000100
,
00000010
00000001
00000100
00001000
,
00010000
00001000
00010000
00000000
00001000
01000000
00000000
00100000
,
10000000
00000000
01000000
00100000
00000000
00001000
00010000
00000000
,
00000100
00000010
00000001
00000000
00000100
00000000
00001000
00000000
,
00010000
00000000
00000000
01000000
00100000
00000000
00000000
00000000
,
00010000
00000000
11000000
00000000
00100000
00001000
00010000
00000100
,
00000010
00000001
00000100
00000010
,
00000000
00010000
00001000
00000000
01000000
00100000
10000000
01000000
,
00010000
00001000
00000010
00000001
,
00001000
00000100
00000010
00000000
00000001
00000000
00000100
00000000
,
00001000
00010000
01000000
10000000
,
00000000
00100000
10000000
00010000
01000000
00100000
00000000
00000000
,
00010000
00001000
00000000
00000000
00000100
00000010
00000001
00000100
,
00000010
00010000
00001000
00000000
01000000
00000000
00100000
10000000
,
00100000
00000000
10000000
00000000
01000000
00100000
00001000
00010000
,
00000100
00000000
00000010
00000001
00000010
00000000
00000001
00000100
,
00000010
00010000
00000000
00001000
01000000
00000000
00100000
10000000
,
00100000
00000000
00001000
01000000
00001000
00000000
00010000
00001000
,
00010000
00000100
00000000
00000010
00000001
00000000
00000100
00000000
,
00001000
00010000
00000000
00001000
00010000
00001000
01000000
00000000
,
00100000
10000000
00000000
00000000
01000000
00000000
00100000
10000000
,
00100000
00000000
00001000
00010000
00001000
00000000
00010000
00000000
,
00000100
00000010
00000000
00000001
00000100
00000000
00000010
00000100
,
00000001
00000000
00000100
00000010
00010000
00000000
00001000
00000000
,
01000000
00100000
00000000
10000000
01000000
00000000
00100000
00010000
,
00100000
00000000
00010000
01000000
00010000
00000000
10000000
00000000
,
01000000
00100000
00000000
00001000
00000000
00000000
00010000
00000100
,
00000010
00000000
00000001
00000000
00001000
00000100
00000010
00000000
,
00001000
00010000
00000100
00000000
00001000
00000001
00000100
00000000
,
00000010
00001000
00000100
00010000
00001000
01000000
00100000
00000000
,
10000000
01000000
00100000
00000000
00001000
00010000
00000100
00000000
,
00001000
00000001
00000100
00000000
00000000
00000010
00000000
00000010
,
00001000
00000100
00010000
00000000
00001000
00100000
00010000
00000000
,
10000000
01000000
00100000
00000000
00001000
00010000
00000100
00000000
,
00001000
00000001
00000100
00000000
00000010
00001000
00000100
00000000
,
00010000
00001000
00100000
00010000
10000000
00000000
00100000
10000000
,
00010000
01000000
00100000
00010000
00001000
00000000
00000100
00000001
,
00001000
00000100
00000010
00000001
00001000
00000000
00000010
00001000
,
00000100
00000010
00001000
00010000
00100000
00000000
10000000
00100000
,
00010000
00100000
01000000
00010000
01000000
00000000
00100000
10000000
,
00100000
00010000
00100000
00010000
00001000
00000000
00000100
00001000
,
00010000
01000000
00010000
00001000
00000100
00000000
00000010
00001000
,
00000100
00000010
00001000
00010000
00001000
00000000
01000000
10000000
,
00100000
00010000
00100000
10000000
01000000
00000000
00100000
00000000
,
00010000
00010000
00000000
10000000
10000000
10000000
10010000
00000000
,
00000000
00000000
00000000
00001001
,
00000100
00000000
00000010
00000001
00000100
00000000
00000000
00000000
,
00000000
00000000
00000000
01100000
,
10000000
00000000
00010000
01000000
00010000
00000000
00000000
00000000
,
00000000
00000000
00000000
00001010
,
00000100
00000000
00000001
00001000
00000100
00000000
00000000
00000000
,
00000000
00000000
00000000
11000000
,
00010000
00000000
00000000
00000000
00100000
10000000
01000000
00000000
01000000
00000000
00000000
00000000
11000000
00000000
00000000
00000000
,
10100000
00000000
00100000
00010000
00001000
00000000
00000000
00001001
,
00000000
00000000
00000010
00000001
00000100
00000010
00001000
00000100
,
00010000
00001000
00100000
00010000
01000000
00000000
00100000
00000000
,
10000000
00000000
00010000
10000000
01000000
00000000
11000000
00000000
,
10100000
00000000
00100000
00010000
00001000
00000000
00001010
00000000
,
00000011
00000000
00000001
00000100
00001000
00000100
00001000
00010000
,
00100000
00010000
00100000
10000000
01000000
00000000
00010000
00000000
,
00001000
00000000
00000000
00000000
00100000
01000000
00000000
00001000
00010000
00000100
00000000
00000010
00000000
00000001
00000001
00000000
,
00001100
00000000
00011000
00000000
00100000
01000000
00000000
10000000
00010000
01000000
00000000
00001000
00000000
00000000
00000000
00000000
,
00001001
00000000
00000110
00000000
00010000
00001000
00000000
00100000
01000000
10000000
00000000
00010000
00000000
01000000
01000000
00000000
,
00010010
00000000
01001000
00000000
10000000
01000000
00000000
00100000
00001000
00010000
00000000
00000100
00000000
00000000
00000000
00000000
,
10010000
01100000
00010000
00001000
00000000
00000010
00000001
00000010
,
00000000
00000001
00000000
00000100
00001000
00000000
00010000
00000100
,
00000000
00000010
00000001
00000010
00000000
00000001
00000100
00000001
,
00000000
00000100
00000000
00001000
00010000
00001000
00000000
01000000
,
00000000
00100000
10000000
00100000
00000000
10000000
01000000
10000000
,
00000000
01000000
00000000
00010000
00001000
00000000
00010000
00001000
,
00000000
00000010
00000001
00000010
00000000
00000001
00001000
00000001
,
00000000
00000100
00000000
00001000
00000000
00000000
00010000
00001000
,
00000000
00010000
00000100
00010000
00000000
00100000
10000000
00010000
,
00000000
10000000
00000000
01000000
00010000
00000000
00001000
00010000
,
00000000
00001000
00000010
00001000
00000000
00010000
00001000
00010000
,
00000000
00000100
00000000
00000010
00000001
00001000
00000000
00000001
,
00000000
00000100
00001000
00000100
00000000
00001000
00010000
00001000
,
00000000
00010000
00000000
00100000
10000000
00000000
00010000
01000000
,
00000000
00100000
00000000
00000000
00000000
10000000
00000000
00000000
,
00000000
11000000
00000000
00000000
00000000
00000000
00000000
00000000
;
