#TITLE:on the bounce;
#ARTIST:neuras;
#BANNER:on the bounce.png;
#BACKGROUND:on the bounce-bg.png;
#CDTITLE:./CDTitles/DDR X.png;
#MUSIC:on the bounce.ogg;
#SAMPLESTART:70.41;
#SAMPLELENGTH:15;
#DISPLAYBPM:150;
#BPMS:0=149.5,4=150;

//---------------dance-single - ----------------
#NOTES:
     dance-single:
     :
     Beginner:
     3:
     :
0000
0000
0000
0000
,
0000
0000
0000
0000
,
0000
0000
0000
0000
,
0000
0000
0000
0000
,
0000
0000
0000
0000
,
0001
0000
0001
0000
,
0001
0000
0000
0000
,
1000
0000
1000
0000
,
1000
0000
0000
0000
,
0001
0000
0001
0000
,
1000
0000
1000
0000
,
0001
0000
0001
0000
,
1000
0000
1000
0000
,
0001
0000
0000
0001
,
0000
0000
1000
0000
,
0000
1000
0000
0000
,
0001
0000
0000
0000
,
1000
0000
1000
0000
,
0001
0000
0000
0000
,
0100
0000
0100
0000
,
1000
0000
0000
0000
,
0001
0000
0001
0000
,
0100
0000
0000
0000
,
0100
0000
0100
0000
,
0001
0000
1000
0000
,
0001
0000
0000
0000
,
1000
0000
0001
0000
,
1000
0000
0000
0000
,
0100
0000
1000
0000
,
1000
0000
0000
0000
,
0100
0000
0001
0000
,
0001
0000
0000
0000
,
0010
0000
0000
0000
,
0010
0000
0010
0000
,
0100
0000
0000
0000
,
0100
0000
0100
0000
,
0001
0000
0000
0000
,
0001
0000
0001
0000
,
1000
0000
1000
0000
,
1000
0000
0000
0000
,
1000
0000
1000
0000
,
1000
1000
1000
0000
,
0010
0000
0010
0000
,
0010
0010
0010
0000
,
0001
0000
0001
0000
,
0001
0001
0001
0000
,
0100
0000
0100
0000
,
0100
0100
0100
0100
,
0100
0000
0001
0000
,
1000
0000
0001
0000
,
0100
0000
1000
0000
,
0001
0000
1000
0000
,
1001
0000
0100
0000
,
1000
0000
0001
0000
,
0010
0000
0010
0000
,
1000
0000
0001
0000
,
0100
0000
0000
0010
,
0000
0000
0001
0000
,
0000
1000
0000
0001
,
1001
0000
0000
0000
,
0000
0000
0000
0000
;

//---------------dance-single - ----------------
#NOTES:
     dance-single:
     :
     Easy:
     7:
     :
0000
0000
0000
0000
,
0000
0000
0000
0000
,
0000
0000
0000
0000
,
0000
0000
0000
0000
,
0000
0000
0000
0000
,
0001
1000
1100
0000
,
0001
0010
0001
0000
0100
0000
1000
0000
,
0010
0010
1001
0000
,
0010
0100
0010
0000
0100
0000
1000
0000
,
0001
1000
0101
0000
,
0010
1000
0100
0000
0001
0000
0010
0000
,
0100
0010
0110
0000
,
0010
0001
1000
0000
0010
0000
0100
0000
,
0001
0000
0000
0001
0000
0000
1000
0000
,
0000
1000
0000
0000
0010
0000
0000
0010
,
0000
0000
0100
0000
0000
0100
0000
0000
,
0001
0000
0010
0000
1000
0100
0001
0000
,
1000
0100
0010
0000
,
0001
0000
0100
0000
1000
0100
0001
0000
,
1000
0010
0100
0000
,
0001
0000
1000
0000
0001
0100
1000
0000
,
0100
0010
1000
0000
,
0001
0000
0010
0000
1000
0100
0001
0000
,
0010
1000
0100
0000
,
0002
0000
1003
0100
,
0010
0000
0100
0000
1000
0001
0100
0000
,
2000
0000
3001
0100
,
0010
0100
0001
1001
,
0020
0000
0130
0001
,
0010
0000
0100
0000
0010
0100
0010
0000
,
0200
0000
1300
0001
,
0100
0000
0010
0000
,
0200
0000
0000
0300
,
0000
0001
1000
0100
0000
1000
0000
0000
,
0020
0000
0000
0030
,
0000
1000
0001
0100
0000
0010
0000
0000
,
2000
0000
0000
3000
,
0000
0010
1000
0100
0000
0010
0000
0000
,
0002
0000
0000
0000
0000
0000
0000
1003
,
0000
1000
0000
0100
0010
0010
0010
0000
,
1000
0100
0010
0001
,
0010
0100
0100
1000
,
0010
1000
0001
0100
,
0010
0001
0001
0100
,
0001
0010
0001
1000
,
0100
0010
0010
0001
,
0100
0001
1000
0010
,
0100
1000
1000
0010
,
2000
0000
3001
0100
,
0010
0000
0100
0000
0001
1000
0100
0000
,
0002
0000
1003
0100
,
0010
0100
1000
1001
,
0100
0100
0100
0000
0001
0000
1000
0000
,
0010
0000
0100
0000
0010
0100
0010
0000
,
0200
0000
0301
1000
,
1000
0000
0010
0000
1000
0001
0100
0000
,
1000
0000
0000
0001
0000
0000
0100
0000
,
0000
0010
0000
0000
1000
0000
0000
0100
,
0000
0000
0010
0000
0000
0001
1000
0000
,
2002
3003
0000
0000
,
0000
0000
0000
0000
;

//---------------dance-single - ----------------
#NOTES:
     dance-single:
     :
     Medium:
     11:
     :
0000
0000
0000
0000
,
0000
0000
0000
0000
,
0000
0000
0000
0000
,
0000
0000
0000
0000
,
0000
0000
0000
0000
,
0001
0001
0100
0000
0001
0010
0100
0000
,
1000
1000
0100
0000
1000
0010
0100
0000
,
0010
0010
0100
0000
0010
1000
0100
0000
,
0100
0100
0010
0000
0100
0010
0100
0000
,
0001
0001
0100
0000
0010
0001
0100
0000
,
1000
1000
0100
0000
0010
1000
0100
0000
,
0010
0010
1001
0000
0010
0100
0100
0000
,
0100
0100
1001
0000
0100
0010
0100
0000
,
0001
0000
0000
0001
0000
0000
0011
0000
0000
1000
0000
0000
1000
0000
0000
1100
,
0000
0000
0010
0000
0000
0010
0000
0000
0110
0000
0000
0100
0000
0000
0100
0000
,
0000
0110
0000
0000
0001
0000
0000
1000
0000
0000
0001
0000
1001
0000
0000
0000
,
0010
1000
0100
0010
0000
0010
0100
0001
,
0100
1000
0100
0010
0001
0010
1000
0000
,
0100
1000
0010
0100
0000
0100
0010
0001
,
0010
1000
0010
0100
0001
0100
1000
0000
,
1000
0100
0001
0010
0000
0010
0100
0001
,
0100
0010
0100
1000
0010
1000
0001
0000
,
0001
0010
0001
0100
0000
0100
0001
0010
,
1000
0010
0001
0100
1000
0100
0010
1000
,
0001
1001
0000
0011
0000
1100
0000
0011
,
0000
1100
0000
0001
1000
0100
0001
0000
,
0100
0110
0000
0101
0000
1010
0000
0101
,
0000
1010
0000
0100
0010
0001
0100
0000
,
1000
1001
0000
1100
0000
0011
0000
1100
,
0000
0011
0000
1000
0001
0010
1000
0000
,
0010
0110
0000
1001
0000
0011
0000
1100
,
0000
1001
0000
0010
0100
1000
0010
0000
,
2001
0000
0000
0000
0000
0001
0000
3001
,
0000
0001
0010
0200
0000
0010
0310
0000
,
0120
0000
0000
0000
0000
0100
0000
0130
,
0000
0100
1000
0002
0000
1000
1003
0000
,
1200
0000
0010
0000
0000
0010
0000
0310
,
0000
0010
0001
2000
0000
0100
3100
0000
,
0012
0000
1000
0000
0000
1000
0000
1003
,
0000
1001
0000
0010
0100
0010
0100
0000
,
2000
0000
3100
0000
0010
0001
0010
0001
,
0200
0000
0301
0000
0010
1000
0100
1000
,
0020
0000
0031
0000
0100
0010
0100
1000
,
0002
0000
1003
0000
0100
0010
0001
0100
,
2000
0000
3001
0000
0010
0100
0010
1000
,
0200
0000
1300
0000
0001
1000
0100
1000
,
0020
0000
0130
0000
1000
0001
1000
0100
,
0002
0000
0103
0000
0001
0010
1000
0000
,
0010
0010
1000
0101
0000
1010
0000
1001
,
0000
0110
1000
0001
0010
0001
0100
0000
,
0010
0010
0001
1100
0000
0011
0000
1001
,
0000
0110
0001
1000
0100
1000
0010
0000
,
1000
0100
1000
0100
0000
0000
1001
0000
0000
0000
1001
0000
0001
0000
0100
0000
,
1000
0010
0100
1000
0001
1000
0001
0000
,
0100
0100
1000
0011
0000
1100
0000
0110
,
0000
0110
0001
0010
1000
0001
1000
0000
,
0001
0000
0000
0101
0000
0000
1000
0000
0000
1100
0000
0000
0010
0000
0000
0011
,
0000
0000
0100
0000
0000
1100
0000
0000
0001
0000
0000
1001
0000
0000
1000
0000
,
0000
1001
0000
0000
0010
0000
0000
0110
0000
0000
0010
0000
0110
0000
0000
0000
,
2002
3003
0000
0000
,
0000
0000
0000
0000
;

//---------------dance-single - ----------------
#NOTES:
     dance-single:
     :
     Hard:
     14:
     :
0000
0000
0000
0000
,
0000
0000
0000
0000
,
0000
0000
0000
0000
,
0000
0000
0000
0000
,
0000
0000
0000
0000
,
0001
0000
0010
0000
0100
0000
1000
0100
1000
0000
0010
0000
0100
0000
0000
0000
,
1000
0000
0010
0000
0100
0000
0001
0010
0001
0000
0010
0000
0100
0000
1000
0000
,
0100
0000
0010
0000
0100
0000
1000
0001
1000
0000
0010
0000
0100
0000
0000
0000
,
0100
0000
0010
0000
1000
0000
0001
0010
0001
0000
1000
0000
0001
0000
1000
0000
,
0100
0000
1000
0000
0010
0000
0001
0010
0001
0000
1000
0000
1010
0000
0000
0000
,
0001
0000
0100
0000
0010
0000
1000
0100
1000
0000
0001
0000
1000
0001
1000
0000
,
0010
0000
0010
0000
0001
0000
0100
0010
0100
0000
0100
0000
1001
0000
0000
0000
,
0010
0000
0100
0000
0001
0000
0010
0100
0010
0000
0100
0000
0100
0000
0000
0000
,
0011
0000
0000
1001
0000
0000
0110
0000
0000
1010
0000
0000
1100
0000
0000
1010
,
0000
0000
0110
0000
0000
0101
0000
0000
1001
0000
0000
1010
0000
0000
0110
0000
,
0000
0101
0000
0000
0110
0000
0000
1100
0000
0000
0110
0000
1001
0000
0000
0000
,
0010
0000
0010
0000
0100
0000
0001
1000
0001
0000
0010
0000
0100
0000
0000
0000
,
0100
0000
0100
0000
0010
0000
1000
0100
1000
0000
0010
0000
1000
0001
1000
0000
,
0010
0000
0100
0000
0010
0000
1000
0001
1000
0000
0010
0000
0010
0000
0000
0000
,
0010
1000
0010
0000
0100
0000
0001
0010
0001
0000
0100
0000
0010
0000
1000
0000
,
0001
0000
0001
0000
0100
0000
0001
1000
0001
0000
1000
0000
1001
0000
0000
0000
,
0001
0100
0001
0000
1000
0000
0010
1000
0010
0000
0100
0000
0001
0000
1000
0000
,
0100
0000
0010
0000
0100
0000
1000
0001
1000
0000
0001
0000
1100
0000
0000
0000
,
0010
0001
0010
0000
0100
0000
1000
0000
0010
0100
0010
0000
0100
0000
0000
0000
,
0110
0100
0000
0011
0000
0120
0100
1030
,
0000
0000
0001
0000
0100
0000
0100
0000
0010
1000
0010
0000
0101
0000
0000
0000
,
1001
1000
0000
0110
0000
1002
0100
0103
,
0000
0000
0001
0000
0010
0000
0100
0000
1000
0001
1000
0000
0010
0000
0000
0000
,
0110
0010
0000
0001
1000
0210
0001
0301
,
0010
1000
0010
0000
0001
0000
0100
0010
0100
0000
0001
0000
1000
0000
0000
0000
,
1001
0001
1000
0100
0010
2001
0001
3100
,
0000
0001
0010
1000
0100
0010
0001
0000
,
0201
0001
0000
1000
0000
0001
0000
1300
,
0000
0001
0110
1000
0000
0001
1000
0001
,
0120
0100
0000
1000
0000
0001
0000
1030
,
0000
0010
1001
0100
0000
0100
1001
0100
,
0010
0010
2010
0000
0000
0001
0000
3001
,
0000
0000
0001
0000
0100
0000
1000
0000
0010
0100
0010
0000
1000
0000
0100
0000
,
0010
0001
0102
0000
0000
1000
0000
1003
,
0000
0011
0000
1010
1001
1001
1001
0000
,
0001
0000
0001
0000
0010
0000
0100
1000
0010
0000
0100
0000
0010
0000
0010
0000
,
0100
0001
0010
0000
0100
0000
1000
0001
0010
0000
0010
0000
0100
1000
0100
0000
,
1000
0000
1000
0000
0100
0000
0010
0001
0100
0000
0010
1000
0010
0000
0100
0000
,
0100
0000
0001
1000
0010
0000
1000
0000
0010
0000
1000
0000
0001
1000
0001
0000
,
0100
0000
0100
0000
0001
0000
0100
0010
1000
0000
0001
0000
1000
0000
1000
0000
,
0100
0000
0010
0001
1000
0000
0100
1000
0001
0000
0010
0000
0001
0100
0001
0000
,
0010
0000
0100
0000
0010
0000
1000
0001
0010
0000
0100
1000
0001
0000
0010
0000
,
0010
0000
0100
1000
0100
0000
0010
0000
0001
0000
0100
0000
1001
0000
0000
0000
,
0100
1000
0010
0000
0010
0000
1000
0001
0100
0000
0010
0000
0100
0000
2000
0000
,
0000
0000
3001
0010
0100
0000
0010
0000
0001
1000
0001
0000
1001
0000
0000
0000
,
0100
0010
0001
0000
1000
0000
0010
0100
0001
0000
1000
0000
0100
0000
2000
0000
,
0000
0000
3001
0100
0010
0000
1000
0000
0100
0010
0100
0000
0011
0000
0000
0000
,
0001
1000
0001
1000
0001
0000
0100
0001
0010
0000
0002
0000
1000
0000
1000
0000
,
0000
0000
1003
0000
0001
0000
0100
0000
0010
1000
0001
0000
1010
0000
0000
0000
,
0100
1000
0001
0000
0100
0000
0100
0010
1000
0000
1000
0000
0001
0000
2001
0000
,
0000
0000
3001
0100
0010
0000
1000
0000
0100
0000
0010
0001
1000
0000
0000
0000
,
0110
0000
0000
1001
0000
0000
0110
0000
0000
1001
0000
0000
0110
0000
0000
0011
,
0000
0000
1100
0000
0000
1010
0000
0000
0101
0000
0000
0110
0000
0000
0101
0000
,
0000
1100
0000
0000
0110
0000
0000
1001
0000
0000
0110
0000
1001
0000
0000
0000
,
2002
3003
0000
0000
,
0000
0000
0000
0000
;

//---------------dance-single - ----------------
#NOTES:
     dance-single:
     :
     Challenge:
     16:
     :
0000
0000
0000
0000
,
0000
0000
0000
0000
,
0000
0000
0000
0000
,
0000
0000
0000
0000
,
0000
0000
0000
0000
,
1100
0000
1000
0000
0010
0000
0001
0010
0001
0000
0100
0000
0010
0000
0000
0000
,
0101
0000
0100
0000
0010
0000
1000
0100
0000
0100
0000
0010
0001
0000
1000
0000
,
1001
0000
0100
0000
0010
0001
0010
0100
0000
0000
0100
0000
1000
0001
1000
0000
,
0110
0000
0100
0000
0101
0000
1000
0100
0000
1000
0010
0000
0100
0001
0100
0000
,
0011
0000
0001
0000
0100
0000
1000
0100
1000
0000
0010
0000
0100
0000
0100
0000
,
1010
0000
0010
0000
0100
0000
0001
0010
0000
0010
0000
0100
1000
0000
0001
0000
,
1001
0000
0100
0000
0010
1000
0010
0100
0000
0000
0100
0000
0001
1000
0001
0000
,
0110
0000
0100
0000
1100
0000
0001
0100
0000
0001
0010
0000
0100
1000
0100
0000
,
0010
0000
0001
1000
0000
1000
0100
0000
0100
0010
0000
0010
0001
0000
0001
0100
,
0000
0100
0010
0000
0010
1000
0000
1000
0001
0000
0001
0100
0000
0010
0100
0000
,
1000
0100
0000
0001
0010
0000
0100
0010
0000
1000
0010
0000
1001
0000
0000
0000
,
0110
0000
0100
0000
0110
0000
1000
0001
1000
0000
0100
0000
0110
0000
0010
0000
,
1000
0010
0000
0100
0000
0001
0010
0001
1000
0000
0100
0010
0001
1000
0001
0000
,
0110
0000
0100
0000
0110
0000
0001
1000
0001
0000
0100
0000
0110
0000
0010
0000
,
0100
0001
0100
0000
0010
1000
0000
0100
0001
0000
0010
1000
0001
1000
0001
0000
,
0110
0000
0010
0000
0110
0000
1000
0001
1000
0000
0010
0000
0110
0000
0100
0000
,
0010
0000
1000
0000
0001
0100
0001
0100
0001
0000
1000
0100
1000
0000
0001
0000
,
0110
0000
0010
0000
0110
0000
0001
1000
0001
0000
0010
0000
0110
0000
0100
0000
,
0100
1000
0000
0000
0011
0000
0010
0000
0100
1000
0100
0000
0010
0001
0000
0000
,
0210
0000
0010
0000
0000
0000
0301
1000
0001
0000
0200
0000
0000
0000
0301
0000
,
1000
0000
1000
0000
0010
0000
0100
0001
0100
0000
0010
0000
1100
0000
0000
0000
,
2001
0000
0001
0000
0000
0000
3100
0010
0100
0000
2000
0000
0000
0000
3001
0000
,
0000
0000
1100
0000
0100
0000
0010
0000
0001
1000
0001
0000
0100
0000
0010
0000
,
0120
0000
0100
0000
0000
0000
1030
0001
1000
0000
0020
0000
0000
0000
1030
0000
,
0100
0001
0100
0000
1000
0000
0010
0100
0010
0000
1000
0000
0001
0100
0001
0000
,
1002
0000
1000
0000
0000
0000
0013
0100
0010
0000
0002
0000
0000
0000
1003
0000
,
0000
1000
0100
0001
0010
0100
1000
0000
,
1020
1000
0000
0001
0000
1000
0000
0031
,
0000
1010
0110
0011
0000
1000
1001
1000
,
0210
0010
0000
0001
0000
1000
0000
0301
,
0000
0101
1001
0011
0000
0010
1010
0010
,
0101
0100
0102
0000
0000
1000
0000
1003
,
0000
1000
0010
0001
0100
1000
0010
0001
,
1100
1000
2010
0000
0000
0001
0000
3001
,
0000
1100
0000
0101
1010
0110
0011
0000
,
1001
0000
1001
0000
0100
0000
0010
0001
0100
0000
0010
0000
1100
0000
1100
0000
,
0010
0001
0100
0000
0100
0000
0010
1000
0100
0000
0100
0000
0010
0000
0000
0000
,
1001
0000
1001
0000
0010
0000
0100
0001
0010
0000
0100
1000
0100
0000
1001
0000
,
0010
0000
0001
1000
0100
0000
0001
0000
0100
0010
0001
1000
0001
0000
0000
0000
,
0110
0000
0110
0000
1000
0100
0000
0010
0000
0100
1000
0000
1001
0000
1001
0000
,
0000
0000
0010
1000
0010
0100
0010
0001
0010
0000
0100
0000
1100
0000
0000
0000
,
0110
0000
0110
0000
0010
0000
1000
0000
0001
0100
0010
1000
0001
0000
0100
0000
,
0100
0000
0010
1000
0010
0000
0100
0001
0100
0000
0000
0000
1001
0000
0000
0000
,
0010
0001
0200
0000
0000
0000
0301
1000
0001
0000
0200
0000
0010
0000
0301
0000
,
1000
0010
1000
0100
0010
0000
0100
0001
0100
0000
0010
0001
1000
0010
0100
0000
,
0010
0100
2000
0000
0000
0000
3100
0010
0100
0000
2000
0000
0010
0000
3001
0000
,
0010
0100
1000
0000
0100
0000
0010
0001
1000
0100
0001
0000
0100
1000
0010
0000
,
1000
0100
0001
0100
1000
0000
0010
0100
0010
0000
0020
0000
1000
0000
1030
0000
,
0100
0001
0100
0000
1000
0000
0010
0100
0010
0000
1000
0000
0001
0100
0001
0000
,
0100
1000
0002
0000
0000
0000
0013
0100
0010
0000
0002
0000
0000
0000
1003
0000
,
1100
0000
1000
0010
0100
0001
1000
0100
0010
0000
0100
0001
1000
0000
0010
0100
,
0001
0000
1000
0001
0000
0100
0001
0000
0010
0001
0000
0100
0001
0000
0001
1000
,
0000
0010
1000
0000
0100
1000
0000
1000
0001
0000
0001
0100
0000
0100
0010
0000
,
0010
1000
0000
0100
0010
0000
0001
0100
0000
1000
0100
0001
0100
0000
0000
0000
,
2002
3003
0000
0000
,
0000
0000
0000
0000
;

//---------------dance-double - ----------------
#NOTES:
     dance-double:
     :
     Easy:
     6:
     :
00000000
00000000
00000000
00000000
,
00000000
00000000
00000000
00000000
,
00000000
00000000
00000000
00000000
,
00000000
00000000
00000000
00000000
,
00000000
00000000
00000000
00000000
,
10000000
00010000
00010000
00100000
,
00001000
00000100
00000100
00000001
,
00001000
00000010
00000010
00010000
,
00001000
01000000
01000000
00100000
,
01000000
10000000
10000000
01000000
,
00010000
00100000
00100000
00001000
,
00010000
00000100
00000100
00000010
,
00000001
00000100
00000100
00001000
,
00010000
00000000
00000000
00100000
00000000
00000000
00010000
00000000
,
00000000
00100000
00000000
00000000
00010000
00000000
00000000
00001000
,
00000000
00000000
00000010
00000000
00000000
00001000
00001000
00000000
,
00010000
01000000
10000000
00000000
,
00100000
01000000
00001000
00010000
,
00000100
00001000
00000010
00000000
,
00000010
00000100
00000001
00001000
,
00000100
00010000
00001000
00000000
,
00010000
00100000
01000000
10000000
,
01000000
00100000
01000000
00000000
,
00010000
01000000
00001000
00010000
,
00000020
00000000
00000001
00000100
,
00001000
00000100
00010030
00000000
,
00002000
00000000
00010000
00100000
,
00010000
01000000
00013000
00000000
,
00020000
00000000
00001000
00000010
,
00001000
00000100
00031000
00000000
,
02000000
00000000
00100000
10000000
,
00100000
00010000
00002000
03003000
,
00011000
00000000
00000000
00000000
,
00000100
00000010
00000100
00000000
,
00001001
00000000
00000000
00000000
,
00000010
00010000
00000010
00000000
,
00011000
00000000
00000000
00000000
,
00100000
01000000
00100000
00000000
,
10010000
00000000
00000000
00000000
,
01100000
00000000
10010000
00000000
,
01000000
00010000
00000000
00010000
,
01000000
00100000
10000000
00010000
,
01000000
00001000
00000000
00010000
,
00001000
00000100
00000010
00000001
,
00001000
00000001
00000000
00000100
,
00000010
00001000
00000100
00010000
,
00001000
00100000
00000000
01000000
,
00100000
00100000
01000000
00100000
,
02000000
00000000
10000000
00100000
,
00010000
00100000
03001000
00001000
,
00020000
00000000
00001000
00000100
,
00001000
00000010
00031000
00100000
,
00012000
00010000
00000000
01000000
,
00010000
00100000
00013000
00000100
,
00000020
00000000
00000100
00000001
,
00000100
00001000
00000130
00010000
,
00001000
00000000
00000000
00100000
00000000
00000000
01000000
00000000
,
00000000
10000000
00000000
00000000
00010000
00000000
00000000
01000000
,
00000000
00000000
00001000
00000000
00000000
00010000
00010000
00000000
,
00022000
00033000
00000000
00000000
,
00000000
00000000
00000000
00000000
;

//---------------dance-double - ----------------
#NOTES:
     dance-double:
     :
     Medium:
     9:
     :
00000000
00000000
00000000
00000000
,
00000000
00000000
00000000
00000000
,
00000000
00000000
00000000
00000000
,
00000000
00000000
00000000
00000000
,
00000000
00000000
00000000
00000000
,
00000001
00000100
00000010
00000000
00001000
00000000
00000100
00000000
,
00010000
00001000
00000100
00000000
00001000
00000000
00100000
00000000
,
00010000
10000000
01000000
00000000
00100000
00000000
00010000
00000000
,
01000000
00100000
10000000
00000000
01000000
00000000
00010000
00000000
,
00001000
00010000
00001000
00000000
00000100
00000000
00000100
00000000
,
00000001
00000010
00001000
00000000
00000010
00000000
00000010
00000000
,
00000001
00001000
00010000
00000000
01000000
00000000
01000000
00000000
,
00001000
00100000
10000000
00000000
00100000
00000000
01000000
00000000
,
10000000
00000000
00000000
00100000
00000000
00000000
01000000
00000000
00000000
00010000
00000000
00000000
00100000
00000000
00000000
00001000
,
00000000
00000000
00010000
00000000
00000000
00000100
00000000
00000000
00001000
00000000
00000000
00000010
00000000
00000000
00000100
00000000
,
00000000
00000001
00000000
00000000
00000010
00000000
00000000
00000100
00000000
00000000
00010000
00000000
00001000
00000000
00000000
00000000
,
00010000
01000000
00010000
01000000
00000000
00100000
00001000
00000000
,
01000000
10000000
01000000
10000000
00000000
01000000
00010000
00000000
,
00100000
00001000
00100000
00001000
00000000
00010000
00000100
00000000
,
00001000
00000100
00001000
00000100
00000000
00000010
00000001
00000000
,
00000100
00000010
00000100
00000010
00000000
00001000
00000100
00000000
,
00010000
00001000
00010000
00001000
00000000
00001000
01000000
00000000
,
00100000
10000000
00100000
10000000
00000000
10000000
01000000
00000000
,
00010000
00000010
00010000
00000010
00000000
00001000
00000001
00000000
,
00000100
00000100
00000000
00000010
00000000
00001001
00000000
00000100
,
00000000
00001000
00000000
00000001
00000100
00001000
00010000
00000000
,
00001000
00001000
00000000
00100000
00000000
10010000
00000000
01000000
,
00000000
00100000
00000000
10000000
01000000
00100000
00010000
00000000
,
10000000
10000000
00000000
00010000
00000000
00011000
00000000
00001000
,
00000000
00000010
00000000
00010000
00001000
00000100
00000001
00000000
,
00000010
00000010
00000000
00001000
00000000
00000110
00000000
00000001
,
00000000
00000100
00000000
00001000
00100000
01000000
10000000
00000000
,
20010000
00000000
00000000
00000000
00000000
00010000
00000000
30010000
,
00000000
00100000
00001000
01000000
00000000
00010000
01000000
00000000
,
00201000
00000000
00000000
00000000
00000000
00001000
00000000
00301000
,
00000000
00010000
00000100
00000010
00000000
00000100
00000001
00000000
,
00000210
00000000
00000001
00000000
00000000
00000010
00000000
00000310
,
00000000
00000001
00001000
00010000
00000000
00001000
00000100
00000000
,
00001002
00000000
00000010
00000000
00000000
00001000
00000000
00001003
,
00000000
00000010
00000000
00010000
00001000
00010000
00001000
00000000
,
00100000
00020000
00000000
00000000
00000000
00000000
00130000
01000000
,
00000000
10000000
01000000
00000000
00100000
00010000
00000000
00000000
,
00001000
00000200
00000000
00000000
00000000
00000000
00000310
00000001
,
00000000
00001000
00000001
00000000
00000100
00000001
00000000
00000000
,
00000001
00002000
00000000
00000000
00000000
00000000
00003010
00000100
,
00000000
00000010
00010000
00000000
00001000
00010000
00000000
00000000
,
00100000
20000000
00000000
00000000
00000000
00000000
30010000
01000000
,
00000000
00100000
10000000
00000000
01000000
10000000
00000000
00000000
,
00100000
00100000
00000000
01000000
00000000
10010000
00000000
00100000
,
00000000
00010000
00000000
10000000
00100000
00010000
00001000
00000000
,
00010000
00010000
00000000
00000100
00000000
00001001
00000000
00000010
,
00000000
00000100
00000000
00000001
00000010
00000100
00001000
00000000
,
00000001
00001000
00000001
00001000
00000000
00000000
00001000
00000000
00000000
00000000
00011000
00000000
00000000
00000000
00010000
00000000
,
00000000
01000000
00000000
00001000
00010000
00100000
10000000
00000000
,
01000000
01000000
00000000
00010000
00000000
01100000
00000000
10000000
,
00000000
00100000
00000000
00010000
00000100
00000010
00000001
00000000
,
00000001
00000000
00000000
00000100
00000000
00000000
00001000
00000000
00000000
00010000
00000000
00000000
00100000
00000000
00000000
10000000
,
00000000
00000000
01000000
00000000
00000000
00010000
00000000
00000000
00001000
00000000
00000000
00000100
00000000
00000000
00000001
00000000
,
00000000
00000010
00000000
00000000
00001000
00000000
00000000
01000000
00000000
00000000
00001000
00000000
00010000
00000000
00000000
00000000
,
00022000
00033000
00000000
00000000
,
00000000
00000000
00000000
00000000
;

//---------------dance-double - ----------------
#NOTES:
     dance-double:
     :
     Hard:
     14:
     :
00000000
00000000
00000000
00000000
,
00000000
00000000
00000000
00000000
,
00000000
00000000
00000000
00000000
,
00000000
00000000
00000000
00000000
,
00000000
00000000
00000000
00000000
,
00000100
00000000
00010000
00000000
00001000
00000000
00010000
00001000
00010000
00000000
00100000
00000000
01000000
00000000
00000000
00000000
,
00010000
00000000
00100000
00000000
01000000
00000000
10000000
00100000
10000000
00000000
00010000
00000000
01000000
00000000
00000000
00000000
,
00001000
00000000
00100000
00000000
00010000
00000000
01000000
00001000
01000000
00000000
00001000
00000000
00010000
00000000
00000000
00000000
,
00000100
00000000
00000010
00000000
00000001
00000000
00001000
00000010
00001000
00000000
00000100
00000000
00010000
00000000
00000000
00000000
,
01000000
00000000
10000000
00000000
00100000
00000000
00010000
00100000
00010000
00000000
00001000
00000000
00100000
00000000
00000000
00000000
,
00010000
00000000
00000100
00000000
00000010
00000000
00000001
00000100
00000001
00000000
00001000
00000000
00000100
00000000
00000000
00000000
,
00010000
00000000
00100000
00000000
10000000
00000000
01000000
00100000
01000000
00000000
10000000
00000000
00010000
00000000
00000000
00000000
,
00100000
00000000
00001000
00000000
00000100
00000000
00000010
00001000
00000010
00000000
00000100
00000000
00000001
00000000
00000000
00000000
,
00000011
00000000
00000000
00000101
00000000
00000000
00000110
00000000
00000000
00001010
00000000
00000000
00001100
00000000
00000000
00010100
,
00000000
00000000
00011000
00000000
00000000
00101000
00000000
00000000
01100000
00000000
00000000
11000000
00000000
00000000
10100000
00000000
,
00000000
01100000
00000000
00000000
10010000
00000000
00000000
01001000
00000000
00000000
00011000
00000000
00101000
00000000
00000000
00000000
,
00100000
00000000
00100000
00000000
01000000
00000000
00010000
00001000
00010000
00000000
00000100
00000000
00000010
00000000
00000000
00000000
,
00000100
00000000
00000100
00000000
00000010
00000000
00000001
00000100
00000001
00000000
00000010
00000000
00000001
00000000
00001000
00000000
,
00000100
00000000
00010000
00000000
00001000
00000000
00100000
00010000
00100000
00000000
01000000
00000000
10000000
00000000
00000000
00000000
,
00100000
10000000
00100000
00000000
01000000
00000000
00010000
00100000
00010000
00000000
01000000
00000000
00010000
00000000
00001000
00000000
,
00000010
00000000
00000100
00000000
00000001
00000000
00001000
00000001
00001000
00000000
00000010
00000000
00000100
00000000
00000000
00000000
,
00000001
00000100
00000001
00000000
00000010
00000000
00001000
00000000
00010000
00000000
01000000
00000000
10000000
00000000
00000000
00000000
,
00100000
00000000
01000000
00000000
00010000
00000000
00100000
00001000
00100000
00000000
00001000
00000000
00010000
00000000
00000000
00000000
,
00000010
00010000
00000010
00000000
00000100
00000000
00000010
00001000
00000010
00000000
00000100
00000000
00000001
00000000
00000000
00000000
,
00001001
00000100
00000000
00010100
00000000
00000020
00000100
00000031
,
00000000
00000000
00000100
00000000
00001000
00000000
00010000
00000000
00001000
00100000
00001000
00000000
00110000
00000000
00000000
00000000
,
10010000
01000000
00000000
01001000
00000000
00020000
01000000
10030000
,
00000000
00000000
00010000
00000000
00100000
00000000
01000000
00000000
10000000
00010000
10000000
00000000
00100000
00000000
00000000
00000000
,
01100000
10000000
00000000
00010000
00100000
00002000
00010000
00013000
,
00000000
00000000
00000010
00000000
00001000
00000000
00000100
00000000
00001000
00000010
00001000
00000000
00000001
00000000
00000000
00000000
,
00000110
00001000
00000000
00000101
00000000
00000002
00001000
00000103
,
00000000
00000000
00000010
00000000
00010000
00000000
00001000
00000000
00100000
00010000
00100000
00000000
00001000
00000000
00000000
00000000
,
02001000
00001000
00000000
00010000
00000000
00100000
00000000
13000000
,
00000000
10000000
01100000
00010000
00000000
00100000
00001000
00000000
,
00000120
00000100
00000000
00000001
00000000
00000100
00000000
00010030
,
00000000
00000010
00011000
00000100
00000000
00010000
00001000
00000000
,
00000010
00000010
00000012
00000000
00000000
00001000
00000000
00001003
,
00000000
00000001
00000100
00001000
00010000
00001000
00100000
00000000
,
01000000
01000000
21000000
00000000
00000000
00010000
00000000
30010000
,
00000000
00110000
00000000
00101000
00011000
00011000
00011000
00000000
,
00000010
00000000
00000010
00000000
00001000
00000000
00000001
00000100
00000010
00000000
00000100
00000000
00000001
00000000
00001000
00000010
,
00001000
00000000
00000100
00000000
00010000
00000000
00001000
00010000
01000000
00000000
00100000
00000000
00010000
00000000
00000000
00000000
,
10000000
00000000
10000000
00000000
01000000
00000000
00100000
00010000
00001000
00000000
00010000
00000000
01000000
00000000
00100000
10000000
,
00100000
00000000
01000000
00000000
00001000
00000000
00010000
00000100
00000010
00000000
00000001
00000000
00001001
00000000
00000000
00000000
,
00000100
00000000
00000100
00000000
00000001
00000000
00000100
00000010
00001000
00000000
00000100
00000000
00010000
00000000
00001000
00010000
,
00001000
00000000
01000000
00000000
00010000
00000000
01000000
00100000
10000000
00000000
00100000
00000000
01000000
00000000
00000000
00000000
,
00010000
00000000
00010000
00000000
00100000
00000000
00001000
01000000
10000000
00000000
01000000
00000000
00010000
00000000
00100000
00010000
,
00100000
00000000
00001000
00000000
00010000
00000000
00000100
00000010
00001000
00000000
00000010
00000000
00001001
00000000
00000000
00000000
,
00000100
00001000
00000010
00000000
00000010
00000000
00001000
00000001
00000100
00000000
00000010
00000000
00000010
00000000
00002000
00000000
,
00000000
00000000
00013000
00000000
01000000
00000000
00100000
00000000
10000000
00010000
10000000
00010000
10000000
00000000
00000000
00000000
,
01000000
00100000
00010000
00000000
01000000
00000000
00100000
10000000
00010000
00000000
01000000
00000000
01000000
00000000
00002000
00000000
,
00000000
00000000
00013000
00000000
00000100
00000000
00000010
00000000
00000001
00000100
00000001
00000100
00000001
00000000
00001000
00000000
,
00000010
00010000
00001000
00100000
00001000
00000000
00000000
00000000
00001000
00000000
00020000
00000000
00000100
00000000
00000100
00000000
,
00000000
00000000
00031000
00000000
00100000
00000000
01000000
00000000
10000000
01000000
10000000
01000000
10000000
00000000
00000000
00000000
,
01000000
10000000
00010000
00000000
00100000
00000000
00001000
00100000
00010000
00000000
01000000
00000000
01000000
00000000
00002000
00000000
,
00000000
00000000
00013000
00000100
00000010
00000000
00000100
00000000
00010000
00001000
00010000
00001000
00010000
00000000
00000000
00000000
,
00110000
00000000
00000000
01010000
00000000
00000000
11000000
00000000
00000000
10100000
00000000
00000000
00110000
00000000
00000000
00011000
,
00000000
00000000
00001010
00000000
00000000
00000011
00000000
00000000
00000101
00000000
00000000
00001100
00000000
00000000
00011000
00000000
,
00000000
00110000
00000000
00000000
10100000
00000000
00000000
11000000
00000000
00000000
01010000
00000000
00011000
00000000
00000000
00000000
,
00020020
00030030
00000000
00000000
,
00000000
00000000
00000000
00000000
;

//---------------dance-double - ----------------
#NOTES:
     dance-double:
     :
     Challenge:
     15:
     :
00000000
00000000
00000000
00000000
,
00000000
00000000
00000000
00000000
,
00000000
00000000
00000000
00000000
,
00000000
00000000
00000000
00000000
,
00000000
00000000
00000000
00000000
,
00000011
00000000
00000001
00000000
00000100
00000000
00000010
00010000
00000010
00000000
00001000
00000000
00000100
00000000
00000000
00000000
,
00011000
00000000
00001000
00000000
01000000
00000000
00100000
10000000
00000000
00100000
00000000
01000000
00001000
00000000
00100000
00000000
,
00110000
00000000
00000100
00000000
00010000
00001000
00010000
00000100
00000000
00000000
00000010
00000000
00000001
00001000
00000001
00000000
,
00000110
00000000
00000010
00000000
00010010
00000000
00001000
00100000
00000000
00010000
01000000
00000000
00100000
10000000
00100000
00000000
,
11000000
00000000
10000000
00000000
00010000
00000000
00100000
00001000
00100000
00000000
00010000
00000000
00001000
00000000
00000010
00000000
,
00000100
00000001
00000100
00000000
00000010
00000000
00010000
00000100
00000000
00000100
00000000
00000010
00000001
00000000
00001000
00000000
,
00001000
00000000
00000010
00000000
00010000
00000100
00010000
00001000
00000000
00000000
00100000
00000000
00010000
10000000
00010000
00000000
,
01000000
00000000
00100000
00000000
10100000
00000000
00010000
00100000
00000000
00001000
00000100
00000000
00000010
00000100
00000010
00000000
,
00000001
00000000
00001000
00000100
00000000
00010000
00001000
00000000
00100000
00010000
00000000
01000000
00010000
00000000
10000000
00100000
,
00000000
01000000
00010000
00000000
00100000
00001000
00000000
00010000
00001000
00000000
00010000
00000100
00000000
00001000
00000100
00000000
,
00001000
00000010
00000000
00000100
00000001
00000000
00000010
00000100
00000000
00010000
00000100
00000000
00011000
00000000
00000000
00000000
,
00001000
00000000
00100000
00000000
01000000
00000000
10000000
00010000
10000000
00000000
00100000
00000000
01100000
00000000
00000000
00000000
,
00010000
01000000
00000000
00100000
00000000
10000000
01000000
10000000
00100000
00000000
01000000
00001000
00010000
00000000
00000000
00000000
,
00000010
00000000
00000100
00000000
00000010
00000000
00001000
00000001
00001000
00000000
00000010
00000000
00000110
00000000
00000000
00000000
,
00000010
00010000
00000010
00000000
00001000
00000100
00000000
00000100
00010000
00000000
00001000
00100000
00001000
00100000
00010000
00000000
,
00100000
00000000
01000000
00000000
01000000
00000000
10000000
00010000
10000000
00000000
01000000
00000000
01100000
00000000
00000000
00000000
,
00100000
00000000
00001000
00000000
00010000
00000100
00010000
00000100
00010000
00000000
00001000
00100000
00001000
00000000
00000000
00000000
,
00000100
00000000
00000100
00000000
00000010
00000000
00000001
00001000
00000001
00000000
00000100
00000000
00000110
00000000
00000000
00000000
,
00000010
00010000
00000000
00000000
00010100
00000000
00000100
00000000
00010000
00001000
00010000
00000000
00100000
00000000
00000000
00000000
,
01200000
00000000
01000000
00000000
00000000
00000000
00310000
10000000
00010000
00000000
00200000
00000000
00000000
00000000
00301000
00000000
,
01000000
00000000
10000000
00000000
01000000
00000000
00010000
00100000
00010000
00000000
00001000
00000000
00000010
00000000
00000000
00000000
,
00001002
00000000
00001000
00000000
00000000
00000000
00000013
00000100
00000010
00000000
00000002
00000000
00000000
00000000
00001003
00000000
,
00000000
00000000
00000011
00000000
00000010
00000000
00000100
00000000
00001000
00000001
00001000
00000000
00000010
00000000
00000000
00000000
,
00001200
00000000
00001000
00000000
00000000
00000000
00010300
00001000
00010000
00000000
00000200
00000000
00000000
00000000
00000310
00000000
,
00000001
00001000
00000001
00000000
00000100
00000000
00000010
00001000
00000010
00000000
00010000
00000000
00001000
01000000
00001000
00000000
,
00210000
00000000
00010000
00000000
00000000
00000000
01300000
10000000
01000000
00000000
00200000
00000000
00000000
00000000
00310000
00000000
,
00000000
00010000
10000000
01000000
00010000
00001000
00000100
00000000
,
00000201
00000001
00000000
00001000
00000000
00000001
00000000
00001300
,
00000000
00000110
00001010
00010010
00000000
00001000
00011000
00001000
,
01200000
01000000
00000000
00010000
00000000
10000000
00000000
00310000
,
00000000
00101000
00011000
01001000
00000000
10000000
10010000
10000000
,
00100000
00100000
00120000
00000000
00000000
10000000
00000000
10030000
,
00000000
10000000
00100000
00010000
00001000
00000100
00000001
00000010
,
00000001
00000001
00000102
00000000
00000000
00001000
00000000
00001003
,
00000000
00001010
00000000
00010010
00001100
00001010
00010100
00000000
,
00010000
00000000
00010000
00000000
00100000
00000000
01000000
00010000
00100000
00000000
01000000
00000000
10000000
00000000
10000000
00000000
,
01000000
00100000
00010000
00000000
01000000
00000000
01000000
00001000
00010000
00000000
00010000
00000000
00001000
00000000
00000000
00000000
,
00001000
00000000
00001000
00000000
00000100
00000000
00000010
00001000
00000100
00000000
00000010
00000001
00000010
00000000
00000001
00000000
,
00000100
00000000
00000010
00010000
00001000
00000000
00001000
00000000
00010000
00000000
01000000
00100000
00010000
00000000
00000000
00000000
,
01000000
00000000
01000000
00000000
00010000
00100000
00000000
01000000
00000000
10000000
00100000
00000000
01000000
00000000
01000000
00000000
,
00010000
10000000
01000000
00000000
00100000
00000000
00001000
00000000
00010000
00000010
00001000
00000000
00000001
00000000
00000000
00000000
,
00000010
00000000
00000010
00000000
00000100
00000000
00000001
00000000
00001000
00000010
00000100
00000001
00001000
00000000
00000010
00000000
,
00000010
00000000
00010000
00000100
00010000
00000000
00000100
00010000
00000100
00000000
00000000
00000000
00011000
00000000
00000000
00000000
,
01000000
00010000
00200000
00000000
00000000
00000000
00301000
00010000
00001000
00000000
00200000
00000000
01000000
00000000
00310000
00000000
,
10000000
01000000
10000000
00100000
01000000
00000000
00001000
00010000
00100000
00000000
00010000
00001000
00010000
00000000
00000100
00000000
,
00000100
00000010
00000002
00000000
00000000
00000000
00000013
00001000
00000010
00000000
00000002
00000000
00000100
00000000
00001003
00000000
,
00000100
00000010
00000001
00000000
00000010
00000000
00000100
00010000
00001000
00010000
00001000
00000000
00100000
00010000
01000000
00000000
,
00010000
00100000
00001000
00000010
00000000
00000000
00000001
00000010
00000001
00000000
00000200
00000000
00000001
00000000
00000301
00000000
,
00000010
00010000
00000010
00000000
00010000
00000000
01000000
00100000
01000000
00000000
10000000
00000000
00010000
00000000
10000000
00000000
,
00100000
10000000
00020000
00000000
00000000
00000000
01030000
00001000
01000000
00000000
00020000
00000000
00000000
00000000
10030000
00000000
,
00100000
00000000
10000000
01000000
00100000
00001000
00010000
00000000
00000100
00000000
00000010
00000001
00001000
00000000
00000100
00010000
,
00000100
00000000
00000010
00000001
00000000
00001000
00000100
00000000
00010000
00001000
00000000
00100000
00010000
00000000
10000000
01000000
,
00000000
00100000
00010000
00000000
00001000
00000010
00000000
00000100
00000001
00000000
00001000
00000010
00000000
00010000
00000100
00000000
,
00100000
00001000
00000000
10000000
00010000
00000000
01000000
00100000
00000000
00010000
00001000
00010000
00001000
00000000
00000000
00000000
,
00202000
00303000
00000000
00000000
,
00000000
00000000
00000000
00000000
;
