#TITLE:Xmix3 (Stomp Dem Groove);
#ARTIST:dj nagi;
#BANNER:Xmix3 (Stomp Dem Groove).png;
#BACKGROUND:Xmix3 (Stomp Dem Groove)-bg.png;
#CDTITLE:./CDTitles/DDR X.png;
#MUSIC:Xmix3 (Stomp Dem Groove).ogg;
#SAMPLESTART:2;
#SAMPLELENGTH:15;
#DISPLAYBPM:120:142;
#BPMS:0=120,60=130,124=125,194=119,195=120,248=135,323=139,324=142;
#STAGE:3;

//---------------dance-single - ----------------
#NOTES:
     dance-single:
     :
     Easy:
     6:
     :
0000
0000
0000
0000
,
0000
0000
0000
0000
,
0000
0000
0000
0000
,
0000
0000
0000
0000
,
0000
0000
0000
0000
,
0001
0100
0010
0001
,
0010
1000
0010
0100
,
0001
0010
0100
1000
,
0002
0003
2000
3000
,
1000
0100
0010
0010
,
0001
0100
0010
0010
,
1000
0001
0010
0100
,
1000
1001
0001
1001
,
0002
0003
0020
0030
,
1000
0000
1000
0000
0001
0001
0001
0000
,
1000
0100
0000
0000
,
0001
0010
0000
0000
,
0100
0001
1000
0000
,
1000
0010
0001
0000
,
2000
3000
0002
0003
,
2000
0000
3001
0000
,
0002
0003
2000
3000
,
0002
0000
1003
0000
,
0200
0300
0002
0003
,
2000
0000
3100
0000
,
0020
0030
2000
3000
,
0002
0000
0103
0000
,
0010
0010
0010
0010
,
0010
0010
0010
0010
,
0001
0001
1000
1000
,
0001
0010
0100
0000
,
1000
0100
1000
0100
,
1000
0000
0001
0000
,
0100
0001
0100
0001
,
0100
0000
0010
0000
,
1000
0010
1000
0010
,
1000
0000
0100
0000
,
0010
0001
0010
0001
,
0010
0000
0100
0000
,
1000
0001
1000
0100
,
0010
0000
0001
0000
,
1000
0001
1000
0010
,
0100
0000
0001
0000
,
0010
0100
0010
0000
,
1000
0100
1000
0000
,
0001
0100
0001
0100
,
0001
0000
0100
0100
0001
0000
0100
0000
,
0001
0000
1001
0000
,
0110
0000
0001
0000
,
0000
0000
1000
0000
,
0000
0000
0100
0000
,
0010
0000
0001
0001
,
0001
0000
1000
1001
,
0000
0000
1000
0010
,
0001
0010
1000
1001
,
0000
0000
0001
0100
,
1000
0100
0001
1001
,
0000
0000
1000
0100
,
0001
0100
1000
0010
,
1000
0010
0001
0010
,
0001
0010
0100
0010
,
0100
0010
0001
1000
,
2002
0000
0000
3003
,
0100
1000
0010
0000
,
0001
0010
0100
0000
,
1000
1000
0001
0001
,
0010
1000
0001
0000
,
0100
0001
0010
0000
,
1000
0010
0100
0000
,
0001
0001
1000
1000
,
0010
0001
1000
0000
,
0002
0000
0000
0003
,
0200
0000
0000
0300
,
0001
0000
0010
0000
,
0100
1000
0001
0010
,
2000
0000
0000
3000
,
0200
0000
0000
0300
,
1000
0000
0010
0000
,
0100
0001
1000
0010
,
0001
0001
1000
1000
,
0001
1000
0001
1000
,
2100
0100
0100
3100
,
0012
0010
0013
1001
,
0010
0000
0100
0000
0000
0001
0001
0000
,
0010
0000
1000
0000
0000
0100
0100
0000
,
0100
0000
0001
0000
0000
0010
0010
0000
,
1000
0000
0001
0000
0000
0010
0010
0000
,
1010
0000
0100
0000
0000
1000
1000
0000
,
0011
0000
0100
0000
0000
0001
0001
0000
,
1001
0010
1001
0100
,
0020
0000
0000
0030
,
0100
1000
0001
0100
,
0001
0010
1000
0010
,
0001
0010
0100
0001
,
0100
0001
0010
0001
,
0110
1000
0100
0001
,
0110
1000
0001
0100
,
1010
0100
0011
0100
,
0010
1000
0100
1001
,
0010
0001
0010
0100
,
1000
0001
1000
0010
,
0001
1000
0001
0100
,
1000
0001
1000
0010
,
1001
0010
0100
0010
,
1001
0010
0100
0010
,
1001
0100
1001
0010
,
0100
1000
0010
0100
,
2002
0000
0000
3003
;

//---------------dance-single - ----------------
#NOTES:
     dance-single:
     :
     Medium:
     9:
     :
0000
0000
0000
0000
,
0000
0000
0000
0000
,
0000
0000
0000
0000
,
0000
0000
0000
0000
,
0000
0000
0000
0000
,
0010
1000
0100
1001
,
0010
0001
0100
1001
,
1000
0010
0100
0000
0001
0010
0100
0000
,
2000
0000
3010
0000
0200
0001
0301
0000
,
1000
0101
1000
0101
,
0010
1000
0001
0000
0100
0001
0010
0001
,
0001
1010
0001
1010
,
0100
0001
1000
0000
0100
1000
0010
0000
,
1002
0103
2001
3100
,
1001
0000
1001
0000
0001
1000
0001
1000
,
1100
0100
0011
0000
,
0011
0010
1100
0000
,
0101
0001
1010
0000
,
1010
0000
0010
0000
1001
0000
0010
0001
,
0000
0000
1000
0001
0000
0000
0100
0001
,
0000
2000
0000
3001
0000
0000
0010
0100
,
0000
0000
1000
0100
0000
0000
0001
0100
,
0000
0020
0000
0130
0000
0000
1000
0010
,
0000
0000
0100
0010
0000
0000
0001
0010
,
0000
0200
0000
0310
0000
0000
0001
1000
,
0000
0000
0010
1000
0000
0000
0100
1000
,
0000
0002
0000
1003
0000
0000
0000
0000
,
0010
0010
0010
0010
,
0010
0110
0010
0110
,
0001
0001
1000
1000
,
0100
1000
0100
1000
0100
0000
1001
0000
,
0010
0011
0010
0011
,
1000
0101
0001
1100
,
1000
1010
1000
1010
,
0001
0000
1100
0000
1000
0000
0101
0001
,
0001
1000
0001
1000
,
0100
0010
0100
0000
1000
0000
0001
0000
,
0100
0010
0100
0010
,
1000
0001
1000
0000
0001
0000
0110
0000
,
0101
0101
0001
0010
,
1000
0100
1000
0000
0001
0100
0001
0000
,
1010
1010
0100
0001
,
0010
0001
0010
0000
1000
0010
1000
0000
,
1001
1001
0010
0001
,
0100
0010
0100
0000
0001
1000
0001
0000
,
0010
0010
0100
0100
,
0010
0000
0100
0100
0100
0000
0010
0000
,
0100
0000
0100
0000
1000
0001
0100
0010
,
0100
0110
0010
0000
,
0000
0000
0000
0010
0100
0000
0000
0000
,
0001
0001
1000
0000
,
0100
0000
0010
0001
,
1000
0100
0100
0020
0000
0000
0031
0000
,
1000
0000
0001
0000
1000
0001
0010
0001
,
0000
0100
0100
0020
0000
0000
1030
0000
,
0001
0000
1000
0000
1001
0000
0100
0001
,
0000
0010
0001
0020
0000
0000
0130
0000
,
1000
0000
0010
0000
0100
0001
0100
0000
,
0010
1000
0010
0000
2000
0000
0001
0000
,
0001
3001
0002
1000
,
1000
1003
0200
0310
,
0020
0000
0130
0000
1001
0000
0000
0010
,
2002
0000
0000
3003
,
0010
0000
1000
0001
0100
0000
0000
0000
,
0001
0100
0010
0001
,
1000
0100
0001
0000
0001
0100
1000
0000
,
0100
1000
0001
0100
,
0010
0000
0001
1000
0100
0000
0000
0000
,
1000
0100
0010
1000
,
0001
0100
1000
0000
1000
0100
0001
0000
,
0100
0001
1000
0110
,
0002
1000
0100
1000
,
0010
0100
0010
0103
,
0001
1000
0001
1000
,
0010
1000
0001
0010
,
2000
0001
0100
0001
,
0010
0100
0010
3100
,
1000
0001
1000
0001
,
0010
0001
1000
0010
,
0100
1001
0100
1001
,
0010
0000
0001
0000
1000
0010
0100
0001
,
0001
0000
0100
0000
1000
0100
2000
0000
,
3010
0000
0100
0000
0010
0001
0110
0000
,
1000
0001
0100
0000
0000
1000
0100
0000
,
0010
1000
0001
0000
0000
0010
0100
0000
,
0100
0000
1000
0001
0100
0001
0010
0000
,
0001
0000
0010
0100
1000
0001
0100
0000
,
0011
0000
0100
0001
1000
0001
0100
0000
,
1010
0000
0100
1000
0001
1000
0100
0000
,
0100
1000
0100
0000
0010
0001
1000
0000
,
0020
0000
0000
0030
,
0100
0001
0000
0001
1000
0100
0000
0100
,
1000
0010
0000
0100
0001
0010
0000
0001
,
1000
0100
0000
0010
0100
1000
0000
0001
,
0100
1000
0000
0001
0010
0100
1000
0000
,
0110
0000
0001
0010
0100
1000
0001
0000
,
0110
0000
0010
0100
1000
0001
0100
0000
,
0010
1000
0100
0000
0010
0001
0100
0000
,
0010
0000
0001
0010
0100
0000
1001
0000
,
0010
0000
1000
0001
0010
0001
0100
0000
,
0001
0000
0100
0010
1000
0100
0001
0000
,
0010
0000
0001
1000
0010
0001
0100
0000
,
0001
0000
1000
0010
0100
1000
0010
0000
,
0101
0000
0010
0001
0100
0001
0010
0000
,
1100
0000
0010
1000
0100
1000
0010
0000
,
0001
1000
0010
0000
0100
0001
1000
0000
,
0100
0000
0001
0100
0010
0100
0001
0000
,
2002
0000
0000
3003
;

//---------------dance-single - ----------------
#NOTES:
     dance-single:
     :
     Hard:
     13:
     :
0000
0000
0000
0000
,
0000
0000
0000
0000
,
0000
0000
0000
0000
,
0000
0000
0000
0000
,
0000
0000
0000
0000
,
0110
0000
1000
0000
0100
0010
0100
0000
,
1000
0000
0010
0000
0100
0000
0010
0000
1000
0001
0000
1000
0001
0000
0010
0000
,
0100
0010
0000
0100
0010
0000
0100
0000
1000
0000
0100
0000
0001
0000
0100
0000
,
0010
0000
0000
0010
0000
0000
0010
0000
0100
0000
0000
0100
0000
0000
0100
0000
,
1000
0000
0001
0000
0100
0000
0010
0000
1000
0010
0000
0010
0100
0000
0100
0000
,
0001
0000
0010
0000
0100
0000
1000
0000
0010
1000
0000
1000
0100
0000
0100
0000
,
0010
0000
0001
0000
1000
0000
0100
0000
0010
0001
0000
0001
1000
0000
1000
0000
,
1100
0000
0000
1100
0000
0000
0000
0000
0101
0000
0000
0101
0000
0000
0010
0000
,
1000
0100
1000
0000
0100
0000
0100
0000
1000
0100
1000
0000
0100
0000
0100
0000
,
0001
0100
0001
0000
0001
0100
0001
0000
0100
0000
0100
0000
0010
0000
0010
0000
,
1000
0000
0001
0000
0100
0000
0000
0110
0000
0000
0000
0000
0101
0000
0010
0000
,
0010
0000
1000
0000
0100
0000
0000
1001
0000
0000
0000
0000
0110
0000
1000
0000
,
0001
0000
1000
0000
0100
0000
0000
0011
0000
0000
0000
0000
1100
0000
0001
0000
,
0001
0000
1000
0000
0100
0000
0000
1100
0000
0000
0000
0000
0001
0000
1002
0000
,
0000
0000
1003
2000
0000
0000
3001
1002
,
0000
2003
0000
0002
3003
0000
0010
0120
,
0000
0000
0130
0210
0000
0000
0310
0120
,
0000
0230
0000
0020
0330
0000
0010
2100
,
0000
0000
3010
0102
0000
0000
0013
2100
,
0000
3002
0000
0200
0303
0000
0100
2002
,
0000
3003
0010
2002
0000
3003
0120
0100
,
0000
0100
0000
0200
0000
0000
0330
0000
,
0001
0001
0001
1000
1000
1000
0010
0010
,
0110
0000
0000
1100
0000
0000
0011
0000
0000
0110
0000
0000
1001
0000
0000
0100
,
0010
0010
0010
1000
1000
1000
0001
0001
,
0100
1000
0010
0100
0001
1000
0000
0100
,
1001
0000
0101
0000
1100
0000
1001
0100
,
0001
0010
1000
0010
0001
0010
1000
0010
,
1001
0000
1010
0000
0101
0000
1001
0010
,
1000
0100
0001
0100
1000
0100
0010
0001
,
0001
0100
0010
1000
1000
0100
0010
0001
,
1100
0000
0011
0000
1100
0000
0011
0100
,
1000
0010
1000
0001
0010
0001
0100
1000
,
0100
0001
1010
0000
0101
0000
1010
0000
,
0001
0100
0001
0010
0001
1000
0100
0010
,
0001
1000
0001
0000
1000
0000
0011
0000
,
1000
0100
1000
0010
1000
0001
0010
1000
,
0010
0001
1000
0000
0001
0000
1010
0000
,
0100
0001
0100
1000
0100
0010
1000
0100
,
0010
0001
0100
0000
0001
0000
1100
0000
,
0010
1000
0010
0001
0010
1000
0010
0001
,
0010
1000
0010
0010
0010
1000
0010
0001
,
0010
0100
0001
0010
0100
1000
0000
0010
,
0100
0010
1001
0000
0010
0000
0000
0000
,
0000
0000
0000
0010
0100
0000
0000
0000
,
0001
0001
1001
0000
,
0110
0000
1100
0101
,
1000
0001
1001
0220
0030
0000
0301
0000
,
0001
0010
1000
0000
0001
0010
1000
0100
,
0000
0010
0001
0200
0000
0000
0310
0000
,
1000
0010
0001
0100
0001
0010
1000
0100
,
1000
0010
0001
0020
0000
0000
1030
0000
,
1000
0010
0100
0000
1000
0010
0100
0001
,
0000
0010
2000
0000
0001
0000
0100
0000
,
0001
3020
0230
1000
,
0010
0302
1000
0023
,
0100
0000
0000
0000
1030
0000
0000
0000
0001
0100
0001
0100
0000
0010
0100
0000
,
2002
0000
0000
3003
,
0100
0000
0001
0000
0010
1000
0100
0000
,
1000
1000
0010
0100
0000
0001
1000
0000
,
0100
1000
0010
0000
0100
1000
0001
0000
,
0010
0100
0001
0100
1000
0001
0010
0000
,
0100
0000
1000
0000
0010
0001
0100
0000
,
0001
0001
0010
0100
0000
1000
0001
0000
,
0100
0001
0010
0000
0100
0001
1000
0000
,
0010
0100
1000
0100
0001
0000
0110
0000
,
2000
0001
0010
3100
,
0002
1000
0010
0103
,
1000
0100
0001
0000
1000
0100
0001
0000
,
0100
0010
0001
0100
0000
0010
0100
0000
,
0002
1000
0010
0103
,
2000
0001
0010
3100
,
0001
0100
1000
0000
0001
0100
1000
0000
,
0100
0010
1000
0100
0000
0010
0100
0000
,
0010
0101
0010
1100
,
0001
0010
1000
0001
0100
1000
0010
0100
,
1000
0100
2000
0000
3001
0100
0002
0000
,
0013
0001
0200
0000
0310
1000
0110
0000
,
1001
1000
1100
0000
0000
0001
0101
0000
,
0011
0001
1001
0000
0000
1000
1100
0000
,
0100
0000
1000
0000
0001
0000
1000
0100
0000
0100
1000
0000
0010
0000
0000
0000
,
1000
0000
0001
0000
0010
0000
0100
1000
0000
1000
0010
0000
1000
0000
0000
0000
,
1010
0000
1000
0000
0100
0000
1000
0010
0000
0010
1000
0000
0100
0000
0000
0000
,
0011
0000
0001
0000
0100
0000
0001
0010
0000
0010
0001
0000
0100
0000
0000
0000
,
1100
0010
0100
0001
0110
1000
0001
0100
,
0020
0000
0000
0030
,
0100
1000
0001
1000
0100
1000
0010
1000
,
0001
0100
1000
0100
0010
0100
0001
0100
,
0010
1000
0100
0010
0100
1000
0001
1000
,
0100
0001
0100
1000
0010
0100
0001
0000
,
0110
0001
1000
0010
0100
0001
1000
0000
,
0110
1000
0010
0100
0001
1000
0100
0000
,
0011
0001
0101
0000
1010
1000
1100
0000
,
0010
0100
1000
0010
0100
0010
1001
0000
,
0010
0000
1000
0000
0001
0000
1000
0010
0000
0010
1000
0000
0100
0000
0010
0000
,
0001
0000
1000
0000
0010
0000
0100
0010
0000
0010
0100
0000
0001
0000
0010
0000
,
0100
0000
1000
0000
0100
0000
0010
0001
0000
0001
1000
0000
0100
0000
0001
0000
,
0100
0000
0010
0000
0001
0000
0100
1000
0000
1000
0100
0000
0010
0000
0000
0000
,
1100
0000
1000
0000
0010
0000
1000
0100
0000
0100
1000
0000
0010
0000
1000
0000
,
0101
0000
0001
0000
0010
0000
0001
0100
0000
0100
0001
0000
0010
0000
0100
0000
,
1001
0001
1000
0010
0110
1000
0001
0010
,
0100
0000
1000
0000
0001
0000
0010
0100
0000
0100
0010
0000
0001
0000
0000
0000
,
2002
0000
0000
3003
;

//---------------dance-double - ----------------
#NOTES:
     dance-double:
     :
     Easy:
     6:
     :
00000000
00000000
00000000
00000000
,
00000000
00000000
00000000
00000000
,
00000000
00000000
00000000
00000000
,
00000000
00000000
00000000
00000000
,
00000000
00000000
00000000
00000000
,
10000000
01000000
00010000
00000000
,
00001000
00010000
00001000
00000000
,
00001000
00000100
00000001
00000000
,
00000020
00000030
00000200
00000300
,
00010000
00001000
00100000
00010000
,
10000000
00010000
01000000
00001000
,
00010000
00000010
00001000
00000001
,
00000200
00000300
00002000
00003000
,
00011000
00000000
00011000
00000000
,
00001000
00000000
00010000
00000000
00001000
00010000
00001000
00000000
,
00000100
00000001
00000100
00000000
,
00001000
00010000
00001000
00000000
,
01000000
00100000
01000000
00000000
,
00010000
10000000
00010000
00000000
,
10010000
00000000
00100000
00000000
,
00110000
00000000
00001000
00000000
,
00001010
00000000
00000100
00000000
,
00001001
00000000
00000010
00000000
,
00001100
00000000
00010000
00000000
,
01010000
00000000
00100000
00000000
,
10010000
00000000
01000000
00000000
,
00011000
00000000
00000100
00000000
,
00000001
00000001
00000001
00000001
,
00000100
00000000
00000100
00000000
,
00010000
00010000
00010000
00010000
,
00010000
00001000
00000100
00000000
,
00000010
00000100
00000010
00000100
,
00000010
00000000
00001000
00000000
,
00000100
00001000
00000100
00001000
,
00000100
00000000
00010000
00000000
,
00001000
00010000
00001000
00010000
,
00001000
00000000
01000000
00000000
,
00010000
01000000
00010000
01000000
,
00010000
00000000
00100000
00000000
,
01000000
10000000
00010000
00000000
,
01000000
00010000
00100000
00000000
,
00001000
00010000
00001000
00000000
,
00000100
00001000
00000010
00000000
,
00000100
00000001
00001000
00000000
,
00000010
00001000
00000100
00000000
,
00010000
00001000
00010000
00001000
,
00010000
00000000
00001000
00001000
00001000
00000000
00010000
00000000
,
00001000
00000000
00100000
00010000
,
01000000
00000000
01000000
00000000
,
00000000
00000000
00100000
00000000
,
00000000
00000000
00010000
00000000
,
00001000
00000000
00000010
00001000
,
00000100
00000000
00010000
00011000
,
00000000
00000000
00010000
00100000
,
10000000
00000000
00010000
00011000
,
00000000
00000000
00001000
00000010
,
00000001
00000000
00001000
00011000
,
00000000
00000000
00010000
01000000
,
10000000
00000000
00010000
00001000
,
00010000
00001000
00010000
01000000
,
00010000
01000000
00001000
00000100
,
00001000
00000100
00010000
00001000
,
00022000
00000000
00000000
00033000
,
00000100
00000001
00001000
00000000
,
00000010
00000100
00001000
00000000
,
00000010
00000000
00001000
00000000
,
00010000
00100000
10000000
00100000
,
00010000
10000000
01000000
00000000
,
00010000
00001000
00000010
00000000
,
00000100
00000000
00001000
00000000
,
00000010
00000001
00001000
00000010
,
00000100
00000001
00000100
00000001
,
00000100
00001000
00000100
00001000
,
00010000
00001000
00010000
00001000
,
00010000
00100000
00010000
00100000
,
10000000
00100000
10000000
00100000
,
10000000
01000000
10000000
01000000
,
00010000
00001000
00010000
00001000
,
00000010
00000001
00001000
00000000
,
00000010
00000000
00000100
00000000
,
00001000
00010000
00100000
10000000
,
00010000
00000000
01000000
00000000
,
10000000
00000000
00100000
00001000
,
00000010
00000100
00000001
00000100
,
00000010
00001000
00010000
00100000
,
01000000
00000000
00010000
00000000
00000000
10000000
10000000
00000000
,
00100000
00000000
10000000
00000000
00000000
01000000
01000000
00000000
,
00100000
00000000
00010000
00000000
00000000
00001000
00000100
00000000
,
00000010
00000000
00000100
00000000
00000000
00000001
00000100
00000000
,
00001010
00000100
00000011
00000100
,
00002002
00000000
00000000
00003003
,
00000100
00001000
00010000
01000000
,
00100000
01000000
10000000
01000000
,
00010000
00100000
01000000
00010000
,
00001000
00000100
00000010
00000001
,
00000110
00001000
00000100
00000000
,
00011000
00001000
00010000
00000000
,
01100000
00010000
01100000
10000000
,
00100000
00010000
01000000
00010000
,
10000000
01000000
00010000
00001000
,
00000010
00000001
00000100
00001000
,
00000001
00000100
00001000
00010000
,
00100000
01000000
00010000
00100000
,
11000000
00100000
00010000
00000000
,
00011000
00000100
00000010
00000000
,
00001001
00000100
00001001
00000010
,
00000100
00000010
00001000
00010000
,
00022000
00000000
00000000
00033000
;

//---------------dance-double - ----------------
#NOTES:
     dance-double:
     :
     Medium:
     9:
     :
00000000
00000000
00000000
00000000
,
00000000
00000000
00000000
00000000
,
00000000
00000000
00000000
00000000
,
00000000
00000000
00000000
00000000
,
00000000
00000000
00000000
00000000
,
00000001
00000000
00000100
00000000
00001000
00000000
00001100
00001000
,
00000100
00000000
00001000
00000000
00010000
00000000
00011000
00010000
,
00001000
00000000
00010000
00000000
01000000
00000000
01010000
00010000
,
02000000
13000000
00020000
01030000
,
00100000
00000000
10000000
00000000
01000000
00000000
00010000
00001000
,
00000100
00000000
00001000
00000000
00010000
00000000
01000000
00010000
,
00001000
00000000
00000100
00000000
00000001
00000000
00000010
00000100
,
00002000
00003010
00000200
00000301
,
00001001
00001000
00011000
00010000
,
10010000
00000000
10010000
00000000
00010000
10000000
00010000
10000000
,
00010000
01000000
01010000
00000000
,
00100000
00001000
00011000
00000000
,
00010000
00000100
00001100
00000000
,
00000010
00000000
00000001
00000000
00001001
00000000
00000010
00000100
,
00000000
00000000
00001000
00000100
00000000
00000000
00010000
00001000
,
00000000
00020000
00000000
00031000
00000000
00000000
00100000
01000000
,
00000000
00000000
10000000
01000000
00000000
00000000
00010000
00001000
,
00000000
00020000
00000000
00031000
00000000
00000000
00000010
00000001
,
00000000
00000000
00000100
00001000
00000000
00000000
00010000
00100000
,
00000000
20000000
00000000
30010000
00000000
00000000
00100000
10000000
,
00000000
00000000
01000000
00010000
00000000
00000000
00001000
00000010
,
00000000
00000002
00000000
00002000
00000000
00000000
00003003
00000000
,
00000010
00000010
00000010
00000010
,
00000010
00001001
00000100
00011000
,
00100000
00100000
00100000
00100000
,
00010000
00001000
00010100
00011000
,
00100000
00010000
01000000
10100000
,
01000000
00010000
00100000
11000000
,
00010000
00100000
00001000
00011000
,
00010000
00000000
00000010
00000000
00001000
00000000
00000101
00000010
,
00000100
00000001
00001000
00000100
,
00010000
00001000
00010000
00000000
00001000
00010000
00001000
00000000
,
01000000
00010000
00100000
01000000
,
10000000
00100000
10000000
00000000
00010000
01000000
00010000
00000000
,
00110000
00110000
00101000
00110000
,
00001000
00010000
00000100
00000000
00000010
00001000
00000100
00000000
,
00000011
00000011
00001001
00000011
,
00000100
00001000
00000010
00000000
00010000
00001000
00100000
00000000
,
00110000
00110000
01100000
11000000
,
00010000
00100000
01000000
00000000
10000000
00100000
01000000
00000000
,
00100000
00010000
00100000
00010000
,
00100000
00000000
00010000
00010000
00010000
00000000
00100000
00000000
,
00001000
00000000
00000100
00000000
00000001
00000010
00000000
00000100
,
00000000
00001000
00000001
00000000
00000010
00000000
00000000
00000000
,
00000000
00000000
00000000
00001000
00010000
00000000
00000000
00000000
,
01000000
00000000
00001000
00000000
,
00010000
00000000
00101000
00011000
,
00010100
00000010
00000010
00000002
00000000
00000000
00001003
00000000
,
00000100
00000000
00010000
00000000
00001000
00010000
00100000
00000000
,
01000000
00100000
00100000
20000000
00000000
00000000
30010000
00000000
,
01000000
00000000
00002000
00000000
00013000
00000100
00010000
00000100
,
00000000
00000010
00000010
00000200
00000000
00000000
00010300
00000000
,
00002000
01003000
00100000
10000000
,
00100000
00010000
00001000
00000100
,
00010000
00000100
00010000
01000000
,
00001000
01000000
00001000
00000010
,
00001000
00000000
00000000
00000000
00000010
00000000
00000000
00000000
00000001
00000000
00001000
00000000
00000000
00000001
00000000
00000000
,
00002002
00000000
00000000
00003003
,
00000100
00001000
00000010
00001000
,
00010000
00011000
00100000
11000000
,
00100000
00010000
00001000
00010000
,
00001100
00000000
00000010
00000010
,
00000001
00001000
00000010
00000100
,
00001000
00011000
01000000
10010000
,
00100000
00010000
00001000
00000010
,
00001100
00000000
00000001
00000001
,
00000100
00001000
00010000
01000000
,
10000000
00100000
10000000
00100000
,
01000000
00010000
00001000
00000100
,
00000001
00000010
00000001
00000010
,
00001000
00000110
00001000
00011000
,
00100000
00110000
01000000
11000000
,
00100000
10000000
01000000
00010000
,
00011000
00000000
00001000
00000100
,
00000010
00000100
00000001
00001000
,
00000010
00000100
00001000
00011000
,
10000000
00000000
00100000
00000000
00010000
00100000
00020000
00000000
,
01030000
00000000
00100000
00000000
01000000
10000000
00010000
00000000
,
00001000
00000100
00000010
00000000
00000000
00000010
00000100
00000000
,
00000010
00000001
00000100
00000000
00000000
00000010
00000100
00000000
,
00001000
00000000
00010000
00001000
00100000
00010000
01000000
00000000
,
10000000
00000000
01000000
00000000
00010000
00001000
00010000
00000000
,
00001100
00000000
00000001
00000000
00000010
00000100
00001000
00000000
,
00011000
00000000
00100000
00000000
00010000
10000000
00100000
00000000
,
10000000
01000000
00010000
00000000
00001000
00000100
00000001
00000000
,
00002002
00000000
00000000
00003003
,
00000010
00000001
00000000
00000001
00001000
00000010
00000000
00000010
,
00010000
00001000
00000000
00000010
00001000
00010000
00000000
00010000
,
01000000
10000000
00000000
00100000
01000000
00010000
00000000
00100000
,
00001000
00010000
00000000
01000000
00010000
00001000
00000100
00000000
,
00000110
00000000
00001000
00000000
00000010
00000001
00001000
00000000
,
00000101
00000000
00000010
00000000
00000001
00001000
00000010
00000000
,
00000100
00001000
00010000
00000000
00100000
00010000
00001000
00000000
,
00011000
01010000
10100000
10010000
,
01000000
00010000
00000000
10000000
01000000
10000000
00000000
00100000
,
10000000
00100000
00000000
01000000
00010000
00100000
00000000
00001000
,
00010000
00000100
00000000
00000010
00000100
00001000
00000000
00000001
,
00000100
00001000
00000000
00000100
00000001
00000010
00000100
00000000
,
00001001
00000000
00000010
00000000
00001000
00010000
01000000
00000000
,
10010000
00000000
01000000
00000000
00100000
00010000
01000000
00000000
,
10000000
01000000
00010000
00000000
00001000
00000100
00000001
00000000
,
00000010
00000000
00000001
00000100
00001000
00010000
00001000
00000000
,
00022000
00000000
00000000
00033000
;

//---------------dance-double - ----------------
#NOTES:
     dance-double:
     :
     Hard:
     13:
     :
00000000
00000000
00000000
00000000
,
00000000
00000000
00000000
00000000
,
00000000
00000000
00000000
00000000
,
00000000
00000000
00000000
00000000
,
00000000
00000000
00000000
00000000
,
00011000
00000000
00000000
00000000
00011000
00000000
00000000
00000000
00100000
00010000
00000000
01000000
00010000
00000000
00000000
00000000
,
10000000
00000000
00100000
00000000
10000000
00000000
01000000
00000000
00100000
00001000
00000000
00010000
00000100
00000000
00001000
00000000
,
00000010
00010000
00000000
00001000
01000000
00000000
00100000
00000000
10000000
00000000
01000000
00000000
00100000
00000000
00001000
00000000
,
00010100
00000000
00000000
00010100
00000000
00000000
00010000
00000000
00101000
00000000
00000000
00101000
00000000
00000000
00010000
00000000
,
01000000
00000000
10000000
00000000
00010000
00000000
00100000
01000000
00000000
10000000
00000000
00100000
01000000
00000000
00001000
00000000
,
01000000
00100000
00010000
00001000
00000100
00000010
00010000
00010000
,
00000010
00000000
00000100
00000000
00000001
00000000
00000010
00000100
00000000
00001000
00000000
00000001
00000010
00000000
00000100
00000000
,
00010100
00000000
00000000
00011000
00000000
00000000
00001000
00000000
00101000
00000000
00000000
00110000
00000000
00000000
01000000
00000000
,
00001000
00010000
01000000
00010000
00001000
00010000
01000000
00010000
,
00001000
00001000
00000100
00000100
00000010
00010000
00001000
00100000
,
00010000
01000000
10000000
00000000
00020000
00000000
00130000
01000000
,
00001000
00000100
00000001
00000000
00002000
00000000
00003010
00000100
,
00010000
00100000
10000000
00000000
00020000
00000000
00130000
01000000
,
00001000
00000010
00000001
00000000
00002000
00000000
00003010
00000200
,
00000000
00000301
00000010
00002000
00000000
00003010
00000001
00000200
,
00000000
00001300
00010000
00002000
00000000
00000000
00103000
02000000
,
00000000
13000000
00100000
00020000
00000000
00130000
10000000
02000000
,
00000000
03010000
00001000
00020000
00000000
00000000
00030100
00000020
,
00000000
00000031
00000100
00002000
00000000
00003100
00000001
00000020
,
00000000
00001030
00010000
00002000
00000000
00000000
01003000
00200000
,
00000000
10300000
01000000
00020000
00000000
01030000
10000000
00200000
,
00000000
00310000
00001000
00020000
00000000
00000000
00030100
00000000
,
00000010
00000000
00000010
00000000
00000010
00000000
00000010
00001000
,
00010000
00000000
00000000
00100000
00000000
00000000
10000000
00000000
00000000
01000000
00000000
00000000
00010000
00000000
00000000
00000000
,
00000100
00000000
00000100
00000000
00000100
00000000
00000100
00001000
,
01000000
00001000
00010000
01000000
00010000
00001000
00000010
00000001
,
00000001
00000100
00000100
00000010
00000010
00001000
00001000
00000100
,
00000100
00010000
00001000
00000000
01000000
00001000
00010000
00001000
,
00001000
00100000
00100000
00010000
00010000
10000000
10000000
00100000
,
00100000
01000000
00001000
00000000
00010000
00000100
00000010
00000000
,
00000001
00000100
00000010
00001000
00010000
01000000
00100000
10000000
,
01000000
01000000
01000000
00000000
00100000
00000000
10010000
00000000
,
10000000
01000000
00100000
00010000
00001000
00000100
00000010
00000001
,
00000100
00000100
00000100
00000000
00000010
00000000
00001001
00000000
,
00000110
00000000
00000110
00000000
00000001
00000100
00001000
00000100
,
00000001
00000010
00001000
00000000
00010000
00000000
01000000
00000000
,
11000000
00000000
11000000
00000000
00010000
00100000
01000000
10000000
,
01000000
00010000
00001000
00000000
00000010
00000000
00000001
00000000
,
00001100
00000000
00000011
00000000
00001000
00000010
00010000
00000100
,
00001000
00000010
00000100
00000000
00001000
00000000
00010000
00000000
,
00100000
01000000
10000000
01000000
00100000
01000000
10000000
01000000
,
00100000
01000000
00100000
00100000
00100000
01000000
10000000
01000000
,
00100000
10000000
00010000
00100000
01000000
00010000
00000000
00001000
,
00000100
00000010
00001000
00000000
00000001
00000000
00000000
00000000
,
00000000
00000000
00000000
00001000
00010000
00000000
00000000
00000000
,
00000000
00000000
00100000
00001000
,
00010000
00000100
00000011
00010100
,
01001000
00100000
00100000
21000000
00000000
00000000
30010000
00000000
,
21000000
00000000
30100000
00000000
01000000
00010000
00001000
00000100
,
00000000
00000010
00000010
00000102
00000000
00000000
00001003
00000000
,
00000102
00000000
00000013
00000000
00001000
00010000
01000000
10000000
,
00000000
00100000
00100000
01002000
00000000
00000000
00013000
00000000
,
00020100
00000000
00030010
00000000
00001000
00000010
00000001
00000010
,
00010000
00001000
00001000
00000000
00020000
00000000
00100000
00000000
,
00001000
00100000
00032000
00000010
,
00010000
00000010
00023000
01000000
,
00032000
00000000
00000000
00000000
00003100
00000000
00000000
00000000
00000001
00001000
00000001
00001000
00000000
00000010
00010000
00000000
,
00022000
00000000
00000000
00033000
,
00000100
00000000
00001000
00000000
00000010
00010000
00000100
00000000
,
00001000
00000000
00000001
00000100
00000000
00001000
00010000
00000000
,
00000010
00011000
01000000
00011000
,
00100000
10000000
00010000
00100000
00000000
01000000
10000000
00000000
,
01000000
00000000
00010000
00000000
00001000
00000100
00000001
00000000
,
00000010
00000000
00000100
00001000
00000000
00000001
00000100
00000000
,
00000010
00011000
00100000
10010000
,
01000000
10000000
00100000
10000000
00000000
00010000
01000000
00000000
,
00100000
00000000
00000000
00100000
00000000
00000000
00010000
00000000
00000000
00000000
00001000
00000000
00000010
00000000
00000000
00000000
,
00000001
00000000
00000000
00000001
00000000
00000000
00001000
00000000
00000000
00000000
00000010
00000000
00001000
00000000
00000000
00000000
,
00010000
00000000
00000000
00010000
00000000
00000000
01000000
00000000
00000000
00000000
10000000
00000000
00100000
00000000
00000000
00000000
,
00010000
00001000
00010000
00000000
00000010
00000100
00001000
00000000
,
00010000
00000000
00000000
00010000
00000000
00000000
00001000
00000000
00000000
00000000
00000100
00000000
00000001
00000000
00000000
00000000
,
00000010
00000000
00000000
00000010
00000000
00000000
00000001
00000000
00000000
00000000
00001000
00000000
00000010
00000000
00000000
00000000
,
00000100
00000000
00000000
00000100
00000000
00000000
00001000
00000000
00000000
00000000
00010000
00000000
00100000
00000000
00000000
00000000
,
10000000
01000000
00010000
00000000
00100000
00010000
01000000
00000000
,
00010000
00011000
00000100
00000101
,
00000010
00001000
00010000
00001000
00000100
00001000
00010000
01000000
,
10000000
01000000
20000000
00000000
31000000
00010000
02000000
00000000
,
03010000
00001000
00020000
00000000
00031000
00000000
00011000
00000000
,
00000010
00001000
00001100
00000000
00000000
00000010
00000110
00000000
,
00001000
00000001
00000101
00000000
00000000
00000001
00000011
00000000
,
00000110
00000000
00000001
00000100
00000010
00000100
00000001
00000001
,
00000100
00000000
00000010
00010000
00001000
01000000
00100000
00100000
,
10000000
00000000
00100000
10000000
01000000
10000000
00100000
00100000
,
10000000
00000000
01000000
00010000
00001000
00000010
00000001
00000001
,
00000100
00000001
00001000
00000010
00000100
00000001
00000010
00000001
,
00000200
00000000
00000000
00000300
,
00000001
00000000
00000010
00000000
00000001
00000000
00000010
00000000
00001000
00000000
00000010
00000000
00001000
00000010
00001000
00000000
,
00010000
00000000
00001000
00000000
00010000
00000000
00001000
00000000
00010000
00000000
01000000
00000000
00010000
01000000
00010000
00000000
,
01000000
00000000
10000000
00000000
01000000
00000000
10000000
00000000
00010000
00000000
10000000
00000000
00010000
10000000
00010000
00000000
,
01000000
00100000
01000000
00100000
10000000
01000000
10000000
00000000
,
01100000
10000000
00010000
10000000
01000000
00010000
00001000
00000000
,
00000110
00000100
00000001
00000010
00000001
00001000
00000010
00000000
,
00000101
00000001
00000010
00000000
00001100
00001000
00000010
00000000
,
00000100
00000010
00010000
00001000
00100000
01000000
10010000
00000000
,
10000000
00000000
01000000
00000000
00010000
00000000
01000000
00100000
00000000
00100000
01000000
00000000
10000000
00100000
10000000
00000000
,
00010000
00000000
10000000
00000000
00100000
00000000
01000000
00010000
00000000
00010000
00100000
00000000
00010000
10000000
00010000
00000000
,
00100000
00000000
01000000
00000000
00010000
00000000
00001000
00010000
00000000
00010000
00001000
00000000
00000010
00000001
00000010
00000000
,
00000001
00000000
00001000
00000000
00000100
00000000
00000010
00000100
00000000
00000100
00001000
00000000
00000001
00000000
00000000
00000000
,
00000110
00000000
00001000
00000000
00000001
00000000
00000100
00001000
00000000
00001000
00010000
00000000
01000000
00000000
00000000
00000000
,
10010000
00000000
01000000
00000000
00100000
00000000
00001000
00010000
00000000
00010000
00001000
00000000
00000010
00000000
00000000
00000000
,
00001100
00000001
00000100
00000000
00001010
00000001
00000010
00000000
,
00001000
00000000
00010000
00000000
01000000
00000000
10000000
00100000
00000000
00100000
00010000
00000000
00001000
00000000
00010000
00000000
,
00022000
00000000
00000000
00033000
;
