#TITLE:TRIP MACHINE(X-Special);
#ARTIST:DE-SIRE;
#BANNER:TRIP MACHINE(X-Special).png;
#BACKGROUND:TRIP MACHINE(X-Special)-bg.png;
#CDTITLE:./CDTitles/Dance Dance Revolution.png;
#MUSIC:TRIP MACHINE(X-Special).ogg;
#SAMPLESTART:13.5;
#SAMPLELENGTH:15;
#DISPLAYBPM:160;
#BPMS:0=159.2,4=160.11;
#STAGE:3;

//---------------dance-single - ----------------
#NOTES:
     dance-single:
     :
     Challenge:
     11:
     :
0000
0000
0000
0000
,
0000
0000
0000
0000
,
0000
0000
0000
0000
,
0000
0000
0000
0000
,
0000
0000
0000
0000
,
0000
0000
0000
0000
,
0000
0000
0000
0000
,
0000
0000
0000
0000
,
0000
0000
0000
0000
,
2000
3100
0101
0110
,
0001
0010
2000
0100
0000
3001
0100
0000
,
0010
1000
0001
0000
0001
1000
0100
1000
,
0002
0000
1003
0020
0000
0100
0130
0000
,
0010
0000
1100
0000
0202
0000
0000
0003
,
0000
0010
0000
1000
0000
0010
0000
0301
,
0100
0000
1001
0000
0001
0010
1000
0100
,
0001
0100
1000
0100
0010
0100
1000
0001
,
1000
0100
1000
0000
0202
0000
0000
0303
,
0000
1000
0010
0200
0000
0010
0310
0000
,
0101
0010
1100
0010
,
1100
0101
1010
0011
,
0001
0010
0001
0000
2020
0000
0000
3030
,
0000
0001
0100
0020
0000
0100
0130
0000
,
1010
0100
0011
0100
,
0021
1000
0001
1030
,
0100
0000
0100
0000
0100
0000
0100
0010
,
1001
0100
0010
2000
0000
0001
3001
0100
,
0010
1000
0100
0010
0001
0010
0000
1000
,
0001
0100
1000
0001
0000
0001
0010
0100
,
2000
0000
0000
0000
0000
3001
0100
0010
,
0000
0000
0220
0000
0000
0000
0000
0000
0000
0000
0330
0000
0000
0000
0001
2000
,
0002
0000
0000
0000
3003
1001
0000
0110
,
0000
1001
1000
0001
1001
0000
0110
0000
,
0010
1000
0100
0000
1000
0100
0001
0000
,
0100
0001
0010
0000
0001
0010
1000
0010
,
0000
1100
0000
0011
0000
1010
0000
0101
,
0000
1010
0000
0011
0100
1000
0100
0001
,
0100
0001
0010
0000
0001
0010
1000
0000
,
0010
1000
0100
0000
1000
0100
0001
0100
,
0000
0011
0000
1100
0000
1010
0000
0101
,
0000
1010
0000
1100
0000
0011
0000
1001
,
0220
0000
0000
0000
0030
0000
0000
0300
,
1000
0010
0001
0010
0000
1000
0010
0001
,
0100
0010
1000
0001
0000
1001
0000
0001
,
0010
0100
1000
0010
0000
0210
0000
0300
,
0010
0001
0100
0000
0010
1000
0100
0000
,
2000
0000
3001
0020
0001
0000
0130
0000
,
0100
1000
0010
0000
0100
0001
0010
0000
,
0002
0000
1003
0010
0101
0000
1010
0000
,
0001
0010
0000
0001
0100
1000
0010
0000
,
1000
0010
0100
0001
0000
0101
0000
0001
,
1000
0010
0000
1000
0100
0001
0010
0001
,
0100
1000
0000
1010
0000
1000
0100
0001
,
0010
0001
1100
0100
0010
0000
0001
0010
,
0000
1000
0100
1000
0000
0202
0000
0303
,
0010
1000
0000
1000
0010
0001
0100
1000
,
0000
0000
0000
0000
0000
0000
0000
0000
0100
0000
0000
0000
0000
0000
0000
0000
0001
0000
0000
0000
0000
0000
0000
0000
0010
0000
0000
0000
0000
0000
0000
0000
0000
0000
0000
0000
0000
0000
0000
0000
0220
0000
0000
0000
0000
0000
0000
0000
0000
0000
0000
0000
0000
0000
0000
0000
0030
0000
0000
0000
0000
0000
0000
0300
,
0001
0010
0000
0100
1000
0000
0010
0100
,
0000
0001
1000
0000
0000
0000
0000
0000
,
0000
0000
0000
0000
;

//---------------dance-double - ----------------
#NOTES:
     dance-double:
     :
     Challenge:
     12:
     :
00000000
00000000
00000000
00000000
,
00000000
00000000
00000000
00000000
,
00000000
00000000
00000000
00000000
,
00000000
00000000
00000000
00000000
,
00000000
00000000
00000000
00000000
,
00000000
00000000
00000000
00000000
,
00000000
00000000
00000000
00000000
,
00000000
00000000
00000000
00000000
,
00000000
00000000
00000000
00000000
,
00002000
00000000
00013000
00000000
00100000
00001000
00000200
00000000
,
00000310
00000100
00001000
00200000
00000000
00310000
01000000
00000000
,
00100000
10000000
01000000
00000000
00100000
00010000
01000000
00000000
,
00100000
00010000
00010000
00000020
00000000
00001000
00000030
00000001
,
00000010
00001100
00011000
01010000
,
01000000
10000000
00000000
00010000
00000000
00001000
00000000
00000001
,
00001100
00000011
00000110
00011000
,
00010000
00100000
01000000
20000000
00000000
00000000
30000000
00000000
,
00020000
00000000
00130000
00000000
00022000
00000000
00000000
00033000
,
00000000
00000001
00000010
00000100
00000000
00001000
00000001
00000000
,
00000011
00000101
00001010
00001100
,
00000010
00000100
00010000
00000100
00001000
00100000
01000000
00000000
,
20000000
00000000
30100000
00000000
00022000
00000000
00000000
00033000
,
00000000
10000000
00100000
01000000
00000000
00010000
10000000
00000000
,
10100000
11000000
00110000
01010000
,
00100000
01000000
00001000
01000000
00010000
00000010
00000100
00000001
,
00001100
00011000
00011000
01010000
,
01200000
00000000
00000000
00000000
00300000
10000000
00100000
01000000
,
00010000
10000000
01000000
00010000
00001000
00000100
00000000
00000100
,
00001000
00010000
00200000
00000000
00000000
00310000
00001000
00000010
,
00001001
00000000
00000010
00000000
00000100
00000000
00000001
00001000
,
00000100
00000000
00000000
00000000
00010000
00000000
00010000
00000000
00000000
00000000
00001000
00000000
00000000
00000000
00010000
00002000
,
00020000
00000000
00000000
00033000
00000000
10010000
00000000
00011000
,
00000000
00001001
00000001
00001000
00000010
00000000
00000110
00000000
,
00000010
00000001
00000010
00000000
00000100
00001000
00000100
00000000
,
00000010
00000001
00001000
00010000
01000000
00100000
10000000
00100000
,
00000000
10100000
00000000
11000000
00000000
00110000
00000000
01010000
,
00000000
00001010
00000000
00001100
00000001
00000100
00001000
00010000
,
01000000
10000000
00100000
00000000
01000000
00010000
00100000
00000000
,
01000000
10000000
00010000
00001000
00000010
00000100
00000001
00000100
,
00000000
00000101
00000000
00000011
00000000
00001100
00000000
00001010
,
00000000
01010000
00000000
00110000
00000000
11000000
00000000
01010000
,
10020000
00000000
00002000
00033000
,
10000000
00000000
01000000
00100000
00000000
00110000
00010000
00100000
,
01000000
20000000
00020000
30000000
00030000
10000000
00000000
00010000
,
00000100
00000000
00010000
00000110
00000000
00001002
00000000
00000000
,
00000103
00000010
00001000
00000001
00000010
00000100
00001000
00000001
,
00002000
00000000
00103000
02000000
00000000
00000000
10000000
00000000
,
03010000
00100000
10000000
00000000
10000000
00100000
01000000
00010000
,
00001000
00000100
00000010
00000001
00000010
00000000
00000011
00000000
,
00000001
00000010
00000100
00000000
00000100
00000010
00000000
00000100
,
00001000
00010000
00100000
00000000
00000000
01000000
10000000
00000000
,
10000000
00100000
01000000
00000000
01000000
00010000
00000000
00001000
,
00000000
00000110
00000000
00011000
00000000
01100000
00000000
10010000
,
00000000
11000000
00110000
00000000
01000000
00000000
10010000
00000000
,
00100000
00010000
00001000
00000010
00000000
00000012
00000000
00000000
,
00000103
00000010
00000000
00000010
00001000
00010000
00100000
00000000
,
10000000
01000000
00100000
00010000
00000000
10010000
00000000
00000000
,
10000000
00010000
00000000
00100000
01000000
00000000
00001000
00000100
,
00000000
00000010
00000011
00000000
00000000
00000000
00000000
00000000
,
00000000
00000000
00000000
00000000
;
