#TITLE:TRIP MACHINE CLIMAX(X-Special);
#ARTIST:DE-SIRE;
#BANNER:TRIP MACHINE CLIMAX(X-Special).png;
#BACKGROUND:TRIP MACHINE CLIMAX(X-Special)-bg.png;
#CDTITLE:./CDTitles/DDR 4thMIX.png;
#MUSIC:TRIP MACHINE CLIMAX(X-Special).ogg;
#SAMPLESTART:56.68;
#SAMPLELENGTH:15;
#DISPLAYBPM:180;
#BPMS:0=179.6,4=180;
#STAGE:3;

//---------------dance-single - ----------------
#NOTES:
     dance-single:
     :
     Challenge:
     14:
     :
0000
0000
0000
0000
,
0000
0000
0000
0000
,
0000
0000
0000
0000
,
0000
0000
0000
0000
,
0000
0000
0000
0000
,
0000
0000
0000
0000
,
0000
0000
0200
0000
,
0010
0000
0010
0000
,
0010
0000
0010
0000
,
0000
0000
0310
0001
0100
0000
0110
0000
,
1010
0010
0100
0010
1000
0001
0100
0000
,
0101
0001
1000
0001
0010
0100
1000
0000
,
1100
0100
1000
0100
0010
0001
0100
0000
,
0101
0001
1000
0010
0100
0010
0100
0000
,
0110
0100
0001
1000
0010
0100
0110
0000
,
1001
1000
0001
0010
0100
1000
1001
0001
,
0011
0001
0010
0100
1100
0100
0010
0001
,
1000
1000
1000
1000
1001
1001
1001
0000
,
0011
0001
0100
0010
0120
0000
0030
0100
,
0010
1000
0001
0100
0101
1000
1100
0001
,
0002
0000
0103
2000
3000
0220
0330
0000
,
1000
0010
0100
0000
0110
0000
1001
0000
,
0200
0000
0301
0010
1000
1000
0010
0001
,
0100
0000
0000
1000
0100
0010
0001
0001
,
1000
0000
0001
2000
0000
0002
0000
3000
,
1003
0001
0110
1001
,
0000
0200
0000
0000
0301
0010
0100
0010
,
0100
0010
0100
0000
1000
0000
0001
0000
0010
0000
0100
0000
1000
0000
0100
0000
,
1100
0000
0011
0000
1000
0010
0100
0010
,
0100
0010
0100
0000
0001
0000
1000
0000
0001
0000
1100
0000
0000
0000
0011
0000
,
0000
1010
0000
0101
0000
1010
0100
0001
,
0100
0010
1000
0001
0010
0100
1000
0100
,
0011
0000
1100
0000
0110
0100
1000
0100
,
0001
0010
1000
0100
0001
0100
1000
0010
,
0001
1000
0100
0100
1000
1100
0000
0011
,
0000
1000
0100
0000
0001
0010
1000
0100
,
0001
0101
0000
1100
0001
0000
0001
1010
,
0000
0100
0001
0000
1100
0000
0101
0000
,
0022
0000
0033
0000
0200
0000
0000
2000
,
3300
0001
0100
0000
0100
0010
0000
1000
,
0100
0010
0001
1000
0100
0000
0001
0100
,
0000
0000
0000
1000
0000
0000
0100
0000
0000
0000
0000
0000
0011
0000
0000
0000
1100
0000
0000
0000
0101
0000
0000
0000
,
1010
0000
0000
0000
0110
0000
0000
0000
1100
0000
0000
0000
0010
0000
0000
1000
0000
0000
0200
0000
0000
0000
0000
0000
,
0300
0011
0000
1100
0000
0001
0010
0100
,
0000
1000
0010
0001
0000
0001
0010
1000
,
0000
1000
0010
0110
1000
1000
1001
0000
,
1100
0000
0101
0000
0001
0010
0100
1000
,
0010
0100
0000
0101
0000
0011
0000
1010
,
0000
1100
0000
0001
0010
1000
0001
0100
,
0000
0101
0000
0011
0000
1010
0000
1100
,
0101
0000
1001
0000
0001
0010
1000
0001
,
0100
1000
0001
0010
0100
1000
0001
1000
,
0010
0001
0010
1010
0000
0101
0001
0010
,
0100
1000
0100
0010
0001
0010
1000
0010
,
0001
0100
0001
1001
1000
0100
0010
0001
,
0010
1000
0010
0001
0100
1000
0100
0001
,
1000
0010
0001
1000
0100
0001
0010
1000
,
0001
0100
1000
0001
0010
0100
1000
0001
,
2000
0000
0000
0000
3100
0110
0000
0010
,
0110
0000
1001
0000
0001
0010
0101
0000
,
1000
0010
1100
0000
0001
1000
1100
0000
,
1000
0001
0101
0000
0001
1000
1010
0000
,
1000
0001
0011
0000
0001
0020
0200
0330
,
1001
0000
0110
0000
1000
0100
1100
0000
,
0001
0010
0011
0000
1000
0010
1010
0000
,
0001
0100
0101
0000
0001
0010
0100
1001
,
0000
0110
0000
0000
0000
2002
0000
0000
,
0000
3003
0000
0000
,
0000
0000
0000
0000
;

//---------------dance-double - ----------------
#NOTES:
     dance-double:
     :
     Challenge:
     14:
     :
00000000
00000000
00000000
00000000
,
00000000
00000000
00000000
00000000
,
00000000
00000000
00000000
00000000
,
00000000
00000000
00000000
00000000
,
00000000
00000000
00000000
00000000
,
00000000
00000000
00000000
00000000
,
00000000
00000000
10000000
00000000
,
00001000
00000000
01000000
00000000
,
00000010
00000000
00100000
00000000
,
00000000
00000000
00001000
00010000
00001000
00000000
00011000
00000000
,
00010000
01000000
10000000
00100000
00010000
00000000
00110000
00000000
,
00100000
00001000
00100000
00000000
00010000
00000100
00000010
00000000
,
00000001
00000010
00000100
00000000
00001000
00010000
00001000
00000000
,
00000100
00010000
00100000
00000000
00001000
01000000
00100000
00000000
,
00010000
00001000
00000100
00000000
00000001
00000100
00001000
00000000
,
00001000
00010000
00100000
00000000
01000000
10000000
00100000
00000000
,
10100000
00000000
00001100
00000000
,
00011000
00100000
10000000
01000000
00010000
00001000
00000020
00000000
,
00001030
00000000
00000011
00001000
00000002
00000000
00000000
00000000
,
00000003
00000000
00010000
00001000
00010000
01000000
00100000
00000000
,
10000000
00100000
01000000
00001000
00010000
00001000
00000100
00001000
,
00011000
20000000
30020000
20030000
,
30010000
00001000
00000100
00000010
00000001
00000000
00000011
00000000
,
00001200
00000000
00000000
00010300
00001000
00010000
01000000
00000000
,
00100000
00000000
00000100
00000000
,
10000000
00010000
00001000
00000001
,
00000000
00022000
00000000
00033000
00010000
00001000
00100000
00001000
,
00010000
00001000
00010000
00001000
00000010
00000001
00001000
00000100
,
00000011
00000000
00001100
00000000
00011000
00001000
00010000
00001000
,
00010000
00100000
10000000
00010000
01000000
11000000
00000000
01010000
,
00000000
10100000
00000000
01010000
00000000
00011000
00010000
00001000
,
00000010
00001000
00010000
00001000
00000100
00000001
00001000
00000010
,
00001100
00000000
00000110
00000000
00011000
00001000
00010000
00001000
,
00010000
00100000
10000000
00010000
01000000
10000000
01000000
00100000
,
01000000
00010000
01000000
00001000
01000000
20000000
00000000
02000000
,
30000000
00000000
03000000
00000000
00001000
00010000
01000000
00000000
,
00100000
01000000
00010000
00001000
00000100
00000000
00000002
00000020
,
00000000
00000000
00000033
00000000
00000100
00001000
00010000
00001000
,
00000100
00000010
00000100
00000000
00001000
00010000
00000000
00200000
,
02000000
00000000
03300000
00000000
01000000
00100000
00001000
00000010
,
00000000
00000010
00000100
00001000
00010000
00000000
01000000
00010000
,
00000000
00000000
00000000
00100000
01000000
00110000
,
00001000
00000000
00000000
00000000
00001100
00000000
00000000
00000000
00010000
00000000
00000000
00000000
00011000
00000000
00000000
00001000
00000000
00000000
00000100
00000000
00000000
00000000
00000000
00000000
,
00000110
00000010
00000001
00000000
00001100
00001000
00000100
00000000
,
00011000
00001000
00010000
00000000
10000000
00100000
10000000
00010000
,
01000000
00010000
00100000
00001000
00010000
00001000
00000100
00000001
,
00000110
00000000
00001001
00000000
00000001
00000010
00001000
00000000
,
00010000
01000000
10000000
00000000
10000000
00100000
00010000
00000000
,
00001000
00000100
00000001
00000000
00000001
00000010
00000001
00001000
,
00000100
00001000
00000010
00010000
00001000
00010000
01000000
10000000
,
01100000
00000000
10010000
00000000
00100000
10000000
00100000
00001000
,
00100000
01000000
00010000
00001000
00000100
00000100
00000001
00000000
,
00000110
00000000
00000011
00000000
00000001
00000100
00001000
00000000
,
00001000
00010000
00100000
00000000
10000000
01000000
00010000
00000000
,
00001000
00000100
00000001
00000100
00000100
00000001
00000100
00010000
,
00000100
00000010
00001000
00010000
00100000
00100000
10000000
00000000
,
10000000
00100000
01000000
00000000
00010000
00100000
01000000
00000000
,
00110000
00011000
00010010
00110000
,
00010000
00001000
01000000
00010000
00001000
01000000
00000000
00100000
,
00020000
00000000
01030000
00000000
10000000
00100000
00010000
00001000
,
00000100
00000001
00000010
00000000
00000010
00000100
00000101
00000000
,
00000010
00000100
00001100
00000000
00000100
00010000
00000010
00010000
,
00001000
01000000
10000000
00000000
10000000
01000000
01010000
00000000
,
10000000
00100000
10100000
00000000
01000000
00001000
00010000
00001000
,
00010000
00000100
00000001
00000000
00000001
00000010
00000100
00000000
,
00001000
00010000
01000000
00000000
00100000
00010000
00001000
00000000
,
00000010
00001000
00010000
00000000
00000000
00022000
00000000
00000000
,
00000000
00033000
00000000
00000000
,
00000000
00000000
00000000
00000000
;
