#TITLE:革命(X-Special);
#ARTIST:dj TAKA with NAOKI;
#TITLETRANSLIT:KAKUMEI(X-Special);
#BANNER:KAKUMEI(X-Special).png;
#BACKGROUND:KAKUMEI(X-Special)-bg.png;
#CDTITLE:./CDTitles/DDR X.png;
#MUSIC:KAKUMEI(X-Special).ogg;
#SAMPLESTART:18.44;
#SAMPLELENGTH:15;
#DISPLAYBPM:83:148;
#BPMS:0=147.6,4=147.982,26=140.625,28=143.426,32=130.435,33=121.622,34=109.756,35=83.333,36=91.837,37=112.5,38=136.364,39=149.5,40=148;
#STAGE:3;

//---------------dance-single - ----------------
#NOTES:
     dance-single:
     :
     Challenge:
     14:
     :
0000
0000
0000
0000
,
0000
0000
0000
0000
,
0000
0000
0000
0000
,
0000
0000
0000
0000
,
0000
0000
0000
0000
,
1001
0100
0010
0001
,
0100
1000
0010
0100
,
0010
0100
0001
1000
,
0001
1000
0000
0001
0000
0100
0000
0010
,
0200
0000
0000
0300
1001
0000
0000
0000
,
1100
0000
0000
0000
0011
0000
0000
0000
1000
0000
0000
1000
0010
0000
0000
0010
,
0001
0000
0011
0000
0000
0000
1000
0000
0000
0000
0010
0001
0010
0000
0000
0010
,
1000
0000
1010
0000
0000
0000
0001
0000
0000
0000
1000
0001
0010
0000
0000
0010
,
0001
0000
1001
0000
0000
0000
0100
0000
0000
0000
0001
0100
0001
0000
0000
0001
,
0010
0000
0011
0000
0000
0000
0100
0000
0000
0000
0010
0001
1000
0000
0100
0000
,
0010
0000
0001
0010
0100
0000
1000
0000
0000
0000
0001
1000
0100
0000
0000
0100
,
0010
0000
0001
0000
0200
0000
0001
0000
0300
0000
0010
0100
0001
0000
0000
1000
,
0010
0000
0001
0000
0000
0000
0110
0000
0000
0000
1100
0000
0000
0000
0010
1000
,
0010
0000
0001
0000
0020
0000
0100
0000
0030
0000
1000
0001
1000
0000
0000
0100
,
0010
0000
0110
0000
0000
0000
1000
0000
0000
0000
0100
0010
0001
0000
0000
0100
,
0001
0000
0101
0000
0000
0000
0010
0000
0000
0000
0001
0100
0010
0000
0000
1000
,
0001
0000
1000
0000
0000
0000
0001
0000
0000
0000
0010
1000
0100
0000
0000
1000
,
0002
0000
0000
0000
0003
0000
1000
0001
1000
0000
0000
0100
0010
0000
1000
0000
,
0001
1000
0000
0110
0000
0002
2000
3003
,
0000
1000
0000
0001
0000
0010
0100
0010
,
0001
0000
1000
0000
0000
0000
1000
0001
0010
0000
0000
0000
0100
0000
1000
0001
,
1000
0001
0010
0100
1000
0010
0100
0010
,
0020
0000
0100
0000
0000
0000
0100
0000
0030
0000
0100
0000
1000
0000
0000
0100
,
0002
0000
0010
0000
0000
0000
0010
0000
0003
0000
0100
0000
1000
0000
0000
0010
,
0200
0000
0001
0000
0000
0000
1000
0000
0300
0000
0001
0000
0000
0000
1000
0010
,
2000
0000
0001
0000
0000
0000
0001
0000
3001
0000
0000
0000
1000
0000
0000
0001
,
0100
0000
1000
0000
0000
0000
0001
0000
0000
0000
1100
0000
0000
0000
1000
0010
,
1000
0000
1010
0000
0000
0000
0001
0000
0000
0000
1100
0000
0000
0000
0100
1000
,
0001
2000
0000
0100
0000
0001
0000
0100
,
0000
3001
0000
0010
0000
0100
0010
0100
,
1000
0001
0000
1000
0000
0001
0000
0110
,
0000
0000
2002
0000
0003
3000
0001
1000
0001
0000
0000
0000
1001
0000
0000
0000
,
0110
0010
0000
1000
0000
0001
0000
0100
,
0000
0000
0010
0000
0000
0000
0101
0000
0000
0000
1100
0000
0000
0000
0001
1000
,
0010
1000
0000
0100
0000
0011
0000
1100
,
0000
0000
0010
0000
0000
0000
0001
0000
0000
0000
0100
0000
0000
0000
0001
1000
,
0010
1010
0000
0001
0000
1000
0001
0010
,
1000
0000
0001
0000
0000
0000
1100
0000
0000
0000
0011
0000
0000
0000
1000
0001
,
1000
0010
0000
0100
0000
0001
0010
1000
,
0001
0100
0000
0001
0000
1100
0000
0011
,
0000
0000
0010
0000
0001
0000
1000
0000
0001
0000
0010
0000
1000
0010
0100
0000
,
0000
0000
0100
0000
0000
0000
1000
0000
0200
0000
0300
1000
0001
0000
0000
1000
,
0010
0000
1000
0000
0000
0000
0001
0000
0000
0000
1000
0010
1000
0000
0000
1000
,
0001
0000
1000
0000
0000
0000
0001
0000
0000
0000
0010
1000
0001
0000
0000
0001
,
0100
0000
0010
0000
0000
0000
1000
0000
0000
0000
0010
0100
1000
0000
0000
1000
,
0010
0000
1010
0000
0000
0000
0101
0000
0000
0000
0100
0010
0100
0000
0001
0100
,
0001
0000
1000
0010
1000
0000
0001
0000
0000
0000
0010
1000
0010
0000
0000
0010
,
0100
0000
0110
0000
0000
0000
1000
0000
0000
0000
0010
0001
1000
0000
0000
0010
,
0100
0000
1000
0000
0000
0000
0010
0000
0000
0000
0001
0000
1000
0000
0010
0100
,
0010
0000
1000
0000
0002
0000
0000
0000
0000
0003
1000
0010
1000
0000
0000
1000
,
0001
0000
1001
0000
0000
0000
0010
0000
0000
0000
0100
1000
0010
0000
0000
0001
,
0100
0000
0001
0000
0000
0000
1000
0001
0010
0000
0000
1000
0010
0000
0000
0001
,
0100
0000
0101
0000
0000
0000
1000
0001
1000
0000
0001
0010
0100
0000
0000
1000
,
0010
0000
1000
0000
0000
0000
0001
0010
0100
0000
0000
0000
0100
0000
0001
1000
,
0001
0000
0100
1000
0010
0000
0002
0000
,
0000
1003
0000
0100
0000
0010
0001
1000
,
0001
0000
0100
0010
0100
0000
1000
0000
0220
0000
0000
0000
0330
0000
0000
0100
,
0010
0000
0100
0010
0100
0000
0010
0000
2002
0000
0000
0000
3003
0000
0000
0100
,
0010
0000
1000
0001
1000
0000
0010
0000
0220
0000
0000
0000
0330
0000
0000
1000
,
0001
0000
0200
0000
0300
0000
0001
2000
0200
0000
0000
0000
0000
0000
0000
0000
,
0000
3300
0000
0000
,
0000
0000
0000
0000
;

//---------------dance-double - ----------------
#NOTES:
     dance-double:
     :
     Challenge:
     14:
     :
00000000
00000000
00000000
00000000
,
00000000
00000000
00000000
00000000
,
00000000
00000000
00000000
00000000
,
00000000
00000000
00000000
00000000
,
00000000
00000000
00000000
00000000
,
00000011
00000000
00001000
00000000
,
00100000
00000000
00000100
00000000
,
00010000
00000000
00001000
00000000
,
01000000
00100000
00010000
00001000
,
00011000
00000000
00011000
00000000
,
00010000
00000000
00000000
00000000
10000000
00000000
00000000
00000000
10010000
00000000
00000000
10000000
00010000
00000000
00000000
00100000
,
00001000
00000000
00000100
00000000
00000000
00000000
00000011
00000000
00000000
00000000
00000100
00001000
00000100
00000000
00000000
00001000
,
00100000
00000000
10000000
00000000
00000000
00000000
01000000
00000000
00000000
00000000
00100000
00010000
00100000
00000000
00000000
00010000
,
00001000
00000000
00000100
00000000
00000000
00000000
00000001
00000000
00000000
00000000
00000100
00010000
00001000
00000000
00000000
00010000
,
00200000
10000000
00000000
01000000
00000000
00310000
00000000
00011000
,
00001000
00000000
00000000
00001000
00000100
00000000
00000000
00000000
00011000
00000000
00000000
00100000
00001000
00000000
00010000
00000000
,
00001000
00000000
00000100
00000000
00000001
00000000
00000000
00000000
00000010
00000000
00000000
00000001
00000100
00000000
00000000
00000010
,
00001000
00000000
00000200
00000000
00000000
00000000
00020300
00000000
00000000
00000000
00130000
00000000
10000000
00000000
00000000
10000000
,
01000000
00000000
00000000
00000000
22000000
00000000
00000000
00000000
33000000
00000000
00000000
00100000
00010000
00000000
00000000
00001000
,
00000100
00000000
00000001
00000000
00000000
00000000
00000100
00000000
00000000
00000000
00001000
00010000
00001000
00000000
00000000
00010000
,
00100000
00000000
01000000
00000000
00000000
00000000
10000000
00000000
00000000
00000000
00100000
00010000
00001000
00000000
00000000
00001000
,
00000100
00000000
00001000
00000000
00000000
00000000
00010000
00000000
00000000
00000000
00100000
00001000
00010000
00000000
00000000
00010000
,
00002000
00000000
00000000
00000000
00003000
00000000
00010000
00001000
00010000
00000000
00000000
00000000
00011000
00000000
00000000
00000000
,
00010000
02000000
00000000
03010000
00002000
00000000
00003100
00000200
,
00000000
00000320
00000000
00000031
00000010
00001000
00010000
01000000
,
21000000
00000000
00000000
00000000
30000000
00000000
01000000
10000000
00010000
00000000
00000000
00000000
00011000
00000000
00000000
00000100
,
00000002
00000010
00000000
00000103
00000000
00001000
00010000
00100000
,
10000000
00100000
00010000
00100000
01000000
00001000
00010000
00000100
,
00000010
00000001
00000010
00000100
00001000
00000001
00000100
00001000
,
00010000
01000000
00001000
00000100
00000010
00000001
00000010
00000100
,
00001000
00000000
00010000
00000000
00100000
00000000
10000000
00000000
00100000
00000000
01000000
00000000
20000000
00000000
30000000
00100000
,
00010000
00000000
00001000
00000000
00000000
00000000
00000100
00000000
00000000
00000000
00000001
00000000
00000000
00000000
00000100
00000010
,
00001000
00000000
00010000
00000000
00000000
00000000
01000000
00000000
00000000
00000000
10000000
00000000
00000000
00000000
01000000
00100000
,
00010000
00000000
00001000
00000000
00000000
00000000
00100000
00000000
00000000
00000000
00001000
00000000
00000000
00000000
00001000
00000010
,
00001000
00010000
00000000
00001000
00000000
00110000
00000000
10010000
,
01000000
00010000
10000000
00100000
00010000
00000000
00001100
00000000
,
00020000
00000000
00031000
00010000
00001000
00000000
00011000
00000000
,
00001010
00000010
00000001
00000100
00001000
00000000
00010000
00000000
,
00002000
00000000
00000000
00000000
00013000
00000000
00000000
00000000
00110000
00000000
00000000
00000000
10000000
00000000
00000000
01000000
,
00010000
00001000
00000100
00000010
00000001
00000010
00000100
00000001
,
00000100
00000000
00000010
00000000
00001000
00000000
00000001
00000000
00000010
00000000
00000100
00000000
00001000
00000000
00000000
00010000
,
00001000
00010000
00100000
00010000
00001000
00010000
00000100
00010000
,
00001000
00000000
00010000
00000000
00100000
00000000
00010000
00000000
00001000
00000000
01000000
00000000
00100000
00000000
00000000
00100000
,
10000000
01000000
00100000
00010000
01000000
10000000
01000000
00010000
,
00100000
10000000
00010000
01000000
10000000
01000000
00010000
00001000
,
00000100
00000001
00000010
00000001
00000100
00001000
00100000
01000000
,
00000000
00000000
00000000
00000000
00000000
00000000
00000000
00000000
00000000
00000000
00000000
00001000
00000100
00000000
00000000
00000001
,
00001000
00000000
00000100
00000000
00000001
00000000
00000010
00000000
00000001
00000000
00000000
00000100
00001000
00000000
00000000
00001000
,
00010000
00000000
00100000
00000000
01000000
00000000
10000000
00000000
00010000
00000000
00000000
10000000
00100000
00000000
00000000
01000000
,
00010000
00000000
01000000
00000000
00010000
00000000
00001000
00000000
00000010
00000000
00000000
00000001
00000100
00000000
00000000
00001000
,
00000100
00000000
00000010
00000000
00000001
00000000
00000100
00000000
00000010
00000000
00000100
00000000
00001000
00000000
00000000
00010000
,
01000000
00000000
00000000
00100000
00020000
00000000
00000000
00000000
01030000
00000000
00000000
00100000
10000000
00000000
00000000
01000000
,
10000000
00000000
00100000
00000000
00020000
00000000
00000000
00000000
00031000
00000000
00000000
00010000
00001000
00000000
00000000
00001000
,
00010000
00000000
01000000
00000000
00000000
00000000
11000000
00000000
00000000
00000000
01010000
00000000
00000000
00000000
00010000
00001000
,
00000100
00000000
00000000
00000000
00000110
00000000
00000000
00000000
00001000
00000000
00000000
00010000
01000000
00000000
00000000
10000000
,
01000000
00000000
00010000
00000000
00001000
00000000
00010000
00000000
00001000
00000000
00000000
00000010
00000001
00000000
00000000
00000100
,
00000001
00000000
00000000
00000000
00000010
00000000
00000100
00000000
00001000
00000000
00000000
00010000
01000000
00000000
00000000
00100000
,
10000000
00000000
00000000
00000000
01000000
00000000
00000000
00010000
00001000
00000000
00000000
00001000
00000010
00000000
00000000
00000010
,
00001000
00000000
00000000
00000000
00010000
00000000
00000000
00010000
00200000
00000000
00000000
00000000
00300000
00000000
00000000
00000000
,
10000000
01000000
00000000
00100000
00010000
00000000
00001100
00000000
,
00000000
00011000
00000000
00001001
00000000
00000001
00001000
00010000
,
00011000
00000000
00001000
00000000
00000010
00000000
00001000
00000000
00010000
00000000
00001000
00000000
00011000
00000000
00000000
00010000
,
00001000
00000000
00000100
00000000
00000001
00000000
00000100
00000000
00001000
00000000
00000001
00000000
00000100
00000000
00000000
00000100
,
00001000
00000000
00010000
00000000
01000000
00000000
10000000
00000000
00010000
00000000
00100000
00000000
10000000
00000000
00000000
10000000
,
00100000
00000000
00000000
00000000
00000000
00000000
00010000
00002000
00020000
00000000
00000000
00000000
00000000
00000000
00000000
00000000
,
00000000
00033000
00000000
00000000
,
00000000
00000000
00000000
00000000
;
