
//----- song ID: blra -----//
#TITLE:Blue Rain;
#ARTIST:dj TAKA VS Ryu☆;
#ARTISTTRANSLIT:dj TAKA VS Ryu;
#BANNER:Blue Rain.png;
#BACKGROUND:Blue Rain-bg.png;
#CDTITLE:./CDTitles/DDR X.png;
#MUSIC:Blue Rain.ogg;
#SAMPLESTART:15.83;
#SAMPLELENGTH:15;
#BPMS:0=144;
#STAGE:15;
#NOTES:
     dance-single:
     :
     Beginner:
     2:
     :
0000
0000
0000
0000
,
0000
0000
0000
0000
,
0000
0000
0000
0000
,
0000
0000
0000
0000
,
0000
0000
0000
0000
,
0000
0000
0000
0000
,
0100
0000
0000
0000
,
0100
0000
0000
0000
,
0100
0000
0000
0000
,
0100
0000
0000
0000
,
0001
0000
0001
0000
,
1000
0000
1000
0000
,
0001
0000
0001
0000
,
1000
0000
0000
0000
,
1000
0000
1000
0000
,
0001
0000
0001
0000
,
1000
0000
1000
0000
,
0001
0000
0000
0000
,
0001
0000
0001
0000
,
0100
0000
0100
0000
,
1000
0000
1000
0000
,
0100
0000
0000
0000
,
1000
0000
1000
0000
,
0100
0000
0100
0000
,
0001
0000
0001
0000
,
0100
0000
0000
0000
,
0001
0000
0000
0000
,
1000
0000
0000
0000
,
0001
0000
0000
0000
,
1000
0000
0000
0000
,
0010
0000
0000
0000
,
1000
0000
0000
0000
,
0001
0000
0000
0000
,
0100
0000
0000
0000
,
1000
0000
0000
0000
,
0001
0000
0000
0000
,
0100
0000
0000
0000
,
0100
0000
0000
0000
,
0001
0000
0001
0000
,
1000
0000
1000
0000
,
0001
0000
1000
0000
,
0100
0000
0000
0000
,
0001
0000
0001
0000
,
1000
0000
1000
0000
,
0001
0000
1000
0000
,
0001
0000
0000
0000
,
1000
0000
1000
0000
,
0001
0000
0001
0000
,
1000
0000
0001
0000
,
1000
0000
0000
0000
,
0001
0000
0100
0000
,
0001
0000
0001
0000
,
1000
0000
0100
0000
,
1000
0000
1000
0000
,
0001
0000
1000
0000
,
0001
0000
1000
0000
,
0010
0000
0010
0000
,
0100
0000
0000
0000
,
0010
0000
0000
0000
,
0000
0000
0000
0000
;
#NOTES:
     dance-single:
     :
     Easy:
     5:
     :
0000
0000
0000
0000
,
0000
0000
0000
0000
,
0000
0000
0000
0000
,
0000
0000
0000
0000
,
0000
0000
0000
0000
,
0000
0000
0000
0000
,
0002
0000
0000
0003
,
2000
0000
0000
3000
,
0002
0000
0000
0003
,
1001
0000
0000
0000
,
1000
0001
1000
0001
,
1000
0100
1000
0100
,
1000
0001
1000
0001
,
0100
0001
0100
0001
,
1000
0100
0001
0100
,
1000
0100
0001
0100
,
1000
1000
0001
0001
,
0100
0000
0100
0000
,
0001
1000
0001
1000
,
0001
0100
0001
0100
,
0001
1000
0001
1000
,
0100
1000
0100
1000
,
0001
0100
1000
0100
,
0001
0100
1000
0100
,
0001
0001
1000
1000
,
1001
0000
0000
0000
,
0020
0000
0000
0030
,
0200
0000
0000
0300
,
0020
0000
0000
0030
,
0200
0000
0000
0300
,
0002
0000
0000
0003
,
2000
0000
0000
3000
,
0020
0000
0000
0030
,
0010
0000
1001
0000
,
1000
0001
0000
0001
,
0100
0001
0000
0001
,
0100
0010
0000
0010
,
1000
0010
0000
0010
,
1000
1000
1000
1000
,
0001
0001
0001
0001
,
0010
0010
0100
0100
,
0110
0000
0000
0000
,
1000
0001
1000
0001
,
1000
0010
1000
0010
,
1000
0001
1000
0001
,
0010
0001
0010
0001
,
1000
0010
0001
0010
,
1000
0010
0001
0010
,
1000
1000
0001
0001
,
0010
0000
0010
0000
,
0001
1000
0001
1000
,
0001
0010
0001
0010
,
0001
1000
0001
1000
,
0010
1000
0010
1000
,
0001
0010
1000
0010
,
0001
0010
1000
0010
,
0001
0000
1000
0000
,
1001
0000
0000
0000
,
0020
0000
0000
0030
,
0000
0000
0000
0000
;
#NOTES:
     dance-single:
     :
     Medium:
     6:
     :
0000
0000
0000
0000
,
0000
0000
0000
0000
,
0000
0000
0000
0000
,
0000
0000
0000
0000
,
0000
0000
0000
0000
,
0000
0000
0000
0000
,
2000
0000
0000
0000
,
0002
0000
0000
3000
,
2000
0000
0000
3003
,
1001
0000
0000
0000
,
0100
0100
0001
0101
,
0010
0000
0010
0000
1000
0001
0100
0000
,
0100
0100
1000
1100
,
0010
0000
0010
0000
0100
0001
1000
0000
,
0010
0010
0001
0011
,
0100
0000
0100
0000
1000
0100
0010
0000
,
0001
0001
0010
1010
,
0100
0000
0000
0000
0010
0000
0010
0010
,
0010
0010
0001
0101
,
0010
0000
1000
0000
0001
1000
0100
0000
,
0010
0010
0100
1100
,
0010
0000
0001
0000
1000
0001
0100
0000
,
0010
0000
1000
0000
0010
1000
0010
0000
,
0100
0000
0001
0000
0100
0001
0100
0000
,
0010
1000
0100
0000
0010
0001
0100
0000
,
0110
0000
0000
0000
,
2000
0000
0000
3001
,
0002
0000
0000
0103
,
0200
0000
0000
0310
,
0020
0000
0000
1030
,
2000
0000
0000
3001
,
0020
0000
0000
1030
,
0200
0000
0000
0310
,
1001
1001
1001
0000
,
0020
0000
0000
0000
0030
0001
0010
0000
,
0200
0000
0000
0000
0300
1000
0100
0000
,
2000
0000
0000
0000
3000
0010
1000
0000
,
0002
0000
0000
0000
0003
0100
0001
0000
,
0010
0000
0010
0000
0010
0100
0010
0000
,
1000
0000
0001
0000
1000
0001
1000
0000
,
1000
0100
0001
0000
0001
0100
1000
0000
,
1001
0000
0000
0000
,
0100
0100
1000
1100
,
0010
0000
0010
0000
0001
1000
0100
0000
,
0100
0100
0001
0101
,
0010
0000
0010
0000
0100
1000
0001
0000
,
0010
0010
1000
1010
,
0100
0000
0100
0000
0001
0100
0010
0000
,
1000
1000
0010
0011
,
0100
0000
0100
0000
0010
0010
0010
0000
,
0010
0000
0001
0000
1000
0001
0100
0000
,
0010
0000
0001
0000
1000
0001
0100
0000
,
0010
0000
0001
0000
0100
1000
0001
0000
,
0010
0000
1000
0000
0001
1000
0100
0000
,
0010
0000
0001
0000
0010
0001
0010
0000
,
0100
0000
1000
0000
0100
1000
0100
0000
,
0010
0100
0010
0100
,
2000
0000
0002
3003
,
0020
0000
0000
0030
,
0000
0000
0000
0000
;
#NOTES:
     dance-single:
     :
     Hard:
     11:
     :
0000
0000
0000
0000
,
0000
0000
0000
0000
,
0000
0000
0000
0000
,
0000
0000
0000
0000
,
0000
0000
0000
0000
,
0000
0000
0000
0000
,
2002
0000
0000
0000
,
0000
3003
0200
0000
,
0020
0000
0000
0330
,
1001
0000
0000
0000
,
0001
0000
0000
0001
0100
0000
0000
0000
0010
0000
1000
0000
0100
0000
0000
0000
,
1000
0000
0000
1000
0001
0000
0000
0000
0010
0000
0001
0000
1000
0000
0000
0000
,
0010
0000
0000
0010
1000
0000
0000
0000
0100
0000
0010
0000
0001
0000
0000
0000
,
0100
0000
0000
0100
0010
0000
0000
0000
1000
0000
0001
0000
0010
0000
0100
0000
,
1000
0000
0000
1000
0100
0000
0000
0000
0010
0000
0001
0000
1000
0000
0000
0000
,
0001
0000
0000
0001
0010
0000
0000
0000
0001
0000
0100
0000
0010
0000
0000
0000
,
1000
0000
0000
1000
0010
0000
0000
0000
0100
0000
0010
0000
1000
0000
0000
0000
,
0010
0000
0000
0010
1000
0000
0001
0000
0100
0000
0000
0100
0010
0000
0000
0000
,
1000
0100
1000
0001
0100
0010
0100
0000
,
0001
1000
0001
0100
0010
0001
0010
0000
,
1000
0001
1000
0100
0010
1000
0010
0000
,
0001
0010
0001
1000
0100
0001
0100
0100
,
0010
0001
1000
0100
0010
0001
1000
0100
,
0010
0100
1000
0001
0010
0100
1000
0001
,
0010
0100
0010
0000
0100
0010
0100
0000
1000
0000
1000
0000
0001
0000
0001
0000
,
2002
0000
3003
1001
,
0200
0001
0010
0301
,
2000
0010
0100
3010
,
0002
0100
1000
0103
,
0020
1000
0001
1030
,
0200
0001
0010
1300
,
0020
0100
0032
1000
,
0203
0010
0302
1003
,
1100
0000
0000
0000
0101
0000
0000
0000
1001
0000
0000
1001
0000
0000
1001
0000
,
0100
0000
0000
0100
1000
0000
0000
0000
0000
0000
0001
0000
0100
0000
0000
0000
,
0010
0000
0000
0010
0001
0000
0000
0000
0000
0000
0010
0000
1000
0000
0000
0000
,
0001
0000
0000
0001
0100
0000
0000
0000
0000
0000
1000
0000
0010
0000
0000
0000
,
1000
0000
0000
1000
0010
0000
0000
0000
1000
0000
0000
1000
0010
0000
0000
0000
,
0001
1000
0010
0100
0001
1000
0010
0010
,
1000
0001
0100
0010
1000
0001
0100
0100
,
0001
1000
0001
0000
1000
0001
1000
0000
0010
0000
0010
0000
0100
0000
0100
0000
,
0220
0000
0000
0330
,
1000
0000
0000
1000
0010
0000
0000
0000
0100
0000
0001
0000
0010
0000
0000
0000
,
0001
0000
0000
0001
1000
0000
0000
0000
0100
0000
1000
0000
0001
0000
0000
0000
,
0100
0000
0000
0100
0001
0000
0000
0000
0010
0000
0100
0000
1000
0000
0000
0000
,
0010
0000
0000
0010
0100
0000
0000
0000
0001
0000
1000
0000
0100
0000
0010
0000
,
0001
0000
0000
0001
0010
0000
0000
0000
0100
0000
1000
0000
0001
0000
0000
0000
,
1000
0000
0000
1000
0100
0000
0000
0000
1000
0000
0010
0000
0100
0000
0000
0000
,
0001
0000
0000
0001
0100
0000
0000
0000
0010
0000
0100
0000
0001
0000
0000
0000
,
0100
0000
0000
0100
0000
0000
0010
0000
0000
0010
0000
0000
1000
0000
0001
0000
,
1001
0000
0000
1000
0001
0000
0100
0000
0010
0000
1000
0000
0100
0000
0010
0000
,
0001
0000
0000
0001
0010
0000
0100
0000
1000
0000
0001
0000
0100
0000
0001
0000
,
0010
0000
0000
0100
1000
0000
0001
0000
0100
0000
0010
0000
0100
0000
0001
0000
,
1000
0000
0000
1000
0100
0000
0001
0000
0010
0000
0001
0000
0100
0000
0010
0000
,
0001
0000
0000
1000
0010
0000
0001
0000
0010
0000
1000
0000
0001
0000
0100
0000
,
0010
0000
0000
0010
1000
0000
0100
0000
0010
0000
0001
0000
0100
0000
0100
0000
,
0010
1000
0100
0001
,
0100
0010
0000
0010
0000
0000
2002
0000
0000
0000
0000
0000
3003
0000
0000
0000
,
0020
0000
0000
0030
,
0000
0000
0000
0000
;
#NOTES:
     dance-single:
     :
     Challenge:
     14:
     :
0000
0000
0000
0000
,
0000
0000
0000
0000
,
0000
0000
0000
0000
,
0000
0000
0000
0000
,
0000
0000
0000
0000
,
0000
0000
0000
0000
,
1000
0000
0001
0000
1001
0000
1000
0001
1000
0000
0001
0000
1000
0001
0000
0001
,
0100
0000
0010
0000
0110
0000
0100
0010
0100
0000
0010
0000
0100
0000
0100
0000
,
0001
0100
0001
0000
1000
0010
1000
0000
0001
1000
0001
1000
0001
0000
0000
0000
,
1001
0000
0000
0000
,
0001
0000
0100
0010
0000
0100
0010
0000
1000
0010
0000
1000
0010
0000
0000
0000
,
1000
0000
0100
0010
0000
0100
0010
0000
0001
0010
0000
0001
0010
0000
0000
0000
,
0001
0000
0100
0010
0000
0100
0010
0000
1000
0001
0000
1000
0001
0000
0000
0000
,
1000
0000
0001
0010
0000
0001
0010
0000
0100
1000
0000
0100
1000
0000
0000
0000
,
0001
0000
0100
0010
0000
0100
0001
0000
0100
0010
0000
0100
0001
0000
0000
0000
,
1000
0000
0100
0010
0000
0001
0010
0000
0100
0010
0000
0001
0010
0000
0000
0000
,
0001
0000
0100
0010
0000
1000
0100
0000
0010
0100
0000
1000
0010
0000
0000
0000
,
1000
0000
0010
0100
0000
0001
0010
0000
0100
0010
0000
0001
0100
0000
0000
0000
,
0001
0000
0100
0010
0000
0100
1000
0000
0100
0010
0000
0100
1000
0000
0100
0000
,
0001
0000
0010
0100
0000
1000
0001
0000
1000
0100
0000
0010
0001
0000
1000
0001
,
1000
0000
0100
0010
0000
0100
0001
0000
0100
0010
0000
0100
0001
0000
0100
0000
,
1000
0000
0010
0100
0000
0001
0010
0000
0100
1000
0000
0001
1000
0000
0001
0100
,
0001
0010
0011
0001
1000
0010
1010
1000
,
0001
0100
0101
0001
1000
0100
1100
1000
,
0010
1000
0100
0000
0010
0001
0100
0000
0010
0100
0010
0100
0010
0000
0000
0000
,
2002
0000
0000
3003
,
1000
0000
0010
0000
0001
0000
0000
1000
0000
0100
0001
0000
0100
0000
0000
0000
,
0001
0000
0010
0000
1000
0000
0000
0001
0000
0100
1000
0000
0001
1000
0000
0100
,
1000
0000
0100
0000
0001
0000
0000
1000
0000
0010
0001
0000
0010
0000
0000
0000
,
0001
0000
0100
0000
1000
0000
0000
0001
0000
0010
1000
0000
0010
0000
0000
0000
,
1000
0000
0100
0000
0110
0000
0010
0001
0000
0100
0001
0000
0010
0000
0000
0000
,
0001
0000
0100
0000
0110
0000
0010
1000
0000
0100
1000
0000
0010
0000
0000
0000
,
2020
3030
0012
0103
,
0110
0000
0000
0000
0110
0000
0000
0000
1001
0000
0000
1001
0000
0000
1001
0000
,
1000
0000
0010
0100
0000
0100
0001
0000
0001
1000
0000
1000
0100
0000
0010
0001
,
0010
0000
0100
1000
0000
1000
0001
0000
0001
0100
0000
0100
0010
0000
1000
0001
,
1000
0000
0100
0010
0000
0010
0001
0000
0001
0100
0000
0100
0010
0000
1000
0010
,
1000
0000
0001
0100
0000
0100
0001
0000
0001
0010
0000
0010
0100
0000
1000
0100
,
1000
0000
0100
0000
0010
0001
0010
0000
0100
0000
1000
0000
0010
0100
0010
0000
,
1000
0000
0100
0000
0010
0001
1000
0000
0001
0000
0100
0000
0010
1000
0001
0000
,
1000
0010
1000
0000
1000
0010
1000
0000
0001
0100
0001
0100
0001
0000
0000
0000
,
2002
0000
0000
3003
,
0001
0100
0001
0000
0010
0000
0001
0100
0001
0000
0010
0000
0100
1000
0001
0000
,
1000
0010
1000
0000
0100
0000
1000
0010
1000
0000
0100
0000
0010
0001
1000
0000
,
0001
0100
0001
0000
1000
0000
0100
0010
0100
0000
1000
0000
0001
0100
0001
0000
,
1000
0010
1000
0000
0100
0000
0010
0001
0010
0000
0100
0000
1000
0010
1000
0000
,
0010
1000
0010
0000
0100
0000
0001
0010
0001
0000
0100
0000
0010
1000
0010
0000
,
1000
0100
1000
0000
0001
0000
0100
0010
0100
0000
0001
0000
0010
0100
0010
0000
,
0001
1000
0001
0000
0100
0000
0010
1000
0010
0000
0100
0000
0001
0010
0001
0000
,
1000
0100
1000
0000
0010
0000
0100
0001
0100
0000
0010
0000
1000
0100
0010
0000
,
0001
0000
0010
0100
0000
0010
0100
0000
1000
0001
0000
1000
0001
0000
0100
0001
,
0100
0000
0010
1000
0000
0010
1000
0000
0100
1000
0000
0100
1000
0000
0100
0010
,
0001
0000
0100
0010
0000
0100
0010
0000
1000
0010
0000
1000
0010
0000
0100
0001
,
1000
0000
0100
0010
0000
0100
0010
0000
0001
0100
0000
0001
0100
0000
0010
1000
,
0010
0000
1000
0100
0000
0100
0010
0000
0010
0001
0000
0001
1000
0000
0010
0100
,
0010
0000
1000
0010
0000
0010
0100
0000
0100
0001
0000
0001
0010
0000
0100
0010
,
0100
0000
1000
0010
0000
0010
0100
0000
0001
0010
0000
0010
0100
0000
1000
0010
,
0100
0001
0100
0001
0000
0000
1001
0000
0001
0010
0001
0010
0100
1000
0100
1000
,
0002
0000
0000
0003
,
0000
0000
0000
0000
;
#NOTES:
     dance-double:
     :
     Easy:
     5:
     :
00000000
00000000
00000000
00000000
,
00000000
00000000
00000000
00000000
,
00000000
00000000
00000000
00000000
,
00000000
00000000
00000000
00000000
,
00000000
00000000
00000000
00000000
,
00000000
00000000
00000000
00000000
,
00000020
00000000
00000000
00000030
,
00020000
00000000
00000000
00030000
,
00002000
00000000
00000000
00003000
,
00011000
00000000
00000000
00000000
,
00010000
00000000
00010000
01000000
,
00010000
00000000
00100000
01000000
,
00100000
00000000
10000000
01000000
,
10000000
00000000
01000000
00010000
,
00001000
00000000
00001000
00010000
,
00001000
00000000
00000010
00000001
,
00000010
00000000
00000100
00000010
,
00000100
00000000
00000100
00001000
,
00010000
00000000
00010000
00100000
,
01000000
00000000
01000000
10000000
,
00010000
00000000
00010000
00100000
,
00001000
00000000
00001000
00000100
,
00000001
00000000
00000001
00000100
,
00001000
00000000
00010000
01000000
,
20000000
00000000
00000000
30000000
,
10010000
00000000
00000000
00000000
,
00100000
00010000
00000000
00010000
,
00100000
00001000
00000000
00001000
,
00010000
00000100
00000000
00000100
,
00000010
00000001
00000000
00000001
,
00001000
00000010
00000000
00000010
,
00010000
00001000
00000000
00001000
,
00100000
00010000
00000000
00010000
,
10000000
10000000
10010000
00000000
,
00100000
00200000
00000000
00301000
,
00010000
00020000
00000000
00031000
,
00000100
00000200
00000000
00000310
,
00000001
00000002
00000000
00001003
,
00000001
00000000
00000001
00000100
,
00001000
00000000
00001000
00010000
,
01000000
00000000
01000000
10000000
,
10010000
00000000
00000000
00000000
,
00011000
00000000
00001000
00000100
,
00001000
00000000
00000010
00000100
,
00000010
00000000
00000001
00000100
,
00000001
00000000
00000100
00001000
,
00010000
00000000
00010000
00001000
,
00010000
00000000
00100000
10000000
,
00100000
00000000
01000000
00100000
,
01000000
00000000
01000000
00010000
,
00001000
00000000
00001000
00000010
,
00000100
00000000
00000100
00000001
,
00001000
00000000
00001000
00000010
,
00010000
00000000
00010000
01000000
,
10000000
00000000
10000000
01000000
,
00010000
00000000
00001000
00000100
,
00000002
00000000
00000000
00000003
,
00002000
00000000
00000000
00003000
,
00020000
00000000
00000000
00030000
,
00000000
00000000
00000000
00000000
;
#NOTES:
     dance-double:
     :
     Medium:
     7:
     :
00000000
00000000
00000000
00000000
,
00000000
00000000
00000000
00000000
,
00000000
00000000
00000000
00000000
,
00000000
00000000
00000000
00000000
,
00000000
00000000
00000000
00000000
,
00000000
00000000
00000000
00000000
,
00000200
00000000
00000000
00000000
,
00020000
00000000
00000000
00000300
,
00002000
00000000
00000000
00033000
,
00011000
00000000
00000000
00000000
,
10000000
00100000
01000000
00010000
,
00100000
00000000
00001000
00000000
00001000
00010000
00001000
00000000
,
00010000
00001000
00000010
00000100
,
00000001
00000000
00000010
00000000
00000010
00000001
00000100
00000000
,
00001000
00010000
00001000
00100000
,
10000000
00000000
00100000
00000000
00100000
00001000
00010000
00000000
,
00001000
00000100
00000001
00000010
,
00000100
00000000
00010000
00000000
00010000
00001000
00100000
00000000
,
01000000
10000000
00100000
00010000
,
00001000
00000000
00000010
00000000
00000010
00000001
00000100
00000000
,
00001000
00010000
01000000
10000000
,
00100000
00000000
00010000
00000000
00010000
00100000
10000000
00000000
,
10000000
01000000
10000000
01000000
10000000
01000000
10000000
00000000
,
00100000
00001000
00100000
00001000
00100000
00001000
00100000
00000000
,
00010000
00000100
00010000
00000100
00010000
00000100
00010000
00000000
,
00002002
00000000
00000000
00003003
,
00000010
00000002
00000000
00000103
,
00000010
00002000
00000000
00003100
,
00000010
00020000
00000000
00031000
,
00010000
00200000
00000000
01300000
,
00010000
20000000
00000000
30100000
,
01000000
00002000
00000000
00013000
,
00000100
00000020
00000000
00000031
,
00001100
00001100
00020200
00030300
,
00001000
00000000
00011000
00000000
00000000
00001000
00010000
00000000
,
00100000
00000000
00110000
00000000
00000000
10000000
00010000
00000000
,
01000000
00000000
01001000
00000000
00000000
00010000
00001000
00000000
,
00010000
00000000
00010010
00000000
00000000
00001000
00000001
00000000
,
00000001
00000100
00000001
00000100
00000001
00000100
00000001
00000000
,
00000010
00010000
00000010
00010000
00000010
00010000
00000010
00000000
,
00001000
01000000
00001000
01000000
00001000
01000000
00001000
00000000
,
20020000
00000000
00000000
30030000
,
10000000
01000000
00100000
00010000
,
01000000
00000000
00001000
00000000
00001000
00010000
00001000
00000000
,
00010000
00001000
00000100
00000010
,
00000001
00000000
00000100
00000000
00000100
00000001
00000010
00000000
,
00001000
00010000
00001000
01000000
,
10000000
00000000
01000000
00000000
01000000
00001000
00010000
00000000
,
00001000
00000010
00000001
00000100
,
00000010
00000000
00010000
00000000
00010000
00001000
01000000
00000000
,
00100000
10000000
01000000
00010000
,
00001000
00000000
00000100
00000000
00000100
00000001
00000010
00000000
,
00001000
00010000
00100000
10000000
,
01000000
00000000
00010000
00000000
00010000
01000000
10000000
00000000
,
10000000
00000000
01000000
00000000
00010000
00001000
00000100
00000000
,
00000001
00000000
00000100
00000000
00001000
00010000
01000000
00000000
,
20000000
00000000
00020000
30000000
,
00002000
00030000
00000002
00003003
,
00000220
00000000
00000000
00000330
,
00000000
00000000
00000000
00000000
;
#NOTES:
     dance-double:
     :
     Hard:
     11:
     :
00000000
00000000
00000000
00000000
,
00000000
00000000
00000000
00000000
,
00000000
00000000
00000000
00000000
,
00000000
00000000
00000000
00000000
,
00000000
00000000
00000000
00000000
,
00000000
00000000
00000000
00000000
,
02000000
00100000
00010000
03001000
,
00000200
00000010
00001000
00010300
,
02000000
03001000
00000200
00010300
,
00011000
00000000
00000000
00000000
,
00100000
00000000
00000000
00100000
01000000
00000000
10000000
00000000
00010000
00000000
00100000
00000000
00001000
00000000
00000000
00000000
,
00010000
00000000
00000000
00010000
00001000
00000000
00000100
00000000
00000010
00000000
00001000
00000000
00000001
00000000
00000000
00000000
,
00000010
00000000
00000000
00000010
00000100
00000000
00001000
00000000
00000100
00000000
00010000
00000000
00001000
00000000
00000000
00000000
,
01000000
00000000
00000000
01000000
00010000
00000000
00100000
00000000
00001000
00000000
00010000
00000000
00000100
00000000
00000000
00000000
,
00001000
00000000
00000000
00001000
00000001
00000000
00000100
00000000
00000010
00000000
00010000
00000000
00001000
00000000
00000000
00000000
,
01000000
00000000
00000000
01000000
00010000
00000000
00100000
00000000
01000000
00000000
10000000
00000000
00010000
00000000
00000000
00000000
,
10000000
00000000
00000000
10000000
00010000
00000000
00100000
00000000
00001000
00000000
00000100
00000000
00000001
00000000
00000000
00000000
,
00000010
00000000
00000000
00000010
00000000
00000000
00000100
00000000
00000000
00000100
00000000
00000000
00010000
00000000
00001000
00000000
,
00010000
01000000
10000000
01000000
00010000
01000000
10000000
00000000
,
00010000
00100000
00001000
00010000
00001000
00100000
00010000
00000000
,
00001000
00000010
00000100
00001000
00000100
00000010
00001000
00000000
,
00000001
00000100
00001000
00000100
00000001
00000100
00001000
00000000
,
00010000
00100000
01000000
10000000
01000000
00100000
00010000
00100000
,
00001000
00010000
00001000
00000100
00000010
00000001
00000010
00000100
,
00001000
00001000
00010000
00010000
00001000
00001000
00010000
00100000
,
20000000
00000000
30000000
10010000
,
00200000
00000000
00001000
00000000
00300000
00010000
01010000
00000000
,
00002000
00000000
00100000
00000000
00003000
00010000
00010100
00000000
,
00000020
00000000
00001000
00000000
00000030
00000100
00000101
00000000
,
00002000
00000000
00000100
00000000
00003000
00000001
00000101
00000000
,
00020000
00000000
00000010
00000000
00030000
00001000
01001000
00000000
,
20000000
00000000
01000000
00000000
30000000
00010000
00110000
00000000
,
02000000
00001000
00010000
03001000
,
00101000
00010010
00010100
01001000
,
00100000
00000000
01000000
00000000
10000000
01000000
00010000
00000000
,
00001000
00000000
00100000
00000000
00001000
00000100
00000001
00000000
,
00000100
00000000
00000010
00000000
00001000
00000100
00010000
00000000
,
00001000
00000000
00010000
00000000
00100000
10000000
01000000
00000000
,
00100000
10000000
01000000
00010000
00001000
00010000
00000010
00000100
,
00000001
00000010
00001000
00010000
01000000
10000000
00100000
01000000
,
00001000
00001000
00010000
00010000
00001000
00001000
00010000
00000010
,
00000200
00000000
00000000
00000300
,
00000010
00000000
00000000
00000010
00000100
00000000
00000001
00000000
00001000
00000000
00000010
00000000
00010000
00000000
00000000
00000000
,
00001000
00000000
00000000
00001000
00010000
00000000
00100000
00000000
01000000
00000000
00010000
00000000
10000000
00000000
00000000
00000000
,
01000000
00000000
00000000
01000000
00100000
00000000
00010000
00000000
00100000
00000000
00001000
00000000
00010000
00000000
00000000
00000000
,
00000010
00000000
00000000
00000010
00001000
00000000
00000100
00000000
00010000
00000000
00001000
00000000
00100000
00000000
00000000
00000000
,
00010000
00000000
00000000
00010000
10000000
00000000
00100000
00000000
01000000
00000000
00001000
00000000
00010000
00000000
00000000
00000000
,
00000010
00000000
00000000
00000010
00001000
00000000
00000100
00000000
00000010
00000000
00000001
00000000
00001000
00000000
00000000
00000000
,
00000001
00000000
00000000
00000001
00001000
00000000
00000100
00000000
00010000
00000000
00100000
00000000
10000000
00000000
00000000
00000000
,
01000000
00000000
00000000
01000000
00000000
00000000
00100000
00000000
00000000
00100000
00000000
00000000
00001000
00000000
00010000
00000000
,
00001000
00000010
00000001
00000010
00001000
00000010
00000001
00000000
,
00001000
00000100
00010000
00001000
00010000
00000100
00001000
00000000
,
00010000
01000000
00100000
00010000
00100000
01000000
00010000
00000000
,
10000000
00100000
00010000
00100000
10000000
00100000
00010000
00000000
,
00001000
00000100
00000010
00000001
00000010
00000100
00001000
00000100
,
00010000
00001000
00010000
00100000
01000000
10000000
01000000
00100000
,
00010000
00001000
00000100
00001000
,
00000010
00000100
00000000
00000100
00000000
00000000
00002002
00000000
00000000
00000000
00000000
00000000
00003003
00000000
00000000
00000000
,
00000220
00000000
00000000
00000330
,
00000000
00000000
00000000
00000000
;
#NOTES:
     dance-double:
     :
     Challenge:
     14:
     :
00000000
00000000
00000000
00000000
,
00000000
00000000
00000000
00000000
,
00000000
00000000
00000000
00000000
,
00000000
00000000
00000000
00000000
,
00000000
00000000
00000000
00000000
,
00000000
00000000
00000000
00000000
,
00000001
00000000
00000100
00000000
00000001
00000100
00000001
00000000
00001000
00000000
00000010
00000000
00010000
00000010
00000000
00010000
,
00001000
00000000
00010000
00000000
00001000
00010000
00001000
00000000
01000000
00000000
00010000
00000000
01000000
00100000
01000000
00000000
,
00100000
10000000
00100000
00000000
01000000
00010000
01000000
00000000
00010000
10000000
00010000
10000000
00010000
00000000
00000000
00000000
,
10010000
00000000
00000000
00000000
,
10000000
00000000
01000000
00100000
00000000
01000000
00100000
00000000
00001000
00010000
00000000
00001000
00010000
00000000
00000000
00000000
,
00001000
00000000
00010000
00000100
00000000
00010000
00000100
00000000
00001000
00000100
00000000
00001000
00000100
00000000
00000000
00000000
,
00000010
00000000
00000001
00001000
00000000
00000001
00001000
00000000
00000001
00000100
00000000
00000001
00000100
00000000
00000000
00000000
,
00000001
00000000
00001000
00000010
00000000
00001000
00000010
00000000
00010000
00001000
00000000
00010000
00001000
00000000
00000000
00000000
,
00010000
00000000
00001000
00100000
00000000
00010000
00100000
00000000
01000000
00100000
00000000
00010000
00100000
00000000
00000000
00000000
,
00010000
00000000
10000000
00100000
00000000
01000000
00100000
00000000
00010000
00100000
00000000
01000000
00100000
00000000
00000000
00000000
,
10000000
00000000
01000000
00100000
00000000
00010000
00100000
00000000
00001000
00100000
00000000
00001000
00010000
00000000
00000000
00000000
,
00001000
00000000
00010000
00000100
00000000
00001000
00000100
00000000
00000010
00000001
00000000
00001000
00000001
00000000
00000000
00000000
,
00000001
00000000
00000100
00000000
00000010
00000000
00001000
00000000
00000001
00000000
00000010
00000000
00000100
00000000
00010000
00001000
,
00010000
00000000
00100000
00000000
10000000
00000000
00010000
00000000
01000000
00000000
10000000
00000000
01000000
00000000
00100000
10000000
,
00100000
00000000
01000000
00000000
00010000
00000000
10000000
00000000
01000000
00000000
00100000
00000000
00001000
00000000
00010000
00000100
,
00010000
00000000
00001000
00000000
00000010
00000000
00000001
00000000
00001000
00000000
00000010
00000000
00000100
00000000
00000001
00000010
,
00000001
00000001
00000100
00000100
00001000
00001000
00010000
00010000
,
00100000
00100000
10000000
10000000
01000000
01000000
00010000
00010000
,
00001000
00000010
00001000
00000000
00000010
00000001
00000010
00000000
00000001
00001000
00000001
00001000
00000001
00000000
00000000
00000000
,
00002002
00000000
00000000
00003003
,
00000001
00000100
00001000
00010000
00000100
00000010
00001000
00010000
,
01000000
00000000
00100000
00000000
00001000
00000000
00010000
01000000
00000000
10000000
00100000
00000000
01000000
00000000
00100000
00000000
,
10000000
01000000
00010000
00001000
00100000
01000000
00010000
00001000
,
00000010
00000000
00000100
00000000
00010000
00000000
00001000
00000100
00000000
00000010
00001000
00000000
00000001
00000000
00000000
00000000
,
00001000
00000000
00000010
00000000
00000100
00000000
00000001
00000100
00000000
00000010
00001000
00000000
00000010
00000000
00010000
00000000
,
00001000
00000000
01000000
00000000
00010000
00000000
00100000
00010000
00000000
10000000
01000000
00000000
00100000
00000000
00010000
00000000
,
20000000
30200000
00320000
00032000
,
00003100
00000000
00000000
00000000
00000110
00000000
00000000
00000000
00000001
00000000
00000000
00001000
00000000
00000000
00001001
00000000
,
00000001
00000000
00000010
00000100
00000000
00000100
00010000
00000000
00010000
00001000
00000000
00001000
00100000
00000000
00010000
00100000
,
00010000
00000000
01000000
00100000
00000000
00100000
10000000
00000000
10000000
00010000
00000000
00010000
01000000
00000000
00100000
10000000
,
00100000
00000000
01000000
00010000
00000000
00010000
00100000
00000000
00100000
00001000
00000000
00001000
00010000
00000000
00000100
00010000
,
00000100
00000000
00001000
00000010
00000000
00000010
00000100
00000000
00000100
00000001
00000000
00000001
00000010
00000000
00000001
00001000
,
00000001
00000000
00000100
00000000
00000010
00000100
00000010
00000000
00010000
00000000
00001000
00000000
00010000
00001000
00010000
00000000
,
00100000
00000000
01000000
00000000
00100000
01000000
00100000
00000000
10000000
00000000
00010000
00000000
10000000
00010000
10000000
00000000
,
01000000
00100000
00010000
00000000
00100000
00001000
00010000
00000000
00000100
00001000
00000100
00001000
00000100
00000000
00000000
00000000
,
00000220
00000000
00000000
00000330
,
00000001
00000010
00000001
00000000
00001000
00000100
00001000
00000000
00000010
00000000
00000100
00000000
00001000
00000000
00010000
00000000
,
00100000
01000000
00100000
00000000
10000000
00100000
10000000
00000000
00010000
00000000
01000000
00000000
10000000
00000000
01000000
00000000
,
00010000
10000000
00010000
00000000
01000000
00010000
01000000
00000000
00100000
00000000
00010000
00000000
00001000
00000000
00000100
00000000
,
00000010
00001000
00000010
00000000
00000100
00000001
00000100
00000000
00000001
00000000
00000010
00000000
00000100
00000000
00000100
00000000
,
00001000
00000010
00000100
00000000
00000001
00000100
00000010
00000000
00001000
00000000
00000010
00000000
00010000
00000000
00001000
00000000
,
00100000
00001000
00010000
00000000
00001000
01000000
00010000
00000000
00100000
00000000
00010000
00000000
01000000
00000000
00100000
00000000
,
10000000
00100000
01000000
00000000
00010000
00100000
01000000
00000000
10000000
00000000
01000000
00000000
00010000
00000000
00001000
00000000
,
00000010
00000001
00001000
00000000
00000100
00000010
00000001
00000000
00001000
00000000
00000010
00000000
00000110
00000000
00000000
00000000
,
00000001
00000000
00000010
00000100
00000000
00001000
00000001
00000000
00000100
00000010
00000000
00000100
00001000
00000000
00010000
00001000
,
00010000
00000000
00001000
01000000
00000000
00010000
00100000
00000000
01000000
00100000
00000000
00010000
10000000
00000000
00100000
01000000
,
00100000
00000000
10000000
01000000
00000000
00100000
00010000
00000000
00100000
00001000
00000000
00010000
00001000
00000000
00010000
00000010
,
00001000
00000000
00000100
00000010
00000000
00000001
00000010
00000000
00000100
00001000
00000000
00000010
00000100
00000000
00000001
00000010
,
00000001
00000000
00000100
00001000
00000000
00001000
00010000
00000000
00010000
00100000
00000000
00100000
10000000
00000000
00010000
00100000
,
00010000
00000000
10000000
01000000
00000000
01000000
00010000
00000000
00010000
00001000
00000000
00001000
00000010
00000000
00000001
00000010
,
00000001
00000000
00000100
00000010
00001000
00000000
00000100
00000010
00000001
00000000
00000100
00000010
00001000
00000010
00001000
00000000
,
00000100
00010000
00000100
00010000
00000000
00000000
00011000
00000000
00001000
00100000
00001000
00100000
00010000
01000000
00010000
01000000
,
00200000
00000000
00000000
00300000
,
00000000
00000000
00000000
00000000
;
