#TITLE:Xmix4 (Linear Momentum);
#ARTIST:dj jiggens;
#BANNER:Xmix4 (Linear Momentum).png;
#BACKGROUND:Xmix4 (Linear Momentum)-bg.png;
#CDTITLE:./CDTitles/DDR X.png;
#MUSIC:Xmix4 (Linear Momentum).ogg;
#SAMPLESTART:192.29;
#SAMPLELENGTH:15;
#DISPLAYBPM:152:175;
#BPMS:0=151.8,4=152,116=156,118=161.5,120=168.5,124=170,228=169,230=170,418=169.5,420=175;
#STAGE:1;

//---------------dance-single - ----------------
#NOTES:
     dance-single:
     :
     Easy:
     6:
     :
0000
0000
0000
0000
,
0000
0000
0000
0000
,
0000
0000
0000
0000
,
0000
0000
0000
0000
,
0000
0000
0000
0000
,
0001
0000
0000
0000
,
1000
0000
0000
0000
,
0001
0001
1000
1000
,
0001
0010
0100
1000
,
0200
0000
0000
0000
,
0000
0000
0300
0100
,
0000
1000
1000
1000
,
0000
0001
0001
0001
,
1000
0000
0001
0000
,
0010
0010
0100
0100
,
0000
1000
1000
1000
,
0000
0001
0001
0001
,
0010
0001
0100
1000
,
0100
0001
0010
0000
,
0001
0000
1000
0000
,
0010
0010
0100
0000
,
0001
0000
1000
0000
,
0010
0010
0100
0100
,
0001
0000
0001
0001
,
1000
0000
1000
1000
,
0010
1000
0100
0001
,
0100
1000
0010
0000
,
0001
0010
1000
0100
,
0001
0100
1000
0010
,
0110
0000
1001
0000
,
0110
0000
1001
0000
,
0000
0000
0002
0000
,
0000
0000
0000
0000
,
0000
0003
2000
0000
,
0000
0000
0000
0000
,
0000
3000
0001
0000
,
0000
0000
1000
0000
,
0000
0000
0001
0000
,
0010
0000
0100
0000
,
1000
0000
0001
0001
,
1000
1000
0001
1000
,
1001
0000
0010
0000
,
1000
0000
0100
0010
,
0001
0000
1000
0000
,
0100
0000
0001
0001
,
1000
1000
0010
0000
,
0001
0000
0100
1000
,
0010
0000
0001
0000
,
0010
0000
0100
0100
,
0010
0010
0001
0000
,
0010
0000
0100
0000
,
1000
0010
1000
0000
,
0010
0000
0100
0000
,
0001
0010
0100
0000
,
0010
0000
0100
0000
,
0100
0010
1000
0000
,
0001
0000
0010
0000
,
1001
0000
1000
0000
,
0001
0000
1000
1000
,
0001
0001
1000
0000
,
0100
0000
0010
0010
,
0100
0100
0001
0000
,
0010
0000
0100
0000
,
1000
0000
1000
0000
,
0100
0000
1100
0000
,
1100
0000
1000
1000
,
1000
1000
1000
1000
,
1000
1000
0001
0001
,
0001
0001
0001
0001
,
0001
0001
0010
0000
,
0010
0100
0010
0000
,
0010
0100
0010
0000
,
0100
0100
1100
0000
,
0000
0000
0010
0000
,
1000
0000
0010
0000
,
0001
0000
0010
0000
,
1000
0000
0010
0000
,
0001
0000
0001
0000
,
0010
0000
0010
0000
,
1000
1000
0001
0000
,
1000
0000
1000
0000
,
0001
0001
0100
0000
,
0001
0001
0100
0000
,
1000
1000
0010
0000
,
0001
0001
0010
0000
,
1000
1000
1001
0000
,
0000
0000
0110
0000
,
0000
0000
1001
0000
,
0110
0000
1001
0000
,
0110
0110
0100
0100
,
0001
0001
0010
0010
,
0100
0100
0001
0000
,
0010
0000
0100
0000
,
1000
0000
1000
1000
,
0001
0001
0100
0100
,
0010
0010
1000
0000
,
0001
0001
1000
0000
,
0001
0001
0020
0000
,
0000
0000
0000
0000
,
0030
0000
0200
0000
,
0000
0300
1000
0000
,
0001
0001
1001
0000
,
1000
0100
1000
0000
,
1000
0100
1001
0000
,
0000
0000
0110
0000
,
0110
0000
0100
0000
,
0000
0000
0100
0000
,
0000
0000
0001
0000
,
1000
0000
0010
0000
,
0100
0000
0010
0000
,
0000
0000
0010
0000
,
0000
0000
0001
0000
,
0100
0000
1000
0000
,
0010
0000
1000
0100
,
0010
0010
0001
1000
,
0010
0001
0010
1000
,
0100
0000
0010
1000
,
0010
0010
0100
0001
,
1000
1000
0010
1000
,
0001
0010
1000
0100
,
0010
0000
1000
0010
,
0101
0101
1000
0010
,
1000
0010
1000
0100
,
1000
0100
0010
0001
,
0010
0001
1000
0100
,
1000
0000
0001
0010
,
0001
0010
0001
0100
,
0001
0100
0010
1000
,
0010
1000
0001
0100
,
0001
0000
1000
0100
,
1000
0100
0010
0001
,
0010
0001
0100
0001
,
0100
0001
1000
0010
,
1000
0010
1000
0100
,
0001
0100
1000
0100
,
0001
0100
1000
0010
,
0001
0010
1000
0010
,
0001
1001
1000
1000
,
0001
0001
0010
0000
,
0100
1000
0010
0010
,
0001
0001
1000
0010
,
0100
0000
0001
0001
,
1000
1000
0010
0000
,
0100
0001
0010
0010
,
1000
1000
0001
0010
,
0100
1000
2000
0010
,
0010
3000
0002
0100
,
0100
0003
1000
0100
,
0001
0100
1000
0010
,
0001
0010
2000
0010
,
0100
3100
0002
0010
,
0100
0103
1000
1000
,
0001
0001
0010
1000
,
0100
0001
0110
0000
;

//---------------dance-single - ----------------
#NOTES:
     dance-single:
     :
     Medium:
     8:
     :
0000
0000
0000
0000
,
0000
0000
0000
0000
,
0000
0000
0000
0000
,
0000
0000
0000
0000
,
0000
0000
0000
0000
,
0001
0000
0000
0000
0000
0000
0000
1000
,
0001
0000
0000
0000
,
0010
0000
0100
0000
0010
0100
0010
0000
,
0001
1000
0001
0000
0001
1000
0001
0000
,
0200
0000
0000
0000
,
0000
0000
0300
0110
,
0100
1001
0100
0010
,
0001
0110
0001
1000
,
0100
1100
0010
0011
,
1000
0100
0001
0000
1000
0100
0001
0000
,
1000
0000
1000
0000
1000
0000
0010
0010
,
0001
0000
0001
0000
0001
0000
0010
0010
,
1000
0010
0001
0010
,
0110
1001
0110
0000
,
0010
0001
0100
0000
0010
0001
0100
0000
,
0010
0011
0100
1100
,
0100
1000
0010
0000
0100
1000
0010
0000
,
0100
0101
0010
1010
,
0010
0000
1000
0000
0100
0000
0001
0100
,
1000
0000
0010
0000
0100
0000
0001
0010
,
1000
0010
0001
0100
,
0010
0110
0010
0110
,
2000
0001
3002
0100
,
0203
0010
0320
0130
,
0100
0000
0000
0100
0000
0000
0100
0000
0010
0000
0000
0010
0000
0000
0010
0000
,
1000
0000
0000
0001
0000
0000
1000
0000
1001
0000
0000
0000
0000
0000
0000
0000
,
0000
0000
0001
0010
,
0100
1000
0001
0100
,
1000
0100
0001
0010
,
0100
1000
0001
0010
,
1000
0010
0001
0100
,
0010
1000
0001
0100
,
1000
0100
0101
0000
,
1001
0000
1100
1100
,
1001
1001
0001
0001
,
1000
1000
0100
0010
,
1001
0000
0001
0100
,
1000
0010
0100
0010
,
0001
0100
1000
0010
,
0100
1000
0002
0000
,
2000
3003
0010
0001
,
0100
0010
0100
1000
,
0010
1000
0001
1000
,
0010
0001
0100
0100
,
0010
0000
0000
0000
1001
0000
0000
0000
0001
0000
0000
0001
0000
0000
0000
0000
,
0010
0000
0000
0010
0000
0000
0000
0000
0100
0000
0000
0100
0000
0000
0000
0000
,
1000
0000
0000
0000
0010
0000
0000
0000
1000
0000
0000
1000
0000
0000
0000
0000
,
0010
0000
0000
0010
0000
0000
0000
0000
0100
0000
0000
0100
0000
0000
0000
0000
,
0001
0000
0000
0000
1001
0000
0000
0000
0100
0000
0000
1000
0000
0000
0000
0000
,
0100
0000
0000
0010
0000
0000
0000
0000
0100
0000
0000
0001
0000
0000
0000
0000
,
0100
0000
0000
0000
0010
0000
0000
0000
1000
0000
0000
0010
0000
0000
0000
0000
,
0001
0000
0000
1000
0000
0000
0000
0000
0010
0000
0000
1000
0000
0000
0000
0000
,
0110
0000
1000
1000
,
0001
0001
1000
0001
,
1000
0001
1000
1000
,
0100
0100
0010
0100
,
0010
0100
0001
0010
,
0100
1000
0001
0010
,
0100
1000
0001
0010
,
0100
1000
1100
0001
,
0010
0001
0011
0011
,
0011
0011
0011
0011
,
0011
0011
0001
0001
,
0001
0001
0001
0001
,
0001
0001
0010
0010
,
0010
0100
0010
0010
,
0010
0100
1000
0010
,
0100
0001
1010
0000
,
0000
0000
0001
1000
,
0100
0001
0010
0010
,
0100
0100
0001
1000
,
0100
0001
0010
0010
,
0100
0100
1000
1000
,
0001
0001
0010
0010
,
0001
0100
0010
0010
,
1000
0100
1000
1000
,
1000
0100
1100
0001
,
0001
0001
0001
0001
,
0001
0001
1000
1000
,
1000
1000
0001
0010
,
0100
0000
1000
0000
1100
0000
0010
0001
,
0010
0000
0000
0000
1100
0000
0010
0001
,
0010
0000
1100
0100
,
1100
0100
0011
0000
,
0011
0011
0001
0010
,
0100
1000
0001
0010
,
0100
1000
0010
0010
,
1001
0100
0010
0010
,
1001
0100
1000
0010
,
0100
0001
1000
0010
,
0100
0000
0001
0000
1000
0000
1000
0001
,
1000
0000
1000
0000
1000
0010
1000
0010
,
1000
0100
1000
0000
0021
0000
0001
0000
,
0001
0001
0001
0001
,
0031
0000
1020
1000
,
1000
1030
0100
0100
,
1000
1000
0001
0001
,
0100
0010
0100
0000
0001
0000
0001
0000
,
0100
0010
0100
0000
1001
0000
0000
0000
,
0000
0000
0110
0000
,
0101
0000
0000
0000
0010
0000
0100
0001
,
0000
1000
0000
0100
0010
0000
0001
0100
,
0000
0010
0000
0100
0001
0000
1000
0002
,
0000
0010
0000
0010
0000
0100
0000
0100
,
0000
1003
0010
0000
0100
0000
0001
0100
,
0000
0010
0000
1000
0010
0000
1000
0100
,
0000
1000
0000
0001
0100
0000
0010
2000
,
0000
0001
0000
0001
0000
0100
0000
3100
,
1100
1100
0001
0100
,
0010
0001
0010
0000
1000
0000
0001
0000
,
0010
0100
1000
0000
0010
0000
0001
0000
,
0100
1000
0010
0001
,
0010
1000
0010
0000
0100
0000
1000
0000
,
0001
0010
0100
0000
0010
0000
0001
0000
,
1000
0010
1000
0000
0001
0000
0100
0000
,
0010
1000
0001
0100
,
1100
1100
1010
0001
,
1000
0100
1000
0001
,
1000
0010
0110
1000
,
0100
0001
0100
1000
,
0100
0001
0011
1000
,
0001
0100
0001
1000
,
0001
0010
0110
0001
,
0100
1000
0100
0001
,
0100
1000
1001
0010
,
1000
0100
0010
0001
,
0100
1000
0110
0001
,
0100
0010
1000
0001
,
0100
0010
1010
0100
,
0001
1000
0011
1000
,
0100
0010
0110
1000
,
1100
0001
0011
1000
,
0110
1001
0010
0010
,
0100
0010
0100
0000
0001
0000
0000
0000
,
1000
0000
1010
0000
0100
0000
0001
0010
,
0001
0100
1000
0110
,
0001
0110
0100
0100
,
1000
0010
1000
0000
0001
0000
0000
0000
,
0010
1001
0010
0001
,
0100
1000
0100
0001
,
0010
0100
2100
0010
,
0001
3000
0210
1000
,
0001
0300
1000
1100
,
0001
0011
1000
0100
,
0001
0010
0102
0010
,
1000
0003
0210
0001
,
1000
0000
0300
0000
0001
0010
0001
0000
,
1000
0010
1000
0000
0001
0000
0100
0000
,
1000
0110
1001
0000
;

//---------------dance-single - ----------------
#NOTES:
     dance-single:
     :
     Hard:
     10:
     :
0000
0000
0000
0000
,
0000
0000
0000
0000
,
0000
0000
0000
0000
,
0000
0000
0000
0000
,
0000
0000
0000
0000
,
0001
0000
0000
0000
0000
0000
0000
1000
,
1001
0000
0000
0000
,
0010
0000
1000
0000
0001
0010
0100
1000
,
0010
0100
0001
1000
0100
0010
0001
0100
,
0020
0000
0000
0000
,
0000
0000
0030
1001
,
0110
0101
0010
1100
,
0010
0101
1100
1001
,
0010
1000
0100
0100
0010
0001
0100
0000
,
0010
0001
0100
0100
0010
1000
0100
0000
,
2000
0000
3100
0000
0001
0100
0020
0100
,
0130
0000
1001
0000
1000
0100
0020
0100
,
0130
1001
0110
1001
,
0001
0000
0000
0001
0000
0000
0001
0000
0110
0000
0000
0000
0000
0000
0000
0000
,
0010
0000
1001
0000
0001
1000
0100
0010
,
0100
0000
1001
0000
0010
1000
0001
1000
,
0001
0100
1000
1000
0100
0001
0001
0000
,
1000
0010
0100
0001
0010
0100
1000
0001
,
0100
0000
1100
0000
0010
0000
0101
0001
,
2000
0000
3020
0000
0230
0000
0301
0001
,
1000
0000
1100
0000
1000
0000
1000
0100
,
0001
0000
0101
0000
0001
0001
1000
0100
,
0010
0000
0000
0000
0101
0000
0000
0000
0010
1000
0000
0000
1100
0000
0000
0000
,
0010
0000
1000
0000
0100
0000
0010
0000
0001
0100
0001
0000
0010
0000
0100
0000
,
1100
0000
0000
1000
0000
0000
0100
0000
0011
0000
0000
0010
0000
0000
0001
0000
,
0101
0000
0000
1100
0000
0000
0010
0000
1001
0000
0000
0000
0000
0000
0000
0000
,
0000
0000
0000
0000
0001
0010
0100
1000
,
0001
0010
0100
1000
0001
0100
1000
0100
,
0010
0001
0010
1000
0001
0010
0100
1000
,
0001
0010
0100
1000
0001
0010
1000
0010
,
0100
0001
0100
1000
0010
0100
0001
1000
,
0010
0100
0001
1000
0100
0010
1000
0010
,
0001
0100
0010
1000
1000
0000
0000
0001
,
0001
0000
0000
0010
0010
0000
0100
0000
,
1000
0100
0001
0100
1000
0000
0010
0000
,
0100
0000
0001
0000
0010
0001
0100
0001
,
0010
0001
0000
0000
1001
0000
0110
0000
,
0001
1000
0100
0000
0010
0000
0100
0000
,
1000
0000
0010
1000
0001
0000
0100
0000
,
0010
0100
0001
0000
0010
0000
1100
0000
,
0010
0101
0110
1001
,
0010
1000
0100
0000
0010
0000
0001
0000
,
0100
0000
0001
1000
0100
0000
0001
0000
,
0100
1000
0010
0000
1000
0000
0001
0000
,
0100
0000
0001
0000
0100
0000
0001
0000
1000
0000
0000
0100
0000
0000
1000
0000
,
0001
0000
0000
0100
0000
0000
0001
0000
0010
0000
0000
0100
0000
0000
0010
0000
,
0001
0000
1000
0000
0100
0000
0010
0000
0001
0000
0000
0100
0000
0000
0001
0000
,
1000
0000
0000
0100
0000
0000
1000
0000
0010
0000
0000
0100
0000
0000
0010
0000
,
1000
0000
0001
0000
0100
0000
0000
0000
1010
0000
0000
0101
0000
0000
0000
0000
,
0011
0000
0000
1100
0000
0000
0000
0000
0110
0000
0000
1001
0000
0000
0000
0000
,
0010
0000
1000
0000
0100
0000
1000
0000
0101
0000
0000
1100
0000
0000
0000
0000
,
1010
0000
0000
0011
0000
0000
0000
0000
1100
0000
0000
0101
0000
0000
0000
0000
,
1001
0000
0001
0001
,
1000
0000
1000
0000
0001
0100
1000
0100
,
0001
0100
1000
0100
0001
0000
0001
0000
,
0010
0000
0010
0000
0100
1000
0010
1000
,
0100
1000
0010
1000
0001
0000
0010
0000
,
0100
1000
0001
0010
,
0100
1000
0001
0010
,
0100
1000
1100
0001
,
0010
0001
0011
0011
,
0011
0011
0011
0011
,
0011
0011
0001
0001
,
0001
0001
0001
0001
,
0001
0000
0001
0000
0010
0100
0010
0100
,
0010
0000
0100
0000
0010
0100
0010
0100
,
0010
0100
1000
0010
,
0100
0001
1001
0000
,
0010
0100
1001
1000
,
0100
0001
0010
0010
,
0100
0100
0001
1000
,
0100
0000
0001
0000
0010
0100
0010
0000
,
0100
0100
1000
1000
,
0001
0001
0010
0010
,
0001
0100
0001
0001
,
0010
0010
0100
0100
,
1000
0001
1000
0000
1100
0000
0001
0000
,
0001
0001
1000
0010
,
0100
0001
1000
1000
,
1000
0000
1000
0000
0010
0100
0010
0000
,
1000
0000
1000
0000
1100
0000
0010
0001
,
0010
0000
0100
0000
1100
0000
0010
0001
,
0010
0100
1100
0100
,
1100
0100
0011
0000
,
0011
0011
0001
0010
,
0100
1000
0001
0010
,
0100
1000
0010
0010
,
1001
0100
0010
0010
,
1001
0100
1000
0010
,
0100
0001
1000
0010
,
0100
0000
0001
0000
1000
0000
1000
0001
,
1000
0000
1000
0000
0010
0100
0010
1000
,
0100
1000
0001
0100
0021
0000
0100
0000
,
1000
0100
1000
0100
,
0031
0100
1020
0100
,
0001
0130
1000
0100
,
0010
0001
1000
1000
,
0100
0010
0100
0000
1000
0000
1000
0000
,
0010
0100
0010
0000
2002
0000
0000
0000
,
0000
3003
1100
0000
,
0101
0000
1001
0000
0100
1000
0010
1000
,
0000
0001
1000
0100
0010
0001
1000
0010
,
0000
0100
0001
0010
0001
0100
0001
1000
,
0000
0110
0000
1001
0000
1010
0000
0101
,
0000
1000
0100
0000
0010
0100
1000
0010
,
0000
0100
0001
1000
0100
0001
0100
1000
,
0000
0001
0010
1000
0010
0001
0100
1000
,
0000
0101
0000
1100
0000
1010
0000
0001
,
0011
0011
1001
0110
,
1000
0001
0100
0000
0011
0000
1100
0000
,
0010
0001
0100
0000
1000
0100
0001
0000
,
1000
0010
0001
0000
0100
0010
1000
0100
,
0010
0100
1000
0000
0001
0000
0100
0020
,
0000
0200
0030
0301
1000
0000
0010
0200
,
0000
0020
0300
1030
0001
0000
1000
0200
,
0000
0001
0300
0100
2002
0000
0000
0000
,
0000
3003
1010
0001
,
0010
0100
0010
0000
1000
0000
0010
0000
,
0100
0001
0100
0000
0110
0000
1000
0000
,
0001
1000
0001
0000
0010
0000
0100
0000
,
1000
0100
1000
0000
0011
0000
1000
0000
,
0010
0100
0010
0000
0001
0000
0010
0000
,
0100
1000
0100
0000
0110
0000
0001
0000
,
1000
0001
1000
0000
0010
0000
0100
0000
,
0001
0000
0100
0000
0001
0000
0000
0000
1000
0000
0000
1000
0000
0000
1000
0000
,
0001
0000
0010
0000
0001
0000
0100
0000
0010
0000
0000
0010
0000
0000
0010
0000
,
1000
0000
0001
0000
1000
0000
0100
0000
0001
0000
0000
0001
0000
0000
0001
0000
,
0100
0000
1000
0000
0100
0000
0010
0000
0100
0000
0000
0100
0000
0000
0100
0000
,
1000
0000
0001
0000
1000
0000
0100
0000
0010
0000
0000
0001
0000
0000
0100
0000
,
1000
0000
0100
0000
0001
0000
1000
0000
0100
0000
0000
0010
0000
0000
0001
0000
,
1000
0000
0010
0000
1000
0000
0100
0000
0010
0000
0001
0010
0000
0001
0010
0000
,
0001
0000
0100
0000
0001
0000
0100
0000
0010
0000
1000
0010
0000
1000
0010
0000
,
1000
0100
1000
0100
1000
0000
0010
0100
,
0010
0000
1000
0000
0100
0000
0001
0100
,
0001
0000
0100
0000
0010
0000
0001
1000
,
0100
0000
0010
0001
0100
0000
0101
0000
,
1000
0000
0100
0100
0100
0000
0010
0001
,
0010
0000
0100
0000
1000
0000
0001
1000
,
0001
0000
0100
0000
0010
0000
1000
0001
,
0100
0000
0010
1000
0100
0000
1100
0000
,
0001
0000
1000
0001
2001
0000
0010
0000
,
0200
3000
0010
0001
,
1000
0000
0300
0000
0001
1000
0010
0000
,
1000
0100
0001
0000
0100
0000
0110
0000
,
1000
0000
0001
1000
1002
0000
0010
0000
,
0100
0203
0010
1000
,
0001
0000
0301
0000
1000
0001
0010
0000
,
0001
0100
1000
0000
0100
0000
0110
0000
,
0001
1001
0220
0000
,
0000
0000
0330
0000
;

//---------------dance-double - ----------------
#NOTES:
     dance-double:
     :
     Easy:
     6:
     :
00000000
00000000
00000000
00000000
,
00000000
00000000
00000000
00000000
,
00000000
00000000
00000000
00000000
,
00000000
00000000
00000000
00000000
,
00000000
00000000
00000000
00000000
,
00001001
00000000
00000000
00000000
,
00010000
00000000
00000000
00000000
,
00001000
00000000
00010000
00000000
,
00010000
01000000
00010000
00001000
,
00002000
00000000
00000000
00000000
,
00000000
00000000
00003000
00011000
,
00010000
00010000
01000000
01000000
,
00010000
00010000
00001000
00001000
,
00000010
00000010
00000000
00000010
,
00000100
00001000
00000000
00010000
,
00001000
00010000
01000000
10000000
,
01000000
10000000
00100000
00100000
,
10000000
01000000
00010000
00001000
,
00000100
00000000
00000110
00000000
,
00000001
00000001
00000100
00001000
,
00010000
00000000
00010000
00000000
,
00000010
00001000
00000100
00000001
,
00000100
00000000
00000100
00000000
,
00001000
00001000
00010000
00010000
,
00001000
00010000
01000000
10000000
,
00100000
00100000
00100000
00100000
,
10000000
00010000
10000000
00010000
,
01000000
01000000
00001000
00001000
,
00010000
00001000
00000100
00000001
,
00000011
00000000
00000110
00000000
,
00001010
00000000
00011000
00000000
,
00000000
00000000
00020000
00000000
,
00000000
00000000
00000000
00000000
,
00000000
00030000
20000000
00000000
,
00000000
00000000
00000000
00000000
,
00000000
30000000
10000000
00000000
,
00000000
00000000
00010000
00000000
,
00000000
00000000
00001000
00000000
,
00000001
00000000
00000100
00000100
,
00000010
00000010
00001000
00000000
,
00000001
00000000
00000100
00001000
,
00011000
00000000
00010000
00000000
,
01000000
00000000
00100000
00010000
,
01000000
00000000
10000000
00000000
,
01000000
00000000
00010000
00010000
,
00001000
00001000
00000010
00000000
,
00000001
00000000
00000100
00001000
,
00000010
00000000
00001000
00000000
,
00010000
00000000
01000000
01000000
,
00100000
00100000
00010000
00000000
,
00001000
00000000
00000010
00000000
,
00000001
00000100
00000001
00000000
,
00001000
00000000
00010000
00000000
,
00100000
01000000
10000000
00000000
,
00100000
00000000
00010000
00000000
,
00001000
00000100
00000001
00000000
,
00001000
00000000
00000100
00000000
,
00011000
00000000
01000000
00000000
,
00100000
00000000
10000000
10000000
,
01000000
01000000
00010000
00000000
,
00001000
00000000
00000010
00000010
,
00000001
00000001
00000001
00000000
,
00000010
00000000
00000100
00000000
,
00001000
00000000
00010000
00000000
,
00100000
00000000
01100000
00000000
,
01100000
00000000
10000000
10000000
,
10000000
10000000
00010000
00010000
,
00010000
00010000
00001000
00001000
,
00001000
00001000
00000001
00000001
,
00000001
00000001
00001000
00000000
,
00010000
00001000
00010000
00000000
,
00001000
00010000
00100000
00000000
,
01000000
01000000
01010000
00000000
,
00000000
00000000
00100000
00000000
,
00010000
00000000
00100000
00000000
,
00001000
00000000
00010000
00000000
,
00000100
00000000
00001000
00000000
,
00000100
00000000
00000001
00000000
,
00001000
00000000
00010000
00000000
,
10000000
00000000
01000000
00000000
,
00001000
00000000
00010000
00000000
,
00000100
00010000
00001000
00000000
,
00010000
00010000
00100000
00000000
,
00001000
00001000
00000100
00000000
,
00010000
00010000
01000000
00000000
,
00001000
00010000
00011000
00000000
,
00000100
00000000
00000101
00000000
,
00000100
00000000
00011000
00000000
,
00011000
00000000
00011000
00000000
,
01010000
01010000
10010000
10000000
,
10000000
10000000
00010000
00010000
,
00010000
00010000
01000000
00000000
,
00100000
00000000
00010000
00000000
,
00001000
00000000
00000010
00000000
,
00000100
00000000
00010000
00000000
,
01000000
00000000
00100000
00000000
,
00001000
00000000
00010000
00001000
,
00010000
00000000
00000200
00000000
,
00000000
00000000
00000000
00000000
,
00000300
00000000
02000000
00000000
,
00000000
03000000
00010000
01000000
,
00010000
00000000
00100000
00000000
,
00010000
00001000
00000100
00000000
,
00001000
00010000
01000000
00000000
,
00010000
00001000
00011000
00000000
,
00011000
00000000
00000010
00000100
,
00000000
00000100
00000001
00001000
,
00000000
00000001
00000100
00001000
,
00000000
00010000
00100000
00100000
,
01000000
01000000
00100000
10000000
,
00000000
00100000
01000000
10000000
,
00000000
00010000
00001000
00000010
,
00000000
00000001
00000100
00001000
,
00011000
00011000
00000010
00000100
,
00000001
00000001
00001000
00010000
,
00001000
00001000
00010000
00100000
,
10000000
00100000
01000000
00001000
,
00010000
00100000
01000000
00001000
,
00010000
00010000
00000100
00001000
,
00000001
00000001
00000010
00000001
,
00000100
00000001
00001000
00000010
,
00011000
00011000
00100000
10000000
,
00100000
10000000
01000000
10000000
,
01000000
10000000
01000000
00010000
,
01000000
00010000
00001000
00010000
,
00001000
00000000
00000010
00000001
,
00000010
00000001
00000100
00000001
,
00000100
00000001
00000100
00001000
,
00000100
00001000
00010000
00001000
,
00010000
00000000
00000001
00000100
,
00001000
00000100
00001000
00010000
,
00100000
00010000
00001000
00010000
,
01000000
00010000
01000000
10000000
,
00100000
10000000
01000000
00010000
,
00001000
00010000
01000000
00010000
,
00001000
00010000
00001000
00000010
,
00000001
00000100
00001000
00010000
,
00011000
00011000
00100000
10000000
,
00010000
00010000
00100000
00000000
,
01000000
10000000
00100000
00100000
,
00010000
00010000
00001000
00000100
,
00000001
00000000
00000001
00000001
,
00001000
00001000
00000010
00000000
,
00000100
00000001
00000010
00000010
,
00001000
00001000
00010000
01000000
,
10000000
00100000
02000000
00010000
,
00010000
03000000
00200000
01000000
,
01000000
00300000
10000000
00100000
,
00010000
00001000
00000010
00001000
,
00010000
00001000
00000200
00000010
,
00000001
00000301
00002000
00000010
,
00000100
00003100
00000010
00000010
,
00000001
00000001
00000100
00001000
,
00010000
01000000
01100000
00000000
;

//---------------dance-double - ----------------
#NOTES:
     dance-double:
     :
     Medium:
     9:
     :
00000000
00000000
00000000
00000000
,
00000000
00000000
00000000
00000000
,
00000000
00000000
00000000
00000000
,
00000000
00000000
00000000
00000000
,
00000000
00000000
00000000
00000000
,
00001001
00000000
00000000
00000000
00000000
00000000
00000000
00000010
,
00001000
00000000
00000000
00000000
,
00010000
00100000
10000000
01000000
,
00010000
00001000
00010000
00000000
00001000
00100000
00001000
00100000
,
00002000
00000000
00000000
00000000
,
00000000
00000000
00003000
00011000
,
01100000
00110000
01000000
01000000
,
00001000
00001010
00010000
00010000
,
00100000
01010000
00000000
01001000
,
00010000
00000010
00000100
00000001
,
00000100
00001010
00000000
00000100
,
00010000
00110000
00001000
00001000
,
00000010
00001100
00000000
00010100
,
00001000
00010000
00100000
00000000
,
10000000
00000000
00100000
00000000
00010000
00000000
00100000
00010000
,
00001000
00000000
00010000
00000000
00000100
00000000
00000010
00000001
,
00000100
00000110
00000000
00001001
,
00000010
00010000
00001000
01000000
,
00100000
10000000
01000000
00010000
,
00001000
00000000
00000010
00000000
00000100
00000000
00010000
00100000
,
10000000
00100000
01000000
00001000
,
00010000
00000000
00000010
00000110
,
00002000
00000001
00000010
00003100
,
00020000
00001000
00000010
00030100
,
00010000
01000000
10000000
00000000
00100000
00010000
00001000
00000000
,
00000100
00001000
00010000
00000000
00022000
00000000
00000000
00000000
,
00000000
00033000
00100000
00010000
,
10000000
01000000
00100000
00001000
,
00010000
00000010
00000100
00000001
,
00001000
00000010
00000100
00001000
,
00010000
00100000
10000000
01000000
,
00100000
00001000
00010000
00000010
,
00000100
00000001
00001000
00000000
,
00000010
00000000
00001000
00010000
,
00100000
10000000
00010000
00010000
,
10000000
10000000
01000000
00010000
,
00011000
00000000
00000010
00000001
,
00000100
00001000
00010000
00010000
,
00100000
00100000
10000000
01000000
,
00010000
00001000
00000100
00000100
,
00000001
00000001
00000010
00000100
,
00001000
00010000
01000000
01000000
,
00100000
00100000
10000000
00010000
,
00100000
01000000
00010000
00001000
,
00010000
00011000
00002020
00003030
,
00000202
00000303
00000022
00000033
,
00001000
00010000
00100000
00000000
20200000
00000000
30300000
00000000
,
00220000
00330000
22000000
33000000
,
00010000
00001000
00000010
00000000
00002002
00000000
00003003
00000000
,
00000220
00000330
00000202
00000303
,
00001000
00010000
00100000
00000000
22000000
00000000
33000000
00000000
,
02020000
03030000
02200000
03300000
,
10010000
00000000
10000000
10000000
,
01000000
01000000
00010000
00001000
,
00000010
00000001
00000100
00000100
,
00000010
00000010
00000100
00001000
,
00010000
00100000
10000000
01000000
,
00100000
00010000
00001000
00000100
,
00000010
00000001
00000001
00000010
,
00000100
00001000
00011000
00000000
,
00011000
00000000
10010000
10010000
,
10010000
10010000
00011000
00011000
,
00011000
00011000
00001000
00001000
,
00001000
00001000
00010000
00010000
,
00010000
00010000
00000010
00000000
,
00010000
01000000
10000000
00000000
,
00010000
00001000
00000001
00000000
,
00000100
00000100
00011000
00000000
,
00000000
00000000
10000000
10000000
,
01000000
01000000
00100000
00100000
,
00001000
00001000
00010000
00010000
,
00000100
00000100
00001000
00001000
,
00000001
00000001
00000010
00000010
,
00010000
00010000
00100000
00100000
,
10000000
10000000
00010000
00010000
,
10000000
01000000
00010000
00010000
,
00000100
00001000
00010000
01000000
,
01000000
01000000
00100000
00010000
,
00001000
00000100
00000010
00000010
,
00000010
00000010
00000100
00000100
,
00001000
00010000
01010000
01000000
,
00001000
00000000
00000101
00000010
,
00010000
00000000
01010000
00000000
,
01010000
00000000
00011000
00000000
,
00001100
00001100
00000001
00000010
,
00000100
00001000
00010000
00100000
,
01000000
10000000
10000000
01000000
,
00100000
00010000
00001000
00000100
,
00000010
00000001
00001000
00000010
,
00001001
00000100
00010000
00100000
,
10010000
01000000
00001000
00000010
,
00001001
00000000
00000100
00000000
00010000
00000010
00010000
00000010
,
00010000
00000100
00010000
00000000
00021000
00000000
00001000
00000000
,
00001000
00001000
00001000
00001000
,
00031000
00000000
20010000
00010000
,
00010000
30010000
01000000
00001000
,
00010000
00000100
00000010
00000010
,
00001000
00010000
00001000
00000000
00100000
00000000
00100000
00000000
,
00001000
00010000
00001000
00000000
01010000
00000000
00000000
00000000
,
00000000
00000000
00011000
00000000
,
00001001
00000000
00000010
00000100
,
00000010
00001000
00000100
00000000
00010000
00000000
00001000
00000000
,
00000010
00000100
00001000
00000000
00010000
00000000
00100000
00000000
,
01000000
10000000
01000000
00000000
00100000
10000000
00100000
00000000
,
00010000
00001000
00010000
00000000
00000100
00000000
00000010
00000000
,
00000001
00000010
00000100
00000000
00001000
00000000
00000001
00000000
,
00000100
00001000
00010000
00000000
00100000
00000000
10000000
00000000
,
00010000
01000000
00010000
00000000
00100000
00000000
00001000
00000000
,
00011000
00000000
00011000
00000000
00100000
00000000
01000000
10000000
,
00000000
10000000
01000000
00000000
00010000
00000000
00001000
00010000
,
00000000
00010000
00001000
00000000
00000010
00000000
00000001
00000000
,
00000100
00001000
00000110
00001001
,
00000010
00001000
00010000
00000000
01000000
00000000
00100000
01000000
,
00000000
00010000
10000000
00000000
01000000
00000000
10000000
00100000
,
00000000
10000000
01000000
00000000
00100000
00000000
00001000
00000000
,
00010000
00000100
00000011
00001100
,
00000101
00000101
00001001
00000010
,
00001000
00000100
00010000
00001000
,
01000000
00100000
01100000
10000000
,
01000000
00010000
01000000
10000000
,
01000000
00010000
00011000
00000010
,
00000001
00000010
00001000
00000010
,
00000001
00000010
00000101
00001000
,
00010000
00001000
00000100
00001000
,
00010000
00100000
10010000
00100000
,
00010000
00001000
00000100
00000001
,
00000010
00001000
00011000
00100000
,
10000000
01000000
00010000
00001000
,
00000010
00000001
00000110
00001000
,
00010000
00100000
01100000
10000000
,
01000000
00010000
00011000
00000100
,
00000001
00000010
00001010
00010000
,
00110000
10100000
00100000
00100000
,
01000000
00100000
01000000
00000000
10000000
00000000
00000000
00000000
,
00010000
00000000
00110000
00000000
01000000
00000000
10000000
00100000
,
10000000
01000000
00010000
00011000
,
00000100
00000110
00000001
00000001
,
00000010
00000001
00000010
00000000
00000100
00000000
00000000
00000000
,
00001000
00000110
00000100
00000001
,
00000010
00001000
00010000
00100000
,
10000000
01000000
00020000
00001000
,
00000100
00030000
00002000
00010000
,
01000000
00003000
00010000
01010000
,
10000000
10100000
00010000
10000000
,
01000000
00010000
00002000
00000010
,
00010000
00013000
00020000
00100000
,
00001000
00000000
00031000
00000000
00000010
00001000
00000001
00000000
,
00000010
00000001
00000100
00000000
00001000
00000000
00011000
00000000
,
01000000
01100000
10010000
00000000
;

//---------------dance-double - ----------------
#NOTES:
     dance-double:
     :
     Hard:
     13:
     :
00000000
00000000
00000000
00000000
,
00000000
00000000
00000000
00000000
,
00000000
00000000
00000000
00000000
,
00000000
00000000
00000000
00000000
,
00000000
00000000
00000000
00000000
,
00001001
00000000
00000000
00000000
00000000
00000000
00000000
00010000
,
00010100
00000000
00000000
00000000
,
00100000
00000000
10000000
00000000
01000000
00010000
00001000
00000100
,
00000010
00000100
00001000
00010000
01000000
00100000
01000000
00010000
,
00002000
00000000
00000000
00000000
,
00000000
00000000
00003000
00011000
,
00100000
11000000
00110000
01010000
,
00100000
01001000
00010000
00010100
,
00000010
00000100
00000001
00001000
00000010
00001000
00000100
00000000
,
00000010
00010000
00000100
00010000
00001000
00100000
00010000
00000000
,
00100000
00000000
10000000
00000000
01000000
00000000
00010000
00001000
,
00010000
01000000
00100000
00000000
10000000
00000000
01000000
00010000
,
00001000
00000100
00000001
00000100
,
00001100
00000101
00002002
00003003
,
00000010
00000101
00001010
00001100
,
00000010
00010100
00001000
01001000
,
00100000
01000000
10000000
00010000
00100000
00010000
01000000
00000000
,
00100000
00001000
01000000
00001000
00010000
00000010
00000100
00000001
,
00000010
00000000
00000001
00000010
00000100
00000000
00001000
00001000
,
00010000
00000000
00100000
00010000
01000000
00000000
10000000
10000000
,
01000000
00010000
01000000
10000000
,
00010000
01000000
10000000
01000000
00010000
00001000
00000100
00000000
,
00000001
00001100
00000010
00011000
,
00100000
01010000
10000000
01100000
,
10010000
00000000
00000000
10000000
00000000
00000000
01000000
00000000
00100000
00000000
00000000
00010000
00000000
00000000
00001000
00000000
,
00000100
00000000
00000000
00000010
00000000
00000000
00000001
00000000
00002001
00000000
00000000
00000000
00000000
00000000
00000000
00000000
,
00000000
00000000
00000000
00000000
00003001
00000010
00000100
00001000
,
00000001
00000100
00000010
00001000
00000100
00000010
00001000
00000010
,
00000100
00010000
00001000
01000000
00100000
10000000
00010000
01000000
,
00100000
10000000
01000000
00100000
00001000
00010000
00100000
00010000
,
00001000
00000100
00000010
00000100
00001000
00010000
00000100
00001000
,
00000001
00000100
00000010
00001000
00000100
00010000
00000010
00010000
,
00001000
01000000
00010000
00100000
10000000
00000000
00000000
01000000
,
00010000
00000000
00000000
00001000
00000010
00000000
00000100
00000000
,
00010000
00000010
00001000
00000100
00010000
00000000
00100000
00000000
,
10000000
00000000
01000000
00000000
00100000
01000000
00100000
00000000
,
01000000
00010000
00000000
00000000
00001000
00000000
00000100
00000000
,
00000010
00000100
00001000
00000000
00000010
00000000
00000100
00000000
,
00000001
00000000
00000010
00001000
00010000
00000000
00100000
00000000
,
01000000
00100000
00010000
00000000
10000000
00000000
01000000
00000000
,
00010000
01000000
00100000
00010000
,
00001000
00000100
00000010
00000000
00001000
00000000
00000100
00000000
,
00000010
00000000
00000001
00000100
00001000
00000000
00010000
00000000
,
00100000
10000000
01000000
00000000
10000000
00000000
00010000
00000000
,
01000000
00000000
00100000
00000000
01000000
00000000
00000000
00000000
10000000
00000000
00000000
01000000
00000000
00000000
10000000
00000000
,
00010000
00000000
00000000
01000000
00000000
00000000
00010000
00000000
00100000
00000000
00000000
01000000
00000000
00000000
00100000
00000000
,
00010000
00000000
00001000
00000000
00000100
00000000
00000010
00000000
00000001
00000000
00000000
00000100
00000000
00000000
00000001
00000000
,
00001000
00000000
00000000
00000100
00000000
00000000
00001000
00000000
00000010
00000000
00000000
00000100
00000000
00000000
00000010
00000000
,
00001000
00000000
00010000
00000000
01000000
00000000
00000000
00000000
00100000
00000000
00000000
00100000
00000000
00000000
10000000
00000000
,
00010000
00000000
00000000
00010000
00000000
00000000
00100000
00000000
01000000
00000000
00000000
01000000
00000000
00000000
10000000
00000000
,
00100000
00000000
00010000
00000000
00001000
00000000
00000010
00000000
00000001
00000000
00000000
00000001
00000000
00000000
00000100
00000000
,
00000010
00000000
00000000
00000010
00000000
00000000
00000100
00000000
00000001
00000000
00000000
00000001
00000000
00000000
00000010
00000000
,
00000100
00010000
00001000
01000000
00100000
00000000
00100000
00000000
,
10000000
00000000
10000000
00000000
01000000
10000000
01000000
10000000
,
01000000
00010000
01000000
00010000
00001000
00000000
00001000
00000000
,
00000010
00000000
00000010
00000000
00000001
00000010
00000001
00000010
,
00000001
00000100
00000001
00000100
00001000
00000000
00010000
00000000
,
00100000
00010000
00001000
00000100
,
00000010
00000001
00000001
00000010
,
00000100
00001000
00011000
00000000
,
00011000
01000000
10010000
10010000
,
10010000
10010000
00011000
00011000
,
00011000
00011000
00000100
00000010
,
00000100
00001000
00010000
00100000
,
01000000
00000000
00010000
00000000
00000010
00001000
00000010
00001000
,
00000010
00000000
00010000
00000000
01000000
10000000
01000000
10000000
,
01000000
10000000
00100000
00010000
,
00001000
00000010
00000011
00000000
,
00011000
00000000
10100000
10000000
,
01000000
00010000
00001000
00000010
,
00000001
00000100
00000001
00001000
,
00000100
00000001
00000100
00001000
,
00010000
00000000
10000000
10000000
,
00010000
00010000
01000000
01000000
,
00001000
00000000
00010000
00000000
00000010
00001000
00000100
00000000
,
00010000
00000000
00001000
00000000
00100000
00010000
01000000
00000000
,
00001000
00010000
00011000
00000100
,
00000001
00000001
00000010
00001000
,
00010000
01000000
10000000
10000000
,
10000000
00000000
10000000
00000000
00100000
01000000
00100000
00000000
,
00010000
00000000
00010000
00000000
00001100
00000000
00000010
00000001
,
00000010
00000000
00000100
00000000
00001100
00000000
00010000
00001000
,
00010000
01000000
11000000
01000000
,
11000000
01000000
00110000
00000000
,
00001100
00001100
00000001
00000010
,
00000100
00001000
00010000
00100000
,
01000000
10000000
00100000
00100000
,
10010000
01000000
00001000
00001000
,
00000110
00000001
00000010
00000100
,
00010000
00001000
00100000
01000000
,
10000000
00000000
00010000
00000000
01000000
00000000
01000000
00010000
,
01000000
00000000
01000000
00000000
00001000
00010000
00001000
00010000
,
00001000
00001000
00012000
00000100
,
00000001
00000010
00010000
00000100
,
00003001
00000010
00021000
00100000
,
10000000
01030000
00001000
00000100
,
00000001
00001000
00000100
00000100
,
00010000
00001000
00010000
00000000
01000000
00000000
01000000
00000000
,
00010000
00001000
00010000
00000000
00001100
00000000
00000010
00000000
,
00000001
00000100
00001100
00010000
,
00011000
00000000
01000000
00000000
01000000
00010000
00100000
00010000
,
01000000
00000000
00001000
00000000
00010000
00000010
00001000
00000100
,
00010000
00000000
00001000
00000000
00000010
00000001
00001000
00000000
,
00000110
00001100
00011000
00110000
,
11000000
00000000
01010000
00000000
00100000
01000000
00010000
00100000
,
01000000
00000000
00010000
00000000
00001000
00000100
00000001
00000100
,
00001000
00000000
00000010
00000000
00000100
00000001
00000010
00000000
,
00001100
00011000
00010010
01001000
,
00110000
00000000
00000000
00000000
00110000
00000000
00000000
00000000
00010000
00000000
00000000
00010000
01000000
00000000
00000000
01000000
,
00001000
00000000
00010000
00000000
00000100
00000000
00000000
00000000
00000010
00000000
00000000
00000001
00001000
00000000
00000000
00001000
,
00000100
00000000
00010000
00000000
00001000
00000000
00000000
00000000
01000000
00000000
00000000
01000000
00100000
00000000
00000000
00000000
,
10010000
01010000
00011000
00001010
,
00000011
00000000
00000000
00000000
00001100
00000000
00000000
00000000
00000010
00000000
00000000
00000010
00000100
00000000
00000000
00000100
,
00010000
00000000
00000010
00000000
00001000
00000000
00000000
00000000
00000001
00000000
00000000
00000001
00000100
00000000
00000000
00000100
,
00001000
00000000
00010000
00000000
00100000
00000000
00000000
00000000
01000000
00000000
00000000
01000000
00010000
00000000
00000000
00000000
,
11000000
00110000
00010010
00101000
,
00011000
00011000
00010100
00001000
,
00000010
00001000
00000010
00000000
00000100
00000000
00000001
00000000
,
00001000
00000100
00001000
00000000
00011000
00000000
00100000
00000000
,
01000000
00010000
01000000
00000000
00100000
00000000
00010000
00000000
,
00001000
00010000
00001000
00000000
00000011
00000000
00001000
00000000
,
00000100
00000010
00000100
00000000
00001000
00000000
00000010
00000000
,
00000100
00000001
00000100
00000000
00001001
00000000
00000010
00000000
,
00000100
00001000
00000100
00000000
00000010
00000010
00010000
00001000
,
00010000
00001000
00010000
00001000
00010000
00001000
00010000
00001000
00010000
00000000
00000000
00010000
00000000
00000000
00010000
00000000
,
01000000
00000000
00010000
00000000
01000000
00000000
00010000
00000000
00001000
00000000
00000000
00001000
00000000
00000000
00001000
00000000
,
00000010
00000000
00001000
00000000
00000010
00000000
00001000
00000000
00010000
00000000
00000000
00010000
00000000
00000000
00010000
00000000
,
00100000
00000000
10000000
00000000
00100000
00000000
00010000
00000000
00001000
00000000
00000000
00001000
00000000
00000000
00001000
00000000
,
00000100
00000000
00000001
00000000
00000100
00000000
00001000
00000000
00010000
00000000
00000000
01000000
00000000
00000000
10000000
00000000
,
00100000
00000000
01000000
00000000
00010000
00000000
00100000
00000000
01000000
00000000
00000000
00010000
00000000
00000000
00001000
00000000
,
00000010
00000000
00000001
00000000
00000100
00000000
00000010
00000000
00001000
00000000
00000000
00000100
00000000
00000000
00000010
00000000
,
00000001
00000000
00000100
00000000
00001000
00000000
00010000
00000000
00100000
00000000
00000000
10000000
00000000
00000000
01000000
00000000
,
00010000
00001000
00010000
00001000
01000000
00000000
00010000
00100000
,
01000000
00000000
00010000
00000000
01000000
00000000
10000000
01000000
,
10000000
00000000
01000000
00000000
00100000
00000000
10000000
00010000
,
01000000
00000000
00100000
10000000
01000000
00000000
01010000
00000000
,
00001000
00000000
00000100
00000100
00000100
00000000
00000010
00000100
,
00000010
00000000
00001000
00000000
00000100
00000000
00000001
00000100
,
00000001
00000000
00000100
00000000
00000010
00000000
00000001
00001000
,
00000100
00000000
00000010
00000001
00000100
00000000
00001100
00000000
,
00010000
00000000
01000000
01000000
20000000
00000000
00100000
00000000
,
02000000
30000000
00100000
00010000
,
10000000
00000000
03000000
00000000
00100000
10000000
01000000
00000000
,
01000000
00010000
00001000
00000000
00000100
00000000
00000101
00000000
,
00000010
00000000
00001000
00001000
00020000
00000000
00100000
00000000
,
00001000
00032000
00010000
00000010
,
00010000
00000000
00013000
00000000
00010000
00001000
00000100
00000000
,
00001000
00010000
01000000
00000000
10000000
00000000
10100000
00000000
,
01000000
01010000
20020000
00000000
,
00000000
00000000
30030000
00000000
;
