#TITLE:Xmix2 (Beats 'n Bangs);
#ARTIST:DJ Inhabit;
#BANNER:Xmix2 (Beats 'n Bangs).png;
#BACKGROUND:Xmix2 (Beats 'n Bangs)-bg.png;
#CDTITLE:./CDTitles/DDR X.png;
#MUSIC:Xmix2 (Beats 'n Bangs).ogg;
#SAMPLESTART:2.52;
#SAMPLELENGTH:15;
#DISPLAYBPM:88:146;
#BPMS:0=95,35=94,36=88,68=94.1,92=93.9,100=93.7,104=94.5,108=93.8,113=95.2,116=94,117=95,119=94.3,124=94,129=93,131=94.1,134=93,137=91,138=94,140=106.6,172=107.5,227=113.5,227.5=108.5,228.5=112.5,229=117.5,230=123,231=126,232=133,233=139,233.5=138,234=142,234.5=138,235=148;
#STOPS:214=0.558,250.5=0.203,258=0.203,262.5=0.2,263=0.203;
#STAGE:4;

//---------------dance-single - ----------------
#NOTES:
     dance-single:
     :
     Easy:
     5:
     :
0000
0000
0000
0000
,
0000
0000
0000
0000
,
0000
0000
0000
0000
,
0100
0000
1000
0000
,
0001
0000
0000
0000
,
1000
0000
0001
0001
,
1000
0000
0100
0000
,
1000
0000
0001
0001
,
1001
0000
0000
0000
,
0001
0000
1000
0000
,
0100
0000
0001
0000
,
0100
0000
1000
0000
,
0001
0000
0000
0000
,
0010
0000
0001
0000
,
0100
0000
1000
0000
,
0100
0000
0001
0000
,
0010
0000
0000
0000
,
0010
0010
0010
0000
,
0010
0010
0010
0000
,
0001
0000
0010
0000
,
1000
0001
0010
0000
,
0100
0000
0001
0000
,
0010
1000
0001
0000
,
1000
0001
1000
0000
,
0010
0100
0010
0000
,
0001
1000
0001
0000
,
0100
0001
0100
0000
,
1000
0100
0010
0000
,
0001
0001
1000
1000
,
0010
0001
0100
0000
,
1000
1000
0001
0001
,
0010
0001
1000
0000
,
0100
0100
0010
0010
,
1000
0100
0001
0000
,
0100
0001
1000
0100
,
1000
0001
0000
1000
,
1000
0001
0000
1000
,
0001
0010
0000
0010
,
0000
0000
0000
0000
,
1000
0001
0000
0100
,
1000
0001
0100
0100
,
1000
0001
0100
0010
,
0200
0000
0000
0300
,
0002
0003
2000
3000
,
0001
1000
0100
0100
,
0020
0030
0200
0300
,
0110
0000
0000
1000
,
0001
0100
0001
0100
,
0010
1000
0010
0100
,
0001
1000
0001
1000
,
0020
0030
0200
0300
,
0001
0001
1000
1000
,
0100
0010
0100
0010
,
0001
0001
1001
2000
,
3000
0002
0003
0100
,
0100
0010
0010
1000
,
0001
1000
0000
0100
,
0100
0010
0010
0002
,
0003
2000
3000
0010
,
0000
0001
0000
1000
,
0100
1000
0010
0001
,
0000
0100
0000
0001
,
0001
1000
0001
1000
,
0100
0010
0100
1000
,
0010
0001
0000
1000
,
0001
0100
0010
0100
,
0000
0010
0000
1000
,
0000
0100
1000
0010
,
0001
0100
0000
0001
,
0000
1000
0100
0010
,
1000
0001
0001
0100
,
0100
0010
0010
1000
,
1000
0001
0001
1000
,
0001
0100
0010
1000
,
0100
0001
0000
1000
,
0000
0100
0000
0010
,
0100
1000
0000
0001
,
0000
0100
0000
0010
,
0100
0001
0001
1000
,
1000
0100
1000
0010
,
0100
0001
0001
1000
,
0001
0100
0100
0010
,
0100
0000
0000
0000
;

//---------------dance-single - ----------------
#NOTES:
     dance-single:
     :
     Medium:
     8:
     :
0000
0000
0000
0000
,
0000
0000
0000
0000
,
0000
0000
0000
0000
,
0010
0100
0010
0010
,
0100
0100
0100
0000
2002
0000
3003
0000
,
0100
0000
0010
0000
0100
0000
0001
0001
,
0001
1000
1001
0000
,
0100
0000
1000
0000
0010
0000
1000
1000
,
0100
0100
0000
0000
0000
0000
0000
0000
,
0001
0001
0000
1000
1000
0000
0100
0000
,
0010
0010
0000
0001
0001
0000
1000
0000
,
0010
0010
0000
0100
0100
0000
0001
0000
,
1000
0100
0001
0100
,
1000
0010
0000
0100
1000
0000
0100
0000
,
0001
0010
0000
0100
0001
0000
0100
0000
,
1000
0001
0000
0001
1000
0000
0001
0000
,
1000
0100
0001
0100
,
0100
0001
0100
0000
,
0100
1000
0100
0000
,
0010
0000
0001
1000
0100
0000
0000
0000
,
0001
1000
0100
0001
,
0010
0000
1000
0001
1000
0000
0000
0000
,
0100
0001
1000
0010
,
0001
0000
1000
0100
0001
0000
0000
0000
,
0100
0010
0100
0001
,
1000
0000
0010
0100
1000
0000
0000
0000
,
0010
1000
0010
0001
,
0001
0000
0010
0000
0100
1000
0010
0000
,
1000
0000
0100
0000
0010
0001
0100
0000
,
0001
0000
1000
0000
0010
1000
0001
0000
,
0010
0001
0010
1000
,
0100
0000
1000
0000
0010
0100
0001
0000
,
0010
0000
0100
0000
0010
0100
0010
0000
,
0001
0000
0010
0000
0001
1000
0010
0000
,
0100
1000
0001
0010
,
2200
0000
0000
0300
3000
0001
0001
0000
,
2002
0000
0000
3000
0003
0100
0100
0000
,
0220
0000
0000
0300
0030
1000
1000
0000
,
2002
0000
0000
3003
,
2100
0000
0010
0000
3000
0001
0010
0000
,
0201
0000
0010
0000
0300
0001
0010
0000
,
0102
0000
1000
0000
0003
0100
0010
0000
,
0010
0010
0010
0010
0100
0000
0100
0000
,
1000
0000
1000
0000
0001
0000
0001
0010
,
0000
0100
0000
0010
0100
0010
0100
1000
,
0001
0001
1000
1000
,
0110
0000
0000
0000
1000
0001
1000
0001
,
0100
0100
0010
0010
,
1000
1000
0010
0000
0100
0100
0001
0000
,
0010
0010
0100
0100
,
1100
0000
0101
0000
,
0001
0000
1000
0000
0010
0010
1000
0000
,
0001
0000
0010
0000
0001
0001
1000
0000
,
0010
0000
0100
0000
0001
0000
1000
0100
,
1000
0000
0001
0100
0001
0010
0100
0000
,
1000
0000
0001
0001
0100
0000
0001
0000
,
1000
0000
0100
0100
1000
0000
0001
0000
,
0100
0010
1000
1001
,
0000
0110
1001
1000
,
0100
0000
1000
0100
0010
0000
0001
0000
,
1000
0000
0001
1000
0000
0000
0001
0000
,
1000
0000
0010
0100
0001
0000
1000
0001
,
0100
1000
0010
0000
0100
0000
1000
0000
,
0001
1000
0010
0100
,
0001
0000
0010
0001
0000
0000
1000
0000
,
0001
0100
0010
0000
1000
0000
0001
1000
,
0001
1000
0001
0000
0100
0000
0010
1000
,
0100
0000
1000
0000
0001
0000
1000
0001
,
0100
0000
0010
0000
1000
0000
0100
1000
,
0010
0000
0100
0000
0001
0000
0100
0010
,
0100
1000
0100
0001
,
0100
0000
1000
0000
0100
0000
0001
0010
,
0100
1000
0010
0001
,
0010
0000
1000
0000
0001
0000
0100
0010
,
0100
1001
0000
2000
,
3001
0110
0000
0200
,
0301
1001
0000
0020
,
1030
0110
0000
0200
,
0301
0010
0001
0010
,
1000
0001
0100
1000
,
0001
0100
0001
0100
,
1000
0000
0001
0000
1000
0000
0001
0100
,
0001
0100
0000
0000
0000
0000
0000
0000
;

//---------------dance-single - ----------------
#NOTES:
     dance-single:
     :
     Hard:
     10:
     :
0000
0000
0000
0000
,
0000
0000
0000
0000
,
0000
0000
0000
0000
,
0010
0000
0110
0000
1000
0100
0010
1000
,
0001
1001
0220
0030
,
0301
0000
1000
1000
0100
0100
0010
0010
,
0001
0000
0100
0100
0000
0000
0000
0000
,
1000
0000
0001
0001
0010
0010
0100
0100
,
1001
1001
0000
0000
0000
0000
0000
0000
,
0011
0011
0000
0100
1000
0010
0100
0001
,
1100
1100
0000
0010
0001
0010
0100
1000
,
1010
1010
0000
1000
0100
0001
0010
0100
,
2000
0000
0000
0000
0000
3010
0000
0100
0000
0000
0001
0000
0010
0000
0100
0000
,
0011
1010
0000
0001
0100
0010
1000
0100
,
0011
1100
0000
0010
0100
1000
0010
0100
,
1001
0110
0000
1000
0010
0100
0001
1000
,
0200
0000
0000
0000
0000
0010
0000
0020
0000
0000
0000
0000
0330
0000
0000
0000
,
2000
0000
0200
3300
,
0002
0000
0200
0303
,
1000
0010
1000
0001
0000
0100
1000
0000
,
0010
0001
0100
0001
0000
1000
0100
0000
,
0010
0001
0100
0000
1000
0100
0001
0000
,
0100
0001
1000
0100
0010
0100
1000
0000
,
0001
0100
1000
0100
0000
0010
0100
0000
,
0010
1000
0001
0100
0000
1000
0100
0000
,
1000
0010
0001
0100
,
0010
1000
0010
0100
0010
0001
0010
0000
,
0011
0010
0100
0010
0001
1000
0100
0000
,
1001
1000
0010
0100
0110
1001
0110
0000
,
0101
0001
1000
0010
1000
0001
0010
0011
,
0000
0100
1000
0001
0100
0010
1000
0000
,
1100
1000
0001
0010
0001
1000
0010
0000
,
0110
0100
0010
0100
1010
1001
0101
0000
,
1001
0001
0010
0001
1000
0100
0010
1001
,
0000
0010
1000
0100
0001
0100
0010
0000
,
0012
0000
2003
0000
3010
0100
0010
0000
,
0210
0000
0302
0000
1003
0010
0100
0000
,
2001
0000
3200
0000
0310
0001
1000
0001
,
1001
0000
0000
0000
,
1002
0000
0203
0000
0310
1000
1000
0010
,
0120
0000
2030
0000
3001
0100
0100
0010
,
0201
0000
0302
0000
1003
0100
0100
0000
,
1001
0000
1001
0000
1001
0000
0010
0100
0010
1000
0000
0100
0000
0010
0001
0000
,
1000
0000
0000
1000
0000
0000
1000
0000
0001
0000
0000
0001
0000
0000
0110
0000
,
0000
1001
0000
0100
1000
0010
0100
0001
,
1000
0000
0000
1000
0000
0000
0001
0000
0100
0000
1000
0000
0100
0000
0001
0000
,
2002
0000
3003
0000
0001
0001
1000
1000
,
0100
0010
0011
0000
0100
1000
0001
1000
,
0010
0100
0101
0000
0010
1000
0001
1000
,
0100
0010
1001
0000
0010
0100
1001
0000
,
0110
0000
1001
0000
0001
0001
1000
1000
,
0001
0010
0100
0000
1000
0001
0010
0100
,
1000
0010
0100
0000
0001
1000
0010
0100
,
0001
0001
1000
1000
1001
0000
0110
0000
,
1001
0000
0010
0010
0100
0100
1000
0001
,
0100
0000
0010
1000
0001
0000
0100
1000
,
0100
0001
0010
0000
1001
0000
1000
0010
,
0100
0000
0001
0010
0100
0000
1100
0000
,
0101
0000
0001
0010
0100
1000
0001
1000
,
0010
0000
0000
0100
0000
0000
0001
0000
1000
0000
0000
0000
1000
0000
0100
0000
,
0010
0000
0000
0001
0000
0000
1000
0000
0100
0000
0000
0000
0001
0000
0010
0000
,
1000
0000
0000
0100
0000
0000
0001
0000
0010
0000
0000
0000
1000
0000
0100
0000
,
0001
0000
0000
0100
0000
0000
0010
0000
0010
0000
0000
0000
1100
0000
0000
0000
,
1010
0011
0101
1100
,
1001
0000
0010
0100
0000
1000
0100
0000
,
0001
0100
1000
0000
0010
0000
0100
0001
,
1000
0001
1000
0000
0001
0000
0100
0000
0010
0000
0000
0100
0010
0000
0100
0000
,
0001
0000
1000
0100
0010
0000
0010
0001
,
1000
0000
0000
0000
0100
0000
1000
0000
0001
0000
0000
1000
0010
0000
1000
0000
,
0100
0000
0001
0100
0010
0000
0010
1000
,
0001
0000
0000
0000
1000
0000
0100
0000
0100
0000
0000
0010
0000
0000
0100
0000
,
0100
0000
0000
0000
0001
0000
0100
0000
0100
0000
0000
0010
0000
0000
0100
0000
,
0100
0000
0000
0000
1000
0000
0010
0000
0010
0000
0000
0100
0000
0000
0010
0000
,
0010
0000
1001
0000
0110
0000
1000
0001
,
1000
0000
0000
0000
0012
0000
0000
0000
0103
0000
0000
1000
0100
0000
0010
0000
,
0100
0000
0000
0000
2010
0000
0000
0000
3001
0000
0000
1000
0100
0000
1000
0000
,
0001
0100
0000
0000
1002
0000
0000
0000
0103
0000
0000
1000
0010
0000
0100
0000
,
0010
0000
0000
0000
2001
0000
0000
0000
3100
0000
0000
0001
1000
0000
0010
0000
,
0100
0010
0001
1000
0100
0000
0100
1000
,
0010
0000
0000
0000
0010
0000
0100
0000
0001
0000
0000
0100
0001
0000
1000
0000
,
0100
0000
1000
0010
0001
0000
0001
0010
,
0100
0000
0000
0000
0100
0000
0001
0000
1000
0000
0000
0100
1000
0000
0010
0000
,
0100
1000
0000
0000
0000
0000
0000
0000
;

//---------------dance-double - ----------------
#NOTES:
     dance-double:
     :
     Easy:
     5:
     :
00000000
00000000
00000000
00000000
,
00000000
00000000
00000000
00000000
,
00000000
00000000
00000000
00000000
,
10000000
00000000
10000000
00000000
,
00010000
00000000
00022000
00033000
,
00001000
00000000
00000010
00000001
,
00000010
00000000
00000110
00000000
,
00010000
00000000
00010000
00100000
,
02200000
03300000
00000000
00000000
,
00001000
00000000
00000001
00000100
,
00000010
00000000
00000100
00001000
,
00010000
00000000
00001000
00010000
,
01000000
01000000
10000000
10000000
,
00010000
00000000
01000000
00100000
,
00010000
00000000
00001000
00000100
,
00000010
00000000
00000001
00000010
,
00000100
00000100
00001000
00001000
,
01000000
00000000
01000000
00000000
,
01000000
00000000
01000000
00000000
,
10000000
00010000
01000000
00000000
,
00100000
00010000
00001000
00000010
,
00000001
00001000
00000010
00000000
,
00000100
00000010
00000001
00000010
,
00000100
00001000
00010000
00000000
,
00100000
10000000
00010000
00100000
,
01000000
10000000
00010000
00000000
,
00001000
00001000
00010000
00010000
,
00100000
01000000
00010000
00100000
,
01000000
00010000
00001000
00000100
,
00000010
00000100
00000001
00000010
,
00001000
00000000
00000001
00000000
,
00000010
00001000
00010000
00100000
,
01000000
10000000
00100000
00010000
,
01000000
00010000
00001000
00000010
,
00000001
00000000
00001000
00000000
,
01000000
00100000
00000000
00010000
,
10000000
01000000
00010000
00001000
,
00000010
00000010
00000000
00001001
,
00000000
00000000
00000000
00000000
,
00000001
00001000
00000001
00000100
,
00001000
00001000
00010000
00010000
,
01000000
10000000
01000000
00010000
,
00002000
00000000
00000000
00003000
,
00000200
00000300
00000020
00000030
,
00001000
00010000
00001000
00010000
,
00200000
00300000
01000000
00100000
,
02200000
03300000
01000000
00100000
,
10000000
01000000
00010000
00000000
,
00100000
00001000
00010000
00000000
,
00001000
00000100
00000001
00000000
,
00001001
00000000
00000110
00000000
,
00000001
00000010
00001000
00000000
,
00000100
00010000
00001000
00000000
,
00010000
00100000
10000000
10010000
,
00000000
01100000
00000000
10000000
,
01000000
00100000
00000000
00010000
,
01000000
00001000
00000000
00010000
,
00000100
00001000
00000010
00000110
,
00000000
00001001
00000000
00010000
,
00000000
01000000
00000000
10000000
,
00010000
10000000
00100000
01000000
,
00000000
00001000
00000000
00010000
,
00010000
00001000
00010000
00001000
,
00000100
00000001
00000010
00000100
,
00000010
00000100
00000000
00010000
,
00001000
00100000
00010000
01000000
,
00000000
00100000
00000000
10000000
,
00000000
00100000
10000000
01000000
,
00010000
00001000
00000000
00010000
,
00000000
00001000
00000100
00001000
,
00000100
00000010
00000010
00001000
,
00001000
00000100
00000100
00000001
,
00000001
00000100
00000100
00010000
,
00001000
00100000
00010000
01000000
,
10000000
01000000
00000000
00100000
,
00000000
01000000
00000000
00001000
,
00010000
00001000
00000000
00000100
,
00000000
00000010
00000000
00000100
,
00000001
00001000
00001000
00000010
,
00000010
00000100
00001000
00010000
,
00100000
01000000
01000000
00100000
,
10000000
00010000
00010000
01000000
,
00010000
00000000
00000000
00000000
;

//---------------dance-double - ----------------
#NOTES:
     dance-double:
     :
     Medium:
     9:
     :
00000000
00000000
00000000
00000000
,
00000000
00000000
00000000
00000000
,
00000000
00000000
00000000
00000000
,
00000001
00001000
00000010
00001000
,
00010000
00010000
00010000
00000000
00022000
00000000
00030000
00000000
,
02003000
00100000
00000000
03100000
,
02000000
03002000
00013000
00000000
,
00000020
00001000
00000000
00001030
,
00000001
00000001
00000000
00000000
00000000
00000000
00000000
00000000
,
00000001
00001000
00000100
00000000
00000001
00000000
00000101
00000000
,
00000010
00001000
00000001
00000000
00000010
00000000
00000011
00000000
,
00000100
00010000
00001000
00000000
00010000
00000000
00011000
00000000
,
00100000
00010000
01000000
10000000
,
00100000
01000000
00010000
00000000
00100000
00000000
01010000
00000000
,
00001000
00010000
00000100
00000000
00001000
00000000
00010100
00000000
,
00001000
00000001
00000100
00000000
00001000
00000000
00000101
00000000
,
00000010
00001000
00010000
01000000
,
10000000
00000000
00010000
00000000
,
00001000
00000000
00000001
00000000
,
00000010
00000000
00000100
00001000
00000010
00000000
00000000
00000000
,
00000100
00001000
00010000
00100000
,
10000000
00000000
00010000
00100000
01000000
00000000
00000000
00000000
,
10000000
01000000
00010000
01000000
,
00100000
00000000
01000000
00010000
00001000
00000000
00000000
00000000
,
00000010
00000001
00001000
00000010
,
00000100
00000000
00000010
00001000
00000100
00000000
00000000
00000000
,
00010000
00000010
00001000
00100000
,
01000000
00000000
10000000
00000000
00010000
01000000
10000000
00000000
,
01000000
00000000
00010000
00000000
00000010
00001000
00000100
00000000
,
00000001
00000000
00000010
00000000
00001000
00000000
00000100
00010000
,
00000000
00001000
01000000
00000000
00100000
01000000
10000000
00000000
,
00010000
00000000
01000000
00000000
00100000
00010000
00001000
00000000
,
00000010
00000000
00001000
00000000
00010000
01000000
10000000
00000000
,
00010000
00000000
00001000
00000000
00000001
00000000
00000010
00000100
,
00000000
00000010
00000001
00000000
00000100
00000000
00010000
00000000
,
02200000
00000000
00000000
00300000
03000000
00010000
00010000
00000000
,
02020000
00000000
00000000
00030000
03000000
00001000
00001000
00000000
,
00020200
00000000
00000000
00000300
00030000
00000010
00000010
00000010
,
00000000
00000000
00000000
00000000
,
00000200
00000000
00000010
00000000
00000300
00001000
00001000
00001000
,
00000200
00000000
00010000
00000000
00000300
00001000
00010000
00010000
,
00002000
00000000
00100000
00000000
00003000
00010000
10000000
00000000
,
00001000
00001000
00001000
00001000
00011000
00000000
00000000
00000000
,
00010000
10010000
10000000
10010000
,
11000000
00000000
00110000
00000000
00001000
00000000
00010000
00001000
,
00000100
00000110
00000010
00000110
,
00002002
00000000
00003003
00000000
00001000
00000001
00001000
00000001
,
00000100
00000010
00000100
00001000
,
00010000
00001000
00100000
00000000
00001000
00010000
00000100
00000000
,
00010000
00001000
01000000
00010000
,
10010000
00000000
00000000
00000000
00010000
10000000
00010000
10000000
,
01000000
00000000
00100000
00000000
01000000
01000000
00100000
00000000
,
00001000
00000000
00100000
00000000
00001000
00001000
00010000
00000000
,
00001000
00000000
00010000
00000000
00011000
00000000
00000100
00001000
,
00000010
00000000
00000100
00000001
00000010
00000000
00000100
00000000
,
00001000
00000000
00000100
00000100
00001000
00000000
00000100
00000000
,
00010000
00000000
00001000
00001000
00010000
00000000
00001000
00000000
,
00100000
00010000
01000000
01100000
,
00000000
00000000
01000000
00100000
01000000
00100000
00001000
00000000
,
00000010
00000000
00000100
00010000
01000000
00000000
00100000
00000000
,
10000000
00000000
01000000
10000000
00000000
00000000
01000000
00000000
,
00100000
00000000
00010000
00001000
00000100
00000000
00000010
00000001
,
00000100
00000010
00001000
00000000
00000100
00000000
00010000
00000000
,
00001000
00010000
00001000
00000100
,
00000010
00000000
00010000
00001000
00000000
00000000
00010000
00000000
,
01000000
00100000
00010000
00000000
10000000
00000000
00100000
01000000
,
00100000
01000000
00100000
00000000
10000000
00000000
01000000
00010000
,
00001000
00000000
00000100
00000000
00000001
00000000
00000010
00000001
,
00000100
00000000
00000010
00000000
00000100
00000000
00000001
00000010
,
00001000
00000000
00010000
00000000
00001000
00000000
00000100
00000010
,
00000100
00001000
00010000
00100000
,
01000000
00000000
00010000
00000000
00100000
00000000
01000000
10000000
,
01000000
10000000
00100000
01000000
,
00010000
00000000
00100000
00000000
00001000
00000000
00010000
00001000
,
00010000
00011000
00000000
00002000
,
00013000
00001100
00000000
00000200
,
00001300
00000110
00000000
00000020
,
00000031
00001001
00000000
00000200
,
00001300
00000100
00010000
00001000
,
00010000
00001000
01000000
00100000
,
01000000
00010000
00100000
01000000
,
10000000
00000000
00100000
00000000
01000000
00000000
00010000
00100000
,
00010000
00100000
00000000
00000000
00000000
00000000
00000000
00000000
;

//---------------dance-double - ----------------
#NOTES:
     dance-double:
     :
     Hard:
     10:
     :
00000000
00000000
00000000
00000000
,
00000000
00000000
00000000
00000000
,
00000000
00000000
00000000
00000000
,
00000001
00000000
00000010
00000000
00001000
00001000
00010000
00100000
,
10000000
10000000
00000000
00000000
00202000
00000000
00300000
00000000
,
01003000
00000000
00100000
10000000
01000000
00100000
00010000
00000000
,
00000010
00000000
00001001
00001001
00000000
00000000
00000000
00000000
,
00000100
00000000
00000010
00000001
00000100
00000010
00001000
00000000
,
00100000
01100000
00000000
00000000
00000000
00000000
00000000
00000000
,
01000000
01000000
10000000
00010000
10000000
01000000
00010000
00001000
,
00000100
00000100
00000001
00001000
00000001
00000100
00001000
00010000
,
00100000
00100000
10000000
00010000
01000000
10000000
01000000
00010000
,
00100000
00000000
00101000
00000000
00010100
00000000
00001001
00000100
,
00000001
00000010
00000001
00000000
00000000
00000000
00001000
00000000
00000100
00000000
00010000
00000000
00001000
00000000
01000000
00000000
,
00100000
10000000
00100000
00000000
00000000
00000000
01000000
00000000
00010000
00000000
00100000
00000000
10000000
00000000
00100000
00000000
,
00010000
01000000
00001000
00000000
00000000
00000000
00010000
00000100
00001000
00000000
00000010
00000000
00000001
00000000
00000010
00000000
,
00002000
00000000
00000000
00000000
00000000
00000100
00000000
00003100
00000000
00000000
00000010
00000000
00000100
00000000
00000001
00000000
,
00000010
00000000
00001000
00000000
,
00000001
00000000
00000100
00000000
,
00001000
00010000
00100000
00010000
00001000
00000000
01000000
00000000
,
10000000
00100000
10000000
01000000
,
00100000
01000000
10000000
00010000
01000000
00000000
00100000
00000000
,
00010000
00000100
00000010
00000001
,
00001000
00000010
00010000
00001000
00000100
00000000
00000001
00000000
,
00001000
00010000
01000000
10000000
,
00100000
01000000
00010000
00100000
01000000
00000000
10000000
00000000
,
00010000
00001000
00010000
00100000
,
01000000
10000000
00100000
10000000
01000000
00010000
00001000
00000000
,
00000010
00000001
00001000
00000010
00010010
00001010
00000101
00000000
,
00000010
00000001
00000100
00001000
00010000
00100000
10000000
01000000
,
00000000
00100000
01000000
00000000
00010000
01000000
10000000
00000000
,
00010000
00001000
00000100
00000001
00001000
00000100
00000001
00000000
,
00000010
00001000
00010000
00100000
10010000
01100000
10010000
00000000
,
01000000
00001000
00100000
00010000
01000000
00001000
00010000
00100000
,
00000000
10000000
01000000
00000000
00010000
10000000
00100000
00000000
,
20000000
00000000
00010000
00000000
30100000
01000000
00001000
00010000
,
00000200
00000000
00000001
00000000
00000310
00000001
00000100
00001000
,
00020000
00000000
00000100
00000000
00031000
00100000
00010000
01000000
,
00100000
00000000
00000000
00000000
,
20000000
00000000
00010000
00000000
31000000
00100000
00001000
00010000
,
00000020
00000000
00000001
00000000
00000130
00000001
00000010
00001000
,
00020000
00000000
00000010
00000000
00031000
01000000
10010000
00000000
,
00100000
00000000
00100000
00000000
00100000
00000000
00010000
00001000
00000100
00000000
00000000
00000000
00000100
00000000
00000000
00000000
,
00011000
00000000
00000000
00101000
00000000
00000000
00000000
00000000
00011000
00000000
00000000
00010100
00000000
00000000
00101000
00000000
,
00000000
00000000
00010100
00000000
00000000
00000000
00001000
00100000
00010000
00000000
01000000
00000000
00100000
00000000
10000000
00000000
,
10100000
00000000
00000000
10010000
00000000
00000000
00010000
00000000
01000000
00000000
00100000
00000000
00010000
00000000
00001000
00000000
,
00010100
00000000
00000000
00001000
00001000
00000010
00000100
00000001
,
00001000
00000000
00000000
00000100
00000000
00000100
00000000
00000100
00000010
00000000
00000001
00000000
00000010
00000000
00001000
00000000
,
00020000
00000000
00130000
00010000
00001000
00100000
00010000
01000000
,
00100000
00000000
00000000
10000000
00000000
10000000
00000000
10000000
00010000
00000000
01000000
00000000
10010000
00000000
00000000
00000000
,
10000000
00000000
00000000
10000000
00000000
00000000
01000000
00000000
00010000
00000000
00010000
00000000
00001000
00000000
00001000
00000000
,
00000100
00000000
00000000
00000010
00000000
00000010
00000000
00000010
00001000
00000000
00000100
00000000
00010000
00000000
00001000
00000000
,
00200000
00000000
01300000
00100000
00010000
10000000
00100000
01000000
,
00010000
00000000
00000000
00100000
00000000
00100000
00000000
00100000
00001000
00000000
00010000
00000000
00000010
00000000
00000000
00000010
,
00000000
00000100
00000001
00000001
00001000
00001000
00000001
00000100
,
00000010
00000000
00010000
00000010
00000100
00001000
00010000
00100000
,
01000000
00000000
00001000
00100000
01000000
00010000
00001000
00000010
,
00000100
00000000
00000000
00000000
00010000
00000000
00000010
00000000
00000100
00000000
00001000
00000000
00010000
00000000
00000000
00100000
,
00000000
00000000
00010000
00000000
00001000
00000000
00000000
00000100
00000000
00000000
00001000
00000000
00001000
00000000
00010000
00000000
,
00100000
00000000
00000000
01000000
00000000
00000000
00010000
00000000
00100000
00000000
00000000
00000000
00001000
00000000
00010000
00000000
,
00000100
00000000
00000000
00000010
00000000
00000000
00000100
00000000
00001000
00000000
00000000
00000000
00000010
00000000
00000100
00000000
,
00000001
00000000
00000000
00001000
00000000
00000000
00000001
00000000
00000100
00000000
00000000
00000000
00000001
00000000
00000010
00000000
,
00000100
00000000
00000000
00010000
00000000
00000000
00001000
00000000
00001000
00000000
00000000
00000000
00011000
00000000
00000000
00000000
,
00001010
01010000
00110000
10100000
,
11000000
00000000
10000000
00100000
00000000
01000000
00100000
00000000
,
10000000
01000000
00010000
00000000
00001000
00000000
00010000
00001000
,
00000100
00000001
00000100
00000000
00000001
00000000
00000010
00000000
00000001
00000000
00000000
00000100
00000001
00000000
00000010
00000000
,
00000100
00000000
00010000
00001000
00010000
00000000
00001000
01000000
,
00100000
00000000
00000000
00000000
01000000
00000000
00010000
00000000
10000000
00000000
00000000
00100000
01000000
00000000
00010000
00000000
,
00100000
00000000
10000000
01000000
00100000
00000000
00100000
00001000
,
00010000
00000000
00000000
00000000
00001000
00000000
00100000
00000000
00100000
00000000
00000000
00001000
00000000
00000000
00000100
00000000
,
00000100
00000000
00000000
00000000
00000010
00000000
00000100
00000000
00000100
00000000
00000000
00000001
00000000
00000000
00001000
00000000
,
00001000
00000000
00000000
00000000
00000010
00000000
00000100
00000000
00000100
00000000
00000000
00010000
00000000
00000000
01000000
00000000
,
01000000
00000000
00110000
00000000
10100000
00000000
00100000
00010000
,
00100000
00000000
00000000
00000000
20100000
00000000
00000000
00000000
31000000
00000000
00000000
10000000
00100000
00000000
01000000
00000000
,
00100000
00000000
00000000
00000000
00120000
00000000
00000000
00000000
01030000
00000000
00000000
00001000
00010000
00000000
00000100
00000000
,
00001000
00000000
00000000
00000000
00000120
00000000
00000000
00000000
00001030
00000000
00000000
00000001
00000010
00000000
00000100
00000000
,
00000010
00000000
00000000
00000000
00001200
00000000
00000000
00000000
00010300
00000000
00000000
00000010
00000100
00000000
00001000
00000000
,
01000000
00100000
10000000
01000000
00100000
00000000
00100000
00010000
,
01000000
00000000
00000000
00000000
01000000
00000000
00001000
00000000
00010000
00000000
00000000
00000100
00001000
00000000
00000100
00000000
,
00000010
00000000
00000001
00000010
00001000
00000000
00000010
00000100
,
00001000
00000000
00000000
00000000
00001000
00000000
00000010
00000000
00000100
00000000
00000000
00000001
00000100
00000000
00000010
00000000
,
00001000
00000100
00000000
00000000
00000000
00000000
00000000
00000000
;
