#TITLE:Xmix1 (Midnight Dawn);
#ARTIST:dj jiggens;
#BANNER:Xmix1 (Midnight Dawn).png;
#BACKGROUND:Xmix1 (Midnight Dawn)-bg.png;
#CDTITLE:./CDTitles/DDR X.png;
#MUSIC:Xmix1 (Midnight Dawn).ogg;
#SAMPLESTART:78.825;
#SAMPLELENGTH:15;
#DISPLAYBPM:75:300;
#BPMS:0=137.6,4=137,268=150,276=300,340=75,356=150,399=162;
#STOPS:340=1.6,356=1.6,399=0.412;
#STAGE:1;

//---------------dance-single - ----------------
#NOTES:
     dance-single:
     :
     Easy:
     6:
     :
0000
0000
0000
0000
,
0000
0000
0000
0000
,
0000
0000
0000
0000
,
0010
0000
0010
0000
,
1000
0000
1000
0000
,
0100
0000
0100
0000
,
0001
0000
0001
0000
,
1000
0100
0001
0000
,
0001
0100
1000
0000
,
0200
0000
0000
0300
,
0020
0000
0000
0030
,
0001
0101
1000
1100
,
0010
0010
0100
0100
,
1000
1100
0001
0101
,
0010
0010
0100
0100
,
0001
0101
1000
1100
,
0010
0010
0100
0100
,
0001
0001
1000
1000
,
2002
0000
0000
3003
,
0001
0001
0001
0000
,
1000
1000
1000
0100
,
0010
0010
0010
0000
,
0100
0100
0100
1000
,
0001
0001
0100
0000
,
0010
0010
0100
0100
,
2000
0000
0000
3000
,
0002
0000
0000
0003
,
1000
1001
0000
0001
,
1000
1001
0000
0100
,
0010
0110
0000
0010
,
0100
0110
0000
0100
,
1001
0000
1000
0001
,
1001
0000
0100
0001
,
1001
0000
1000
0100
,
0220
0000
0000
0330
,
0010
0101
0010
0101
,
0010
1100
0010
1100
,
0010
1001
0010
1001
,
1000
0010
0200
0000
,
0310
0101
0010
0101
,
0010
1100
0010
1100
,
1001
1001
0110
1001
,
0020
0000
0230
0310
,
0110
0000
0001
0000
,
0010
0000
0100
0100
,
1000
0000
1000
0000
,
1000
0001
1000
1000
,
0010
0000
0100
0100
,
0010
0000
1000
1000
,
0001
0000
0001
0000
,
0010
0010
1001
0000
,
0010
0000
0001
0001
,
0010
0000
0100
0100
,
1000
0000
0001
0001
,
1000
0000
0100
0100
,
0010
0000
1000
0001
,
0010
0000
0001
1000
,
0010
0000
1000
0001
,
0010
0000
0001
0001
,
0000
0000
0000
0000
,
0001
0010
0100
1000
,
0000
0000
0000
0000
,
0001
0010
0100
1000
,
0010
0000
0000
0000
,
0010
0000
0000
0000
,
1001
0000
1001
0000
,
1001
0000
0010
0100
,
1001
0000
0000
0000
,
0000
0000
0000
0000
,
0000
0000
0000
0000
,
0010
0000
0000
0000
,
1001
0000
0000
0000
,
1001
0000
0000
0000
,
0000
0000
0000
0000
,
0100
0000
0000
0000
,
1001
0000
0000
0000
,
1001
0000
0000
0000
,
0001
0000
0000
0000
,
2000
0000
0000
0000
,
0010
0000
0100
0000
,
3010
0000
0000
0000
,
1000
0000
0000
0000
,
0002
0000
0000
0000
,
0010
0000
0100
0000
,
0013
0000
0000
0000
,
0000
0000
0010
0010
0000
0000
0100
0100
,
0000
0000
0001
0001
0000
0000
1000
1000
,
0000
0000
0001
0010
0000
0000
1000
0100
,
0000
0000
0001
0100
0000
0000
1000
0010
,
0000
0000
0010
0000
,
1001
1001
1001
0000
,
0100
0000
0100
0000
,
1001
1001
1001
0000
,
1000
0001
1000
0002
,
0010
0100
0013
0000
,
0001
1000
0001
2000
,
0010
0100
3010
0002
,
0100
0010
0103
1000
,
1010
0011
0101
1100
,
1001
0000
0000
0000
,
0001
0010
0001
0100
,
1000
0010
0001
1000
,
1000
0010
1000
0100
,
0001
0010
1000
0001
,
0001
0100
1000
0100
,
0001
0010
0100
1000
,
1000
0100
0001
0100
,
1000
1010
0101
1000
,
0100
0001
0100
1000
,
0010
0100
0001
0010
,
0100
1000
0010
0100
,
0001
0011
1100
0001
,
0010
1000
0010
0001
,
0001
0100
1000
1000
,
0100
0010
0010
1000
,
0001
0010
0010
1001
;

//---------------dance-single - ----------------
#NOTES:
     dance-single:
     :
     Medium:
     9:
     :
0000
0000
0000
0000
,
0000
0000
0000
0000
,
0000
0000
0000
0000
,
0002
0000
0200
0003
,
2000
0300
0200
3000
,
0002
0300
0200
0003
,
2000
0300
0200
3300
,
0001
0010
0100
0000
1000
0000
0010
0000
,
1000
0100
0001
0000
0100
0000
0110
0000
,
1000
0000
0000
1000
0000
0000
0001
0000
0000
0001
0000
0000
0020
0000
0000
0000
,
0200
0000
0000
0330
,
1000
0000
0000
1000
0001
0000
0000
0000
0100
0000
0000
0100
0010
0000
0000
0000
,
1000
0100
0001
0000
1000
0100
0001
0000
,
0100
0000
0000
0100
0010
0000
0000
0000
0001
0000
0000
0001
0100
0000
0000
0000
,
0010
0100
0001
0100
0010
0000
1001
0000
,
1000
0000
0000
1000
0100
0000
0000
0000
0010
0000
0000
0010
0001
0000
0000
0000
,
1000
0010
0001
0000
1000
0010
0001
0000
,
1010
0101
0020
0130
,
2002
0000
0000
3003
,
1000
1100
1000
0101
,
1000
0100
1000
0000
1000
0100
0001
0000
,
0001
0101
0001
1100
,
0001
0100
0001
0000
0001
0100
1000
0000
,
1000
1100
1010
0110
,
0100
0010
0001
0000
0001
0010
0100
0000
,
0010
0100
0010
0100
0010
0100
0001
1000
,
0020
0000
0000
0030
,
0001
0101
0100
1100
,
1000
1010
0010
0011
,
0001
0001
0100
0000
0100
0100
1000
0000
,
1000
1000
0010
0000
0010
0010
0001
0000
,
0001
0000
1100
0000
0001
0100
1000
0000
,
0100
0000
1010
0000
0100
1000
0010
0000
,
1000
0010
0001
0000
0010
0001
0100
0000
,
0200
0000
0000
0001
0000
0000
0010
0000
0000
1000
0000
0000
0310
0000
0000
0000
,
0001
0000
0000
0001
1000
0000
0000
0000
0010
0000
0000
0010
0100
0000
0000
0000
,
0001
0000
0000
0001
0010
0000
0000
0000
0100
0000
0000
0100
1000
0000
0000
0000
,
0010
0000
0000
0010
0100
0000
0000
0000
0001
0000
0000
0001
0010
0000
0000
0000
,
0001
0100
1000
0000
1100
0000
0011
0000
,
0100
0000
0000
0100
0010
0000
0000
0000
1000
0000
0000
1000
0001
0000
0000
0000
,
0010
0000
0000
0010
0001
0000
0000
0000
1000
0000
0000
1000
0010
0000
0000
0000
,
0101
0000
1010
0000
0100
1000
0010
0000
,
0200
0000
0000
1000
0000
0000
0010
0000
0000
0001
0300
0000
1000
0000
0000
0000
,
1001
0000
1000
0000
,
0001
0000
0000
0001
1000
0100
0100
0000
,
0010
0000
0000
0010
0000
0000
0100
0000
1000
0000
0000
1000
0000
0000
1000
0000
,
0001
0000
0000
0001
0000
0000
0001
0000
1000
0000
1000
0000
1000
0000
0000
0000
,
0010
0000
0000
0010
0000
0000
0010
0000
0100
0000
0000
0100
0000
0000
0100
0000
,
0010
0000
0000
0010
0000
0000
0010
0000
1000
0000
1000
0000
1000
0000
0000
0000
,
0001
0000
0000
0001
0000
0000
0001
0000
1000
0000
0000
1000
0000
0000
1000
0000
,
0010
0100
0010
0100
1001
0000
0000
0000
,
0010
1000
0001
0100
,
0010
1000
0001
0001
,
0010
0001
1000
0100
,
0010
0001
1000
1000
,
0010
0010
1000
0001
,
0010
0010
0001
1000
,
0010
0010
1000
0100
,
0010
0010
0100
0100
,
0010
0001
1000
0100
,
0010
0001
1000
0100
,
0010
0001
1000
0001
,
0010
0100
1000
0000
,
0010
0100
0010
0000
1000
0000
0001
0000
,
0010
0100
0010
0000
0001
0000
1000
0000
,
1010
0000
1001
0000
,
0101
0000
0000
0000
0010
1000
0001
0100
,
0020
0000
0000
0000
,
0030
0000
0000
0000
,
0001
0000
0100
0000
,
1000
0000
0100
0000
,
0001
0000
1100
0000
,
0101
0000
0000
0000
,
1000
0000
0100
0000
,
0001
0000
0100
0000
,
1000
0000
0101
0000
,
1100
0000
0000
0000
,
0001
0000
0100
0000
,
1000
0000
0100
0000
,
0011
0000
0100
0000
,
0001
0000
0100
0000
,
1000
0000
0100
0000
,
0001
0000
0100
0000
,
1010
0000
0100
0000
,
1000
0000
0100
0000
,
0001
1000
0200
0010
,
2300
0001
3020
0100
,
0001
0130
0002
0010
,
2003
0100
3020
0031
,
1000
0100
0001
0100
,
1000
0101
0001
1100
,
0001
0100
1000
0100
,
0001
1100
1000
0101
,
1000
0000
0000
0001
0000
0000
0100
0000
0010
0000
0000
0000
0100
0000
0000
0000
,
1000
0101
0101
1100
,
0001
0000
0000
1000
0000
0000
0100
0000
0010
0000
0000
0000
0100
0000
0000
0000
,
0001
1100
0101
0101
,
1000
0011
1010
1010
,
0010
0001
0010
0001
0010
0100
0010
0100
,
1000
0000
0000
0000
,
0010
0000
0100
0000
0001
0000
1000
0100
,
1000
0100
0010
0000
0001
0010
0001
0000
,
0100
1000
0100
0001
,
1000
0000
0100
0000
0010
0001
0010
0000
,
0010
0000
0100
0000
1000
0000
0001
0100
,
0001
0100
0010
0000
1000
0010
1000
0000
,
0100
0001
0100
1000
,
0001
0110
1001
0100
,
0010
0000
0001
0000
0100
0000
0010
1000
,
0010
1000
0001
0000
0100
0010
0100
0000
,
0001
0000
0010
0000
0100
1000
0100
0000
,
0010
1001
0110
1000
,
0010
0000
1000
0000
0100
0000
0010
0001
,
0010
0001
0010
0001
0010
0000
0100
0000
,
1000
0000
0001
0000
0010
0000
0001
1000
,
0001
1000
0010
1000
0010
1000
0100
0002
,
0000
0000
0000
0000
,
0000
0000
0000
0000
,
0003
0000
0000
0000
;

//---------------dance-single - ----------------
#NOTES:
     dance-single:
     :
     Hard:
     13:
     :
0000
0000
0000
0000
,
0000
0000
0000
0000
,
0000
0000
0000
0000
,
2000
0000
0002
3000
,
0020
0003
2000
0030
,
3020
0000
0002
0030
,
2000
0003
0001
3001
,
0010
0000
0100
0001
0010
0000
0000
0100
1000
0000
0001
1000
0100
0000
0000
0000
,
0010
0000
0001
0100
0010
0000
0000
0100
0001
0000
0010
0001
1000
0000
0000
0000
,
0110
0000
0000
1001
0000
0000
1010
0000
0000
0101
0000
0000
1001
0000
0000
0000
,
0200
0000
0000
0300
,
1100
0000
0001
0100
0010
0000
1000
0000
0001
0010
0100
0000
1000
0000
0100
0000
,
0010
0001
0100
0001
0010
0001
0100
0001
,
0101
0000
0010
1000
0010
0000
0100
0000
0001
0010
0100
0000
1000
0000
0010
0000
,
0100
0001
0100
1000
0110
0000
0110
0000
,
1001
0000
0010
1000
0100
0000
0010
0000
0001
0100
0010
0000
0100
0000
0001
0000
,
0010
0100
1000
0100
0010
0100
1000
0100
,
0011
0000
0000
0100
1000
0000
0000
0010
0100
0000
0000
0001
0010
0000
0001
0000
,
2002
0003
3002
0000
2003
0000
3001
1000
,
0010
0000
1001
0000
0100
0100
0100
0000
,
0001
1000
0001
0100
0010
1000
0100
0001
,
0100
0000
1010
0000
0001
0001
0001
0000
,
0100
0001
0010
0100
0001
1000
0010
0001
,
1000
0000
1100
0000
0010
0010
0010
0000
,
1000
1000
0001
0100
0010
0001
1000
0000
,
0001
1000
0000
0001
1000
0000
0001
1000
0000
0001
1000
0000
0001
0000
1000
0000
,
0210
0000
0000
0001
0000
0000
0010
0000
0000
1000
0000
0000
0310
0000
0000
0000
,
1000
1000
1100
0000
0001
0000
1010
0000
,
0100
0100
0101
0000
1000
0010
1000
0000
,
0100
0001
0101
0000
1000
0100
0001
0000
,
0010
0010
0110
0000
1010
0000
0101
0000
,
1000
0100
1100
0000
1000
1000
1100
0000
,
1000
0001
0101
0000
0010
0010
0101
0000
,
0101
0100
0110
0000
0100
0010
1001
0000
,
0010
0100
0000
0010
0100
0000
0010
0100
0000
0010
0100
0000
1001
0000
0000
0000
,
0011
0000
1000
0010
0100
0000
0001
0000
1000
0100
0010
0000
0001
0000
0010
0000
,
0110
0000
1000
0010
0100
0000
0010
0000
1000
0100
0010
0000
0100
0000
1000
0000
,
1010
0000
0100
0001
0100
0000
0010
0000
1000
0100
0010
0000
0001
0000
0100
0000
,
0010
1000
0010
0100
0002
0000
2003
0000
,
3001
0000
0100
0001
0010
0000
0100
0000
1000
0010
0100
0000
0010
0000
1000
0000
,
1100
0000
0010
0001
0100
0000
0010
0000
0100
0001
0010
0000
0100
0000
0010
0000
,
1100
0000
0000
0010
0001
0000
0000
0100
0010
0000
0000
1000
0100
0000
1000
0000
,
1010
0000
0100
0001
0000
1000
0010
0000
0100
0001
0000
1000
0010
1000
0001
0100
,
0010
0000
0000
0010
0000
0000
0010
0000
0100
0000
0000
0100
0000
0000
0100
0000
,
0001
0000
0000
1000
0000
0000
0001
1000
0001
0000
1000
0000
0001
0000
0000
0000
,
0010
0000
0000
0010
1000
0000
0100
0000
1000
0000
0000
1000
0100
0000
1000
0000
,
0001
0000
0000
0001
0100
0000
0001
0000
0010
0000
1000
0000
1000
0000
0000
0000
,
0010
0000
0000
0010
0001
0000
0100
0000
0010
0000
0000
0010
0100
0000
0001
0000
,
0010
0000
0000
0010
0001
0000
0100
0000
0010
0000
0001
0000
0001
0000
0000
0000
,
1000
0000
0000
1000
0001
0000
0100
0000
0001
0000
0000
0001
1000
0000
0100
0000
,
0010
0010
0100
0000
0010
0010
0100
0000
1001
0000
0000
0000
0110
0000
0000
0000
,
0010
1000
0001
0100
,
0010
0000
1000
0000
0001
0100
0001
0000
,
0011
1001
1010
1100
,
0110
0000
0011
0000
1000
0100
1001
1001
,
0010
0100
0010
0000
1010
0000
1001
0000
,
0010
0100
0010
0000
1000
0001
0100
0000
,
0010
0100
0010
0100
0001
1000
0100
0000
,
0010
0100
0010
0100
0001
1000
0100
1000
,
0010
0000
0000
0000
1000
0000
0000
0000
0001
1000
0000
0000
0100
0000
0000
0000
,
0010
0000
0000
0000
0001
0000
0000
0000
1000
0001
0100
0000
0001
0000
0000
0000
,
0010
0000
0000
0000
0001
0000
0000
0000
1000
0001
0100
0000
0001
0000
0100
0000
,
0010
0000
0000
0000
1000
0000
0000
0000
0001
1000
0100
0000
1000
0000
0100
0000
,
0010
0100
0010
0000
1100
0000
1001
0000
,
0010
0100
0010
0000
1000
0001
0100
0000
,
0010
0100
0010
0100
0001
1000
0100
0000
,
0010
0100
0010
0100
1000
0001
0100
0010
,
0220
0000
0000
0000
,
0000
0000
0000
0330
,
0001
0000
0000
1000
0000
0000
0010
0100
,
0010
0000
0000
0100
0000
0000
0001
0000
,
0010
0000
0000
0100
0000
0000
1000
0100
,
1000
0000
0000
0001
0000
0000
1000
0000
,
0010
0000
0000
0100
0000
0000
0001
0010
,
0001
0000
0000
1000
0000
0000
0001
0000
,
0010
0000
0000
0100
0000
0000
1000
0000
,
0010
0000
0101
0000
,
1000
0000
0000
0001
0000
0000
0100
0010
,
0100
0000
0000
0010
0000
0000
0001
0000
,
0010
0000
0000
1000
0000
0000
0100
1000
,
0100
0000
0000
0010
0000
0000
0001
0000
,
1001
0000
0000
0100
0000
0000
0001
0100
,
0001
0000
0000
0011
0000
0000
0010
0000
,
0100
0000
0000
1100
0000
0000
0010
0000
,
0100
0000
0101
0000
,
0000
1000
0000
0001
0010
0000
0001
0000
0000
0100
0000
1000
0010
0000
0100
0000
,
0000
0001
0000
1000
0010
0000
1000
0000
0000
0100
0000
0001
0010
0000
0100
0000
,
0000
0001
0000
1000
0100
0000
0001
0000
0000
1000
0000
0001
0100
0000
1000
0000
,
0000
0010
0000
0100
0001
0000
0010
0000
0000
0100
0000
1000
0010
0000
0100
0000
,
0000
0001
0000
0000
0000
0000
0000
0000
0000
0000
0000
0000
0010
0000
0000
0000
0000
0000
0000
0000
0000
0000
0000
0000
0100
0000
0000
0000
0000
0000
0000
0000
2000
0000
0000
0000
0000
0000
0000
0000
0000
0000
0000
0000
0000
0000
0000
0000
0010
0000
0000
0000
0000
0000
0000
0000
0000
0000
0000
0000
0000
0000
0000
0000
,
3002
0010
0103
0010
,
1000
0000
0000
0010
0000
0000
0100
0000
0002
0000
0000
0000
0010
0000
0000
0000
,
2003
0010
3100
0000
,
0001
0000
0000
1000
0000
0000
0100
0000
0010
0000
0000
1000
0000
0000
0020
0000
,
0001
1000
0001
0130
,
1000
0000
0000
0001
0000
0000
0100
0000
0010
0000
0000
0001
0000
0000
0020
0000
,
1000
0000
0000
1000
0000
0000
1000
0000
0100
0000
0000
0000
0130
0000
0000
0000
,
0001
0000
0000
1000
0000
0000
0200
0000
0010
0000
0010
0000
0310
0000
0000
0000
,
0001
1000
0001
1000
1001
1001
1001
1001
,
0100
0000
0000
0000
,
0001
0100
0010
1000
0001
0010
0100
1000
,
0100
0000
1000
0000
0010
0000
0100
0000
0001
0010
0001
0000
1000
0000
0010
0000
,
1000
0010
0100
0001
0010
0001
1000
0100
,
0001
0000
0100
0000
1000
0000
0010
0000
0100
0001
0000
0001
1000
0000
0100
0000
,
0010
0100
1000
0010
0001
0010
0100
0001
,
0100
0000
0001
0000
0010
0000
0100
0000
1000
0010
1000
0000
0001
0000
0100
0000
,
0010
0100
0001
1000
0100
1000
0010
0100
,
0001
0010
1100
0000
0101
0000
0010
0001
,
0100
1000
0100
0001
0010
0001
0100
0010
,
0100
0000
0010
0000
1000
0000
0001
0000
0100
0010
0100
0000
0001
0000
0010
0000
,
1000
0010
0001
0100
1000
0100
0001
0010
,
0100
1000
0101
0000
1100
0000
0001
0010
,
0001
0010
1000
0010
1000
0010
0001
0001
,
0100
0010
0010
0010
1000
0100
0100
0010
,
0001
0000
1000
0000
1000
0000
0010
0000
0010
0000
0100
0000
0001
1000
0001
0000
,
1000
0010
0001
0010
0010
0100
1001
0000
;

//---------------dance-double - ----------------
#NOTES:
     dance-double:
     :
     Easy:
     6:
     :
00000000
00000000
00000000
00000000
,
00000000
00000000
00000000
00000000
,
00000000
00000000
00000000
00000000
,
10000000
00000000
00000000
00000000
,
00010000
00000000
00000000
00000000
,
00001000
00000000
00000000
00000000
,
00000001
00000000
00000000
00000000
,
00000001
00000000
00001000
00000000
,
00000100
00000000
00010000
00000000
,
02000000
00000000
00000000
03000000
,
00200000
00000000
00000000
00300000
,
20000000
00010000
01000000
30010000
,
01000000
00010000
00001000
00000010
,
00000002
00000100
00000010
00000103
,
00000010
00001000
00000100
00010000
,
00002000
00000010
00010000
00003010
,
00010000
00100000
10000000
01000000
,
00010000
00001000
00010000
01000000
,
20000000
00000000
00000000
30000000
,
01000000
01000000
00000000
00000000
,
01000000
00010000
00001000
00001000
,
00000100
00000100
00000100
00000000
,
00000100
00000001
00000010
00001000
,
00010000
00010000
00010000
00000000
,
00010000
01000000
10000000
01000000
,
00020000
00000000
00000000
00030000
,
00002000
00000000
00000000
00003000
,
00001000
00000100
00000001
00000100
,
00001000
00000010
00001000
00010000
,
00001000
00010000
00100000
10000000
,
00100000
00010000
10000000
01000000
,
00010000
00001000
00000010
00000001
,
00000100
00001000
00010000
01000000
,
10000000
00100000
00010000
00001000
,
00022000
00000000
00000000
00033000
,
00002000
00010000
00000100
00013000
,
02000000
00010000
10000000
03010000
,
00200000
00001000
01000000
00301000
,
00010000
00001000
00000100
00000001
,
00000020
00001000
00000001
00001030
,
00020000
00001000
01000000
00031000
,
00010000
00100000
10000000
01000000
,
20020000
00000000
30030000
10010000
,
00100000
00000000
01000000
00000000
,
00001000
00000000
00000100
00000100
,
00001000
00000000
00000010
00000000
,
00010000
00000000
01000000
01000000
,
10000000
00000000
00010000
00000000
,
00001000
00000000
00000010
00000010
,
00010000
00000000
00010000
00000000
,
00000100
00000100
00011000
00000000
,
00000100
00000000
00000001
00000000
,
00000010
00000000
00000100
00000000
,
00001000
00000000
00010000
00000000
,
01000000
00000000
10000000
00000000
,
00100000
00000000
00010000
00000000
,
00000010
00000000
00001000
00000000
,
00010000
00000000
10000000
10000000
,
00010000
00000000
00000000
00000000
,
00001000
00000000
00000001
00000000
,
00001000
00000000
00010000
00000000
,
10000000
00000000
00010000
00000000
,
00001000
00000000
00000001
00000000
,
00011000
00000000
00000000
00000000
,
01100000
00000000
00010000
00001000
,
00000100
00000000
00000100
00000000
,
00000100
00000100
00001000
00010000
,
00011000
00000000
00000000
00000000
,
00000000
00000000
00000000
00000000
,
00000000
00000000
00000000
00000000
,
00100000
00000000
00000000
00000000
,
10000000
00000000
01000000
00000000
,
00010000
00000000
00001000
00000000
,
00010000
00000000
00000000
00000000
,
00000100
00000000
00000000
00000000
,
00000010
00000000
00000001
00000000
,
00000100
00000000
00000000
00000000
,
00010000
00000000
00000000
00000000
,
00001000
00000000
00000000
00000000
,
00000010
00000000
00001000
00000000
,
00010000
00000000
00001000
00000000
,
01000000
00000000
00000000
00000000
,
00100000
00000000
00000000
00000000
,
00010000
00000000
00011000
00000000
,
00001100
00000000
00000000
00000000
,
00000000
00000000
01000000
00100000
00000000
00000000
00010000
00001000
,
00000000
00000000
00000001
00000100
00000000
00000000
00001000
00010000
,
00000000
00000000
10000000
00100000
00000000
00000000
00001000
00000010
,
00000000
00000000
00000001
00000100
00000000
00000000
00010000
01000000
,
00000000
00000000
10000000
00000000
,
00100000
00010000
00001000
00010000
,
00000100
00000000
00000010
00000001
,
00000010
00001000
00011000
00000000
,
01000000
00000000
10000000
01000000
,
00010000
00001000
00000010
00001000
,
00010000
00000000
00001000
00000100
,
00001000
00010000
00011000
00000000
,
01000000
00001000
00011000
00000000
,
00011000
00101000
00011000
00010010
,
00011000
00000000
00000000
00000000
,
00001000
00100000
00010000
00001000
,
00000100
00000001
00000010
00001000
,
00010000
00000010
00001000
00010000
,
01000000
10000000
00100000
00010000
,
00001000
01000000
00001000
00000010
,
00001000
00010000
01000000
00001000
,
00010000
00000100
00010000
00100000
,
10000000
01010000
00011000
00001000
,
00000100
00000001
00000100
00001000
,
00010000
01000000
00010000
00001000
,
00010000
00100000
00010000
00001000
,
00000010
00000011
00001100
00010000
,
00100000
10000000
00100000
00010000
,
00010000
01000000
00100000
00100000
,
00010000
00001000
00001000
00000010
,
00000001
00000100
00000100
00001001
;

//---------------dance-double - ----------------
#NOTES:
     dance-double:
     :
     Medium:
     10:
     :
00000000
00000000
00000000
00000000
,
00000000
00000000
00000000
00000000
,
00000000
00000000
00000000
00000000
,
00000010
00000000
00000001
00000000
,
00000100
00000000
00001000
00000000
,
00100000
00000000
10000000
00000000
,
01000000
00000000
00010000
00000000
,
00000010
00001000
00000010
00000000
00000001
00000000
00000100
00000000
,
00001000
00010000
00001000
00000000
00100000
00000000
00010000
00000000
,
01000000
00000000
00000000
00001000
00000000
00000000
00010000
00000000
00000000
00000010
00000000
00000000
00001000
00000000
00000000
00000000
,
00000200
00000000
00000000
00000300
,
00001010
00001010
00000011
00001010
,
00011000
00010010
00011000
00101000
,
10100000
10100000
01010000
10100000
,
01010000
00011000
00001100
00000101
,
00000011
00001100
00001010
00000101
,
00010010
00001100
00101000
01010000
,
10010000
10010000
01100000
10010000
,
00100000
01000000
00001000
00010000
,
00000010
00001001
00000100
00001000
,
00100000
00000000
00010000
00000000
00100000
00010000
00100000
00000000
,
01000000
01100000
10000000
01000000
,
00010000
00000000
00001000
00000000
00100000
00010000
00100000
00000000
,
01000000
10010000
00100000
00001000
,
00010000
00000000
00001000
00000000
00000010
00000100
00000010
00000000
,
00000002
00000000
00000000
00000000
,
00002000
00000000
00000000
00003003
,
00000001
00000000
00000001
00000000
00001000
00001000
00000100
00000000
,
00010000
00000000
00001000
00000000
00010000
00010000
01000000
00000000
,
01000000
00000000
11000000
00000000
00100000
00001000
00001000
00000000
,
00010000
00000000
00110000
00000000
10000000
01000000
00010000
00000000
,
00001000
00000000
00000001
00000000
00001000
00000100
00000010
00000000
,
00001000
00000000
00000010
00000000
00001000
00000010
00010000
00000000
,
00001000
00100000
00010000
10010000
,
01000000
00000000
00000000
01000000
00000000
00000000
01000000
00000000
00000000
01000000
00000000
00000000
01100000
00000000
00000000
00000000
,
11000000
11000000
00110000
11000000
,
01010000
01010000
00011000
00001010
,
00000110
00001001
00000110
00001001
,
00010010
00010100
00200000
00320000
,
10030000
11000000
01010000
11000000
,
10010000
10010000
00011000
00001001
,
00001010
00000101
00000011
00001100
,
00000001
00000000
00000000
00000100
00000000
00000000
00001000
00000000
00000000
00010000
00000000
00000000
00011000
00000000
00000000
00000000
,
00001000
00000000
00000000
00001000
00000000
00000000
00001000
00000000
00010000
00000000
00000000
00010000
00000000
00000000
00010000
00000000
,
00001000
00000000
00000000
00001000
00000000
00000000
00001000
00000000
00100000
00000000
00000000
00000000
01000000
00000000
00000000
00000000
,
10000000
00000000
00000000
10000000
00000000
00000000
00010000
00000000
01000000
00000000
00000000
01000000
00000000
00000000
00001000
00000000
,
00010000
00000000
00000000
00010000
00000000
00000000
00000010
00000000
00001000
00000000
00000100
00000000
00000100
00000000
00000000
00000000
,
00000010
00000000
00000000
00000010
00000000
00000000
00000010
00000000
00001000
00000000
00000000
00001000
00000000
00000000
00001000
00000000
,
00100000
00000000
00000000
00100000
00000000
00000000
00100000
00000000
01000000
00000000
00000000
00000000
10000000
00000000
00000000
00000000
,
00010000
00000000
00000000
00010000
00000000
00000000
00010000
00000000
01000000
00000000
00000000
01000000
00000000
00000000
01000000
00000000
,
00001000
00001000
00011000
00000000
,
00100000
00001000
00100000
00010000
,
00001000
00000100
00000010
00000001
,
00000100
00000010
00010000
00000100
,
00010000
00001000
00100000
00010000
,
01000000
00001000
00010000
00000100
,
00010000
00001000
00000100
00000100
,
00000010
00000100
00001000
00000000
,
00010000
01000000
10000000
00000000
,
10000000
00100000
00010000
00001000
,
00000100
00000001
00000010
00000010
,
00001000
00010000
01000000
10000000
,
10000000
00010000
00001000
00000001
,
00000100
00000010
00000100
00000000
00001000
00000000
00001000
00000000
,
00010000
00001000
00010000
00000000
01000000
00000000
01000000
00000000
,
10000000
01000000
10000000
00000000
00010000
00000000
00010000
00000000
,
00100000
00100000
00011000
00011000
,
00011000
00000000
00000000
00000000
,
00000000
00000000
00000000
00000000
,
00000000
00000000
00000100
00000000
,
00000001
00000000
00000010
00000000
,
00001000
00000000
00010000
00000000
,
00100000
00000000
01100000
00000000
,
00010000
00000000
01000000
00000000
,
10000000
00000000
00000000
01000000
00000000
00000000
00010000
00000000
,
00001000
00000000
00000000
00010000
00000000
00000000
00001000
00000000
,
00000100
00000000
00000000
00000000
,
00000001
00000000
00000100
00000000
,
00001000
00000000
00010000
00000000
,
00100000
00000000
00010000
00000000
,
00001000
00000000
00001010
00000000
,
00000001
00000000
00000010
00000000
,
00001000
00000000
00000000
00010000
00000000
00000000
00000100
00000000
,
00000010
00000000
00000000
00001000
00000000
00000000
00010000
00000000
,
00000100
00000000
00000000
00000000
,
00011000
00000010
00020000
01000000
,
00032000
00100000
00003200
00000001
,
00002300
00010000
02003000
10000000
,
03200000
00000000
00000000
00000000
00010000
00000000
00000000
00000000
20300000
00000000
00000000
00000000
31000000
00000000
00000000
00100000
,
00100000
00000100
00000001
00000010
,
00001000
00010000
00000010
00011000
,
00100000
00000000
00000000
00000000
00010000
00000000
00000000
00000000
01000000
00000000
00000000
00100000
00000000
00000000
01000000
00000000
,
00010000
00000000
00000000
00100000
00000000
00000000
00001000
00000000
00010000
00000000
00000000
00000000
00000000
00000000
00000000
00000000
,
00010000
01000000
10000000
00100000
,
00010000
00000100
00000010
00001100
,
00010000
00000000
00000000
00000000
00001000
00000000
00000000
00000000
00010000
00000000
00000000
01000000
00000000
00000000
00100000
00000000
,
00001000
00000000
00000000
00010000
00000000
00000000
00000010
00000000
00000100
00000000
00000000
00000000
00000010
00000000
00000000
00000000
,
00010000
00000000
00000000
00001000
00000000
00000000
00100000
00000000
01000000
00000000
00100000
00000000
01000000
00000000
00000000
00000000
,
10000000
00010000
10000000
00010000
01000000
00001000
01000000
00001000
,
00010000
00000000
00000000
00000000
,
00000010
00000000
00000100
00000000
00000001
00000000
00000010
00001000
,
00000010
00001000
00010000
00000000
00100000
00010000
00100000
00000000
,
10000000
01000000
10000000
00100000
,
00010000
00000000
00001000
00000000
00000100
00000010
00000100
00000000
,
00001000
00000000
00010000
00000000
01000000
00000000
00010000
00001000
,
00010000
00001000
00000100
00000000
00000001
00000010
00000001
00000000
,
00000100
00000001
00000100
00001000
,
00010000
00010010
00011000
01000000
,
10000000
00000000
00100000
00000000
00010000
00000000
00001000
00010000
,
00001000
00010000
00000010
00000000
00000100
00000001
00000100
00000000
,
00000001
00000000
00000010
00000000
00001000
00010000
00001000
00000000
,
00100000
00110000
01010000
10000000
,
01000000
00000000
00010000
00000000
00001000
00000000
00000010
00000001
,
00000010
00000001
00000010
00000100
00000010
00000000
00001000
00000000
,
00010000
00000000
00001000
00000000
00010000
00000000
00100000
01000000
,
00100000
01000000
00100000
00010000
00001000
00000100
00001000
00000000
;

//---------------dance-double - ----------------
#NOTES:
     dance-double:
     :
     Hard:
     14:
     :
00000000
00000000
00000000
00000000
,
00000000
00000000
00000000
00000000
,
00000000
00000000
00000000
00000000
,
20000000
00000000
00020000
30000000
,
00002000
00030000
00003001
00001000
,
00000002
00000000
00002000
00000003
,
00020000
00003000
10030000
00010000
,
00100000
00000000
01000000
10000000
00100000
00000000
00000000
10000000
01000000
00000000
00010000
00000000
00001000
00000000
00000000
00000000
,
00000010
00000000
00000001
00000100
00000010
00000000
00000000
00000100
00000001
00000000
00001000
00000000
00000100
00000000
00000000
00000000
,
00010000
00000000
00000000
00011000
00000000
00000000
00100000
00000000
00000000
10010000
00000000
00000000
00100000
00000000
00000000
00000000
,
02000000
00000000
00000000
03000000
,
00100000
00000000
00010000
01000000
00100000
00000000
10000000
00000000
00100000
00010000
00001000
00000000
00000010
00000000
00000001
00000000
,
00000010
00000000
00000000
00000010
00000100
00000000
00000000
00000100
00001000
00000000
00000000
00001000
00000010
00000000
00000000
00000010
,
00000100
00000000
00000001
00000010
00000100
00000000
00010000
00000000
00001000
00100000
00010000
00000000
10000000
00000000
01000000
00000000
,
00100000
00000000
00000000
00100000
00001000
00000000
00000000
00001000
01000000
00000000
00100000
00000000
10010000
00000000
00000000
00000000
,
01000000
00000000
00100000
00001000
00010000
00000000
00001000
00000000
00000010
00000001
00001000
00000000
00000010
00000000
00000100
00000000
,
00001000
00000000
00000000
00001000
00010000
00000000
00000000
00010000
00000100
00000000
00000000
00000100
00000010
00000000
00000000
00000010
,
00001000
00010000
00100000
00000000
01000000
00001000
00100000
00000000
,
20020000
00000000
00000000
30030000
,
00100000
00000000
10010000
00000000
01000000
01000000
01000000
00000000
,
00010000
00000000
10000000
00000000
01000000
00100000
00000000
00100000
00000000
00000000
00010000
00000000
00001000
00000000
00010000
00000000
,
00001000
00000000
00001001
00000000
00000100
00000100
00000100
00000000
,
00000001
00000000
00001000
00000000
00000010
00000100
00000000
00000100
00000000
00000000
00001000
00000000
00010000
00000000
00100000
00000000
,
10000000
00000000
11000000
00000000
00100000
00100000
00100000
00000000
,
00010000
00000000
00001000
00000000
00010000
00100000
00000000
00100000
00000000
00000000
00010000
00000000
00001000
00000000
00000000
00000000
,
00010000
00001000
00000000
00010000
00001000
00000000
00010000
00001000
00000000
00010000
00001000
00000000
00010000
00000000
00001000
00000000
,
00000200
00000000
00000000
00001000
00000000
00000000
00000010
00000000
00000000
00000001
00000000
00000000
00000310
00000000
00000000
00000000
,
00001000
00001000
00001000
00000000
00100000
00100000
00100000
00000000
,
00010000
00010000
00010000
00000000
00000100
00000100
00000100
00000000
,
00000001
00000001
00000001
00000000
00000010
00000010
00000010
00000000
,
00000100
00000100
00000100
00000000
00010000
00010000
00010000
00000000
,
00001000
00010000
00011000
00000000
00100000
10000000
10100000
00000000
,
10000000
00010000
10010000
00000000
00100000
00001000
00101000
00000000
,
00010000
00000100
00010100
00000000
00001000
00000001
00001001
00000000
,
00000100
00000000
00000000
00001100
00000000
00000000
00010000
00000000
00000000
00110000
00000000
00000000
10010000
00000000
00000000
00000000
,
01000000
00000000
00010000
00100000
01000000
00000000
10000000
00000000
00100000
00010000
00001000
00000000
00000100
00000000
00000001
00000000
,
00000010
00000000
00000100
00001000
00010000
00000000
00100000
00000000
01000000
10000000
00100000
00000000
01000000
00000000
00010000
00000000
,
00100000
00000000
00001000
00010000
00000010
00000000
00001000
00000000
00000100
00010000
00000010
00000000
00000100
00000000
00000001
00000000
,
00000010
00000000
00000000
00000010
00001000
00000000
00000000
00001000
00010000
00000000
00001000
00000000
00011000
00000000
00000000
00000000
,
00100000
00000000
01000000
10000000
00010000
00000000
00100000
00000000
00001000
00010000
00100000
00000000
01000000
00000000
00010000
00000000
,
00001000
00000000
00000100
00000010
00000001
00000000
00001000
00000000
00000010
00000100
00000001
00000000
00001000
00000000
00000100
00000000
,
00000010
00001000
00000010
00000000
00001000
00010000
00001000
00000000
01000000
10000000
01000000
00000000
00100000
00000000
00000000
00000000
,
10100000
00000000
10000000
01000000
00000000
10000000
00100000
00000000
10000000
01000000
00000000
10000000
00100000
10000000
00010000
10000000
,
01000000
00000000
00000000
01000000
00000000
00000000
00100000
00000000
01000000
00000000
00000000
01000000
00000000
00000000
00100000
00000000
,
00010000
00000000
00000000
00010000
00000000
00000000
00100000
00001000
00010000
00000000
00000010
00000000
00000100
00000000
00000000
00000000
,
00000100
00000000
00000000
00000100
00000001
00000000
00000100
00000000
00000010
00000000
00000000
00000010
00001000
00000000
00010000
00000000
,
00100000
00000000
00000000
00100000
00010000
00000000
01000000
00000000
00010000
00000000
00001000
00000000
00001000
00000000
00000000
00000000
,
00000001
00000000
00000000
00000001
00000010
00000000
00000010
00000000
00000100
00000000
00000000
00000100
00001000
00000000
00010000
00000000
,
00100000
00000000
00000000
00100000
00010000
00000000
00100000
00000000
01000000
00000000
10000000
00000000
10000000
00000000
00000000
00000000
,
00100000
00000000
00000000
00100000
01000000
00000000
00010000
00000000
01000000
00000000
00000000
01000000
00001000
00000000
00010000
00000000
,
00001000
00001000
00010000
00000000
00001000
00001000
00010000
00000000
00011000
00000000
00000000
00000000
00000000
00000000
00000000
00000000
,
01010000
01100000
00110000
00011000
,
00001010
00000000
00001001
00000000
00000100
00001000
00000100
00000000
,
00010000
00001000
01000000
00100000
,
10100000
01010000
00011000
00001100
,
00000010
00000100
00000010
00000000
00010000
00000000
00001000
00000000
,
00100000
01000000
00100000
00000000
00100000
01000000
00100000
00000000
,
00001000
00000010
00000100
00001000
,
00000001
00000100
00001000
00010000
,
00100000
00000000
00000000
00000000
00100000
00000000
00000000
00000000
00100000
10000000
00000000
00000000
01000000
00000000
00000000
00000000
,
00010000
00000000
00000000
00000000
00001000
00000000
00000000
00000000
00001000
00010000
00000000
00000000
00000010
00000000
00000000
00000000
,
00001000
00000000
00000000
00000000
00001000
00000000
00000000
00000000
00000001
00000010
00000000
00000000
00000100
00000000
00000000
00000000
,
00010000
00000000
00000000
00000000
00010000
00000000
00000000
00000000
01000000
00100000
00000000
00000000
01000000
00000000
10000000
00000000
,
00010000
00100000
00001000
00010000
,
00000010
00000100
00000010
00000000
00010000
00000000
01000000
00000000
,
00100000
01000000
00100000
01000000
00001000
00000000
00000100
00000000
,
00001000
00000000
00010000
00000000
00001000
00010000
00001000
00010000
,
00022000
00000000
00000000
00000000
,
00033000
00000000
00000000
00000000
,
00010000
00000000
00000000
10000000
00000000
00000000
00100000
01000000
,
00100000
00000000
00000000
00010000
00000000
00000000
00001000
00000000
,
00010000
00000000
00000000
01000000
00000000
00000000
00010000
00001000
,
00010000
00000000
01001000
00000000
,
00100000
00000000
00000000
00010000
00000000
00000000
00001000
00000000
,
00000010
00000000
00000000
00000011
00000000
00000000
00001000
00000000
,
00000100
00000000
00000000
00000010
00000000
00000000
00001000
00000000
,
00010000
00000000
00000000
00000000
,
00010000
00000000
00000000
01000000
00000000
00000000
10000000
01000000
,
10000000
00000000
00000000
01000000
00000000
00000000
00010000
00000000
,
00001000
00000000
00001100
00000000
,
00000101
00000000
00000000
00000001
00000000
00000000
00000010
00000000
,
00001000
00000000
00000000
01000000
00000000
00000000
00001000
00010000
,
00001000
00000000
00000000
00011000
00000000
00000000
00010000
00000000
,
01000000
00000000
00000000
10000000
00000000
00000000
00010000
00000000
,
00100000
00000000
00110000
00000000
,
00000000
10000000
00000000
00100000
00010000
00000000
00001000
00000000
00000000
00000010
00000000
00001000
00010000
00000000
01000000
00000000
,
00000000
00010000
00000000
00001000
00000010
00000000
00000001
00000000
00000000
00000100
00000000
00001000
00010000
00000000
00100000
00000000
,
00000000
10000000
00000000
01000000
00010000
00000000
00001000
00000000
00000000
01000000
00000000
00010000
00001000
00000000
00000100
00000000
,
00000000
00000001
00000000
00000010
00001000
00000000
00010000
00000000
00000000
00000010
00000000
00001000
00010000
00000000
01000000
00000000
,
00000000
00010000
00000000
00000000
00000000
00000000
00000000
00000000
00000000
00000000
00000000
00000000
10000000
00000000
00000000
00000000
00000000
00000000
00000000
00000000
00000000
00000000
00000000
00000000
00100000
00000000
00000000
00000000
00000000
00000000
00000000
00000000
00020000
00000000
00000000
00000000
00000000
00000000
00000000
00000000
00000000
00000000
00000000
00000000
00000000
00000000
00000000
00000000
00001000
00000000
00000000
00000000
00000000
00000000
00000000
00000000
00000000
00000000
00000000
00000000
00000000
00000000
00000000
00000000
,
00100000
00031000
00000100
00000010
,
00001000
00000000
00000000
00000001
00000000
00000000
00000010
00000000
00002000
00000000
00000000
00000000
00010000
00000000
00000000
00000000
,
00000010
00013000
01000000
00000000
,
00100000
00000000
00000000
00010000
00000000
00000000
00001000
00000000
00000010
00000000
00000000
00001000
00000000
00000000
00010000
00000000
,
00001000
00001100
00000101
00001100
,
00000010
00000000
00000000
00001000
00000000
00000000
00010000
00000000
00100000
00000000
00000000
00010000
00000000
00000000
00001000
00000000
,
00010000
01010000
11000000
10010000
,
00100000
00000000
00000000
00001000
00000000
00000000
00010000
00000000
00000010
00000000
00001000
00000000
00001001
00000000
00000000
00000000
,
00000010
00000001
00000100
00001000
00010000
01000000
10000000
00100000
,
00010000
00000000
00000000
00000000
,
00010000
01000000
00100000
00010000
00001000
00100000
01000000
10000000
,
01000000
00000000
10000000
00000000
00100000
00000000
00010000
00000000
00001000
00010000
00001000
00000000
00010000
00000000
01000000
00000000
,
00010000
00001000
00000100
00000001
00000010
00000001
00001000
00000100
,
00000010
00000000
00000100
00000000
00001000
00000000
00010000
00000000
00100000
00010000
00000000
00010000
10000000
00000000
01000000
00000000
,
00010000
01000000
10000000
00100000
00010000
00001000
00010000
00100000
,
00010000
00000000
00001000
00000000
00000100
00000000
00000001
00000000
00000010
00000100
00000010
00000000
00000001
00000000
00000100
00000000
,
00001000
00000100
00001000
00010000
01000000
00100000
10000000
00100000
,
00010000
00100000
11000000
00000000
01010000
00000000
00100000
00010000
,
00001000
00000010
00001000
00010000
00100000
00010000
00001000
00000100
,
00001000
00000000
00000100
00000000
00000001
00000000
00000010
00000000
00000100
00001000
00000100
00000000
00000010
00000000
00001000
00000000
,
00010000
01000000
10000000
01000000
00010000
00001000
00000100
00000001
,
00000010
00001000
00011000
00000000
01100000
00000000
10000000
00100000
,
00010000
00100000
10000000
00100000
00010000
00001000
00010000
00010000
,
00001000
00000100
00000100
00000100
00000001
00000010
00000010
00001000
,
00010000
00000000
00001000
00000000
00001000
00000000
00100000
00000000
00100000
00000000
01000000
00000000
10000000
00010000
10000000
00000000
,
00100000
00010000
00001000
00000100
00000001
00000010
00001100
00000000
;
