
//----- song ID: uber -----//
#TITLE:Übertreffen;
#ARTIST:TAKA respect for J.S.B.;
#TITLETRANSLIT:Ubertreffen;
#BANNER:Ubertreffen.png;
#BACKGROUND:Ubertreffen-bg.png;
#CDTITLE:./CDTitles/pnm 14 FEVER!.png;
#MUSIC:Ubertreffen.ogg;
#SAMPLESTART:28.96;
#SAMPLELENGTH:15;
#DISPLAYBPM:174;
#BPMS:0=175,4=174;
#STAGE:2;
#NOTES:
     dance-single:
     :
     Beginner:
     3:
     :
0000
0000
0000
0000
,
0000
0000
0000
0000
,
0000
0000
0000
0000
,
0000
0000
0000
0000
,
0000
0000
0000
0000
,
0001
0000
0000
0000
,
0001
0000
0000
0000
,
1000
0000
0000
0000
,
1000
0000
0000
0000
,
0001
0000
0001
0000
,
0001
0000
0000
0000
,
1000
0000
1000
0000
,
1000
0000
0000
0000
,
0001
0000
0001
0000
,
1000
0000
0000
0000
,
1000
0000
1000
0000
,
0001
0000
0000
0000
,
1000
1000
1000
0000
,
1000
0000
0000
0000
,
0001
0001
0001
0000
,
0001
0000
0000
0000
,
0100
0000
0000
0100
,
0100
0000
0000
0100
,
0100
0000
0000
0100
,
0100
0000
0100
0000
,
0010
0000
0000
0010
,
0010
0000
0000
0010
,
0010
0000
0000
0010
,
0010
0000
0010
0000
,
0001
0000
0001
0000
,
1000
0000
0001
0000
,
1000
0000
1000
0000
,
0001
0000
1000
0000
,
0001
0000
1000
0000
,
0001
0000
1000
0000
,
0001
0000
0001
0000
,
0100
0000
0100
0000
,
1000
0000
1000
0000
,
0100
0000
0100
0000
,
0010
0000
0010
0000
,
0100
0000
0100
0000
,
0001
0000
0000
0000
,
0010
0000
0000
0000
,
1000
0000
0000
0000
,
0100
0000
0000
0000
,
0001
0000
0001
0000
,
1000
0000
1000
0000
,
0100
0000
0010
0000
,
1000
0000
0000
0000
,
0001
0000
0000
0000
,
1000
0000
0001
0000
,
1000
0001
1000
0000
,
0001
0000
0001
0000
,
0100
0000
0100
0000
,
1000
0000
1000
0000
,
0100
0000
0100
0000
,
0001
0000
0100
0000
,
1000
0000
0100
0000
,
0001
0000
0010
0000
,
1000
0000
0010
0000
,
0001
0000
0001
0000
,
0001
0001
0001
0000
,
1000
0000
1000
0000
,
1000
1000
1000
0000
,
0100
0000
0001
0000
,
1000
0000
0100
0000
,
0010
0000
0010
0010
,
0010
0000
1001
0000
,
0000
0000
0000
0000
;
#NOTES:
     dance-single:
     :
     Easy:
     6:
     :
0000
0000
0000
0000
,
0000
0000
0000
0000
,
0000
0000
0000
0000
,
0000
0000
0000
0000
,
0000
0000
0000
0000
,
0001
0001
0001
0000
,
1000
1000
1000
0000
,
0010
0010
0010
0000
,
0100
0100
0100
0000
,
0001
1000
0001
0000
,
0001
0100
0001
0000
,
1000
0001
1000
0000
,
1000
0100
1000
0000
,
0001
0100
1000
0000
,
1000
0100
0001
0000
,
0001
0010
1000
0000
,
1000
0010
0001
0000
,
1000
1000
0001
1001
,
0100
0010
0100
0000
,
0001
0001
1000
1001
,
0100
0010
0100
0000
,
1000
0100
0001
0000
,
1000
0100
0001
0000
,
1000
0100
0001
0000
,
1000
1000
1000
0000
,
0001
0010
1000
0000
,
0001
0010
1000
0000
,
0001
0010
1000
0000
,
0001
0001
0001
0000
,
0001
1000
0001
1000
,
0001
0100
0001
0000
,
1000
0100
1000
0100
,
1000
0001
1000
0000
,
0010
0010
0100
0100
,
0010
0100
0010
0000
,
0001
1000
0100
1000
,
0001
1000
0100
0000
,
1000
0001
0100
0001
,
1000
0001
0100
0000
,
0001
0001
1000
1000
,
0100
0100
0100
0000
,
2000
3000
1000
0000
,
0002
0003
0001
0000
,
2000
3000
1000
0000
,
0002
0003
0001
0000
,
1000
0100
0010
0000
,
0001
0010
0100
0000
,
1000
0100
0010
0001
,
2002
0000
0000
3003
,
0220
0000
0000
0330
,
2002
3003
0220
0330
,
1001
0110
1001
0000
,
0001
0100
0001
0100
,
0001
1000
0001
0000
,
1000
0001
1000
0001
,
1000
0100
1000
0000
,
0002
0100
0000
0103
,
2000
0100
0000
3100
,
0002
0010
0000
1003
,
2000
0010
0000
3001
,
1000
0100
0001
0100
,
1000
0100
0001
0100
,
1000
0001
1000
0001
,
0100
0010
0100
0010
,
1000
0010
0100
0001
,
0010
0100
1000
0001
,
0100
0010
0020
0000
,
0130
0000
0200
0000
,
0000
0000
0000
0000
,
0000
0000
0000
0000
,
0000
0300
0000
0000
,
0000
0000
0000
0000
;
#NOTES:
     dance-single:
     :
     Medium:
     8:
     :
0000
0000
0000
0000
,
0000
0000
0000
0000
,
0000
0000
0000
0000
,
0000
0000
0000
0000
,
0000
0000
0000
0000
,
0010
0010
0010
1000
,
0010
0010
0010
0001
,
0010
0010
0010
0100
,
0010
0010
0010
1001
,
0010
1000
0001
0000
0010
0000
0100
0000
,
0010
0001
1000
0000
0010
0000
0100
0000
,
0010
1000
0100
0000
0010
0000
0100
0000
,
0010
0001
0100
0000
1000
0000
0100
0000
,
0100
0001
1000
0000
0001
0000
1000
0000
,
0100
1000
0001
0000
1000
0000
0100
0000
,
0100
1000
0010
0000
0100
0000
0010
0000
,
0100
0001
0010
0000
0001
0000
0100
0000
,
0001
0100
0001
0100
0001
0000
0000
0000
,
1000
0010
0100
0001
,
1000
0010
1000
0010
1000
0000
0000
0000
,
0001
0010
0100
1000
,
1001
0000
0001
0000
0001
0001
0000
0000
,
1001
0000
1000
0000
1000
1000
0000
0000
,
1001
0000
0001
0000
0001
0001
0000
0000
,
1001
1000
0001
0100
,
0110
0000
0100
0000
0001
0001
0000
0000
,
0110
0000
0010
0000
1000
1000
0000
0000
,
0110
0000
0100
0000
0001
0001
0000
0000
,
0110
2000
0002
3003
,
0010
0001
0010
0000
0100
0000
0001
0000
,
1000
0100
1000
0000
0010
0000
0001
0000
,
0100
0010
0100
0000
0001
0000
1000
0000
,
0010
0010
0010
0010
,
0100
1000
0100
0000
0010
0000
1000
0000
,
0001
0100
0001
0000
0010
0000
1000
0000
,
0100
1000
0100
0000
0001
0000
0010
0000
,
0100
0100
0100
0100
,
1000
0010
1000
0000
0001
0000
0100
0000
,
0010
0100
0010
0000
1000
0000
0001
0000
,
1000
0100
1000
0000
0001
0100
0001
0000
,
0100
0100
0010
0110
,
1000
2000
0000
3010
,
0100
0200
0000
0301
,
0010
0020
0000
1030
,
0001
0002
0000
1003
,
0001
0000
1000
0000
0001
0100
0100
0000
,
1000
0000
0001
0000
1000
0100
0100
0000
,
0010
0010
0100
0100
,
0001
0000
0010
0000
0100
1000
0100
0000
,
0001
0000
0010
0000
0100
1000
0100
0000
,
0001
0010
0001
0000
0100
1000
0100
0000
,
0001
0010
0100
1000
0100
0010
0001
0000
,
0100
0001
1000
0000
0010
0000
0010
0000
,
0100
1000
0001
0000
0100
0000
0010
0000
,
0100
0001
0010
0000
1000
0000
0010
0000
,
0100
1000
0010
0000
0001
0000
0010
0000
,
0100
1100
0010
0011
,
0100
0101
0010
1010
,
0001
0110
0100
1001
,
1000
0110
0010
1001
,
0010
1000
0001
0000
0100
0000
0001
0000
,
0010
0001
1000
0000
0100
0000
0010
0000
,
0010
0001
0100
0000
0010
0000
0100
0000
,
0010
1000
0100
0000
1000
0000
0010
0000
,
0010
0000
1001
1001
,
0010
1000
0001
0000
0010
0001
1000
0000
,
0010
1000
0001
0010
0001
1000
0010
0000
,
0110
0000
2002
0000
,
0000
0000
0000
0000
,
0000
0000
0000
0000
,
0000
3003
0000
0000
,
0000
0000
0000
0000
;
#NOTES:
     dance-single:
     :
     Hard:
     13:
     :
0000
0000
0000
0000
,
0000
0000
0000
0000
,
0000
0000
0000
0000
,
0000
0000
0000
0000
,
0000
0000
0000
0000
,
1010
0010
0010
1010
,
0011
0010
0010
0011
,
0110
0010
0010
0010
,
1001
0010
0010
1001
,
0001
0100
1000
0100
0001
0010
0100
0010
,
0001
0100
1000
0010
1000
0100
0001
0010
,
1000
0010
0100
0001
0100
1000
0010
0100
,
0001
0010
1000
0100
1000
0010
0001
0000
,
1000
0010
0001
0010
1000
0001
0010
1000
,
0010
0001
0100
1000
0100
0001
0010
1000
,
0010
0100
1000
0010
0001
0100
0001
0010
,
0100
1000
0100
0001
0010
0001
1000
0000
,
0010
0010
0100
0010
0010
0000
1001
0000
,
0200
0001
0010
1300
,
0010
0010
0100
0010
0010
0000
1001
0000
,
0200
1000
0010
0301
,
1000
0100
0010
0000
0001
0001
0000
0110
,
1000
0100
0010
0000
0001
0001
0000
0110
,
1000
0100
0010
0000
0001
0001
0000
0110
,
1000
0001
0010
0100
1000
0001
0010
0000
,
1000
0100
0001
0100
0010
0010
0000
0110
,
1000
0100
0001
0100
0010
0010
0000
0110
,
1000
0100
0001
0100
0010
0010
0000
0110
,
1000
0001
0200
0010
0310
1000
1001
0000
,
0100
0010
0110
0000
0000
0010
0100
1000
,
0100
0010
1000
0000
0000
0010
1000
0001
,
0100
0010
0101
0000
0000
1000
0001
0100
,
0010
1000
0010
0000
0000
0001
0001
0000
,
0010
0100
1001
0000
1000
0001
0110
0000
,
0010
0001
0011
0000
0000
1000
0100
0100
,
1000
0010
1010
0000
0000
0100
0001
0001
,
0100
0010
0110
0000
0000
0001
1000
1000
,
0100
0001
0101
0000
0000
0010
0100
0100
,
1000
0001
1001
0000
0010
0100
1001
0000
,
0010
1000
0001
0100
,
0010
1000
0001
0100
0010
0001
0001
0000
,
2000
0000
0010
0000
0001
0001
3000
0010
,
0200
0000
1000
0000
0010
0010
0300
0001
,
0020
0000
0100
0000
1000
1000
0030
0100
,
2100
3010
0012
0103
,
1000
0000
1000
0000
0010
0100
0001
1000
,
0010
0000
0010
0000
0001
1000
0100
0010
,
0001
0001
0010
0100
,
0001
0010
0100
1000
0001
0010
0100
1000
,
1000
0010
0100
0001
1000
0010
0100
0001
,
0001
0100
1000
0100
0001
0100
1000
0100
,
0001
0000
0001
0000
1000
0000
1000
0000
0010
0000
0010
0000
1000
0001
1000
0001
,
1000
0010
0001
0010
1000
0100
0010
0100
,
1000
0010
0001
0100
0001
0010
1000
0100
,
0001
0100
0010
1000
0010
0001
0100
0010
,
1000
0100
0001
0010
0001
0100
1000
0000
,
0001
0100
1100
0000
1000
0100
0101
0000
,
0100
1000
1010
0000
0100
0010
0011
0000
,
0100
1000
0001
0010
0100
1000
1010
0000
,
0010
0001
0010
1000
0100
0001
0101
0000
,
1000
1000
0001
0010
1000
0010
0001
0001
,
0100
1000
0010
1000
0100
0010
0100
0100
,
0001
0010
1000
0100
1000
0010
0001
0001
,
0100
1000
0100
0010
1000
0001
0010
0010
,
0100
0100
1000
0001
0010
0010
1000
0010
,
0001
0001
0100
1000
0010
0010
1000
0100
,
0001
0010
0100
1000
0001
1000
0100
0010
,
0110
0000
2002
0000
,
0000
0000
0000
0000
,
0000
0000
0000
0000
,
0000
3003
0000
0000
,
0000
0000
0000
0000
;
#NOTES:
     dance-single:
     :
     Challenge:
     18:
     :
0000
0000
0000
0000
,
0000
0000
0000
0000
,
0000
0000
0000
0000
,
0000
0000
0000
0000
,
0000
0000
0000
0000
,
2010
0010
3010
1000
,
0012
0010
0013
0001
,
2001
0100
3100
1000
,
0001
0000
0001
0000
1000
0000
1000
0000
0001
0100
0010
1000
0001
0000
0000
0000
,
1000
0001
0010
0000
0100
0000
1000
0000
0001
0100
0001
0000
1000
0010
1000
0000
,
0001
1000
0100
0000
0010
0000
0001
0000
1000
0010
1000
0000
0001
0100
0001
0000
,
1000
0100
0010
0001
1000
0000
0010
0000
0100
0001
1000
0001
0010
0000
0100
0000
,
1000
0001
0100
0010
1000
0000
0001
0000
1000
0000
0100
1000
0000
0001
0000
1000
,
0010
0000
0100
0001
0010
0000
0100
0000
1000
0001
1000
0000
0010
0000
0100
0001
,
0010
0000
0100
0000
1000
0000
0001
0100
0010
0000
1000
0000
0100
0010
0001
0000
,
1000
0000
0001
0100
1000
0000
0100
0000
0001
1000
0010
0100
0001
0000
1000
0000
,
0001
0000
1000
0100
0001
0000
0100
0000
1000
0001
0010
0100
1000
0000
0000
0000
,
0011
0001
1001
0001
0101
0000
1001
0000
,
0001
0100
1000
0001
1000
0100
0001
0000
,
1010
1000
1001
1000
1100
0000
1001
0000
,
1000
0100
0001
1000
0001
0100
1000
0000
,
0001
0000
1000
0100
1000
0000
0100
0000
0001
0000
0010
0000
0001
0000
0100
0000
,
1000
0000
0001
0100
0001
0000
0100
0000
1000
0000
0010
0000
1000
0000
0100
0000
,
0001
0000
1000
0100
1000
0000
0100
0000
0001
0000
0010
0000
0001
0000
0100
0000
,
1000
0001
0100
0010
1000
0001
0010
1000
0010
0001
1000
0010
0100
0000
0001
0000
,
1000
0000
0100
0010
0001
0000
0100
0000
1000
0000
0010
0000
1000
0000
0001
0000
,
0010
0000
0100
0010
1000
0000
0100
0000
0001
0000
0010
0000
0001
0000
1000
0000
,
0010
0000
0100
0010
0001
0000
0100
0000
1000
0000
0010
0000
1000
0000
0001
0000
,
0010
0100
0001
1000
0100
0001
0100
1000
0001
0100
0010
1000
0001
0000
0000
0000
,
1000
0010
0100
0000
0001
0000
1000
0001
0010
0100
1000
0001
0010
0001
1000
0000
,
0001
0010
0100
0000
1000
0010
0001
0000
0010
0100
0001
1000
0100
0000
0010
0000
,
0001
0100
0010
0000
1000
0000
0001
1000
0100
0010
0001
1000
0100
1000
0001
0000
,
1000
0100
0010
0000
0001
0100
1000
0000
0100
0010
1000
0001
1000
0100
0010
0001
,
1000
0010
0100
1000
0001
0010
0100
0001
1000
0100
0010
1000
0001
0100
0010
0001
,
1000
0010
0100
0001
1000
0000
0001
0000
1000
0001
0100
1000
0000
0010
0000
1000
,
0100
0001
1000
0001
1000
0000
0001
0000
1000
0001
0010
1000
0000
0100
0000
1000
,
0010
0001
1000
0001
1000
0000
0010
0000
1000
0001
0100
1000
0000
0010
0000
1000
,
0001
0010
1000
0000
0001
0000
0010
0000
0100
1000
0100
0000
0010
0000
0001
0000
,
1000
0010
1000
0000
0001
0000
0100
0000
0001
1000
0001
0000
0010
0000
0100
0000
,
1000
0001
0100
0000
0001
0100
1000
0000
0100
0001
1000
0000
0001
0010
1000
0000
,
0010
0001
1000
0000
0001
1000
0100
0010
0001
0000
0000
0000
1000
0001
0100
0010
,
1000
0000
0001
0020
0000
0130
1000
0200
,
0000
0310
0001
0020
0000
0130
1000
0001
,
0010
0001
0100
0010
1000
0100
0001
0010
,
0001
0000
0100
0000
1000
0000
0010
0000
0100
0000
0001
1000
0001
0000
1000
0000
,
0010
0100
1000
0100
0001
0010
1000
0100
,
1000
0010
0100
1000
0001
0100
1000
0010
,
1000
0100
0010
1000
0100
0010
0001
0000
,
1000
0010
0100
0001
1000
0010
0001
1000
0100
0001
1000
0001
0100
0010
1000
0001
,
1000
0100
0010
0001
1000
0100
0001
1000
0010
0001
1000
0001
0010
0100
1000
0001
,
1000
0010
0001
1000
0001
0010
1000
0001
1000
0100
0001
1000
0001
0100
1000
0001
,
0100
0001
0010
0100
1000
0001
0010
1000
0001
0100
0010
0100
1000
0001
0100
0010
,
1000
0100
0010
0100
0001
0100
0010
0001
,
1000
0010
0100
0000
1000
0100
0010
0000
1000
0100
0010
0000
1000
0010
0100
1000
,
0001
0100
0010
0100
1000
0100
0010
1000
,
0001
0010
0100
0000
0001
0100
0010
0000
0001
0100
0010
0000
0001
0010
0100
0001
,
1000
1100
0001
0101
,
1000
0011
0001
1010
,
1000
0001
1100
0000
0001
1000
0101
0000
,
1000
0100
1001
1000
0001
0100
1001
0000
,
0001
0000
1000
0100
0010
0000
0001
0000
2000
0000
0100
0000
3200
0000
0010
0000
,
0320
0001
0032
1000
2003
0010
3020
0100
,
0130
0001
1000
0000
0001
0010
0100
1000
0001
0100
0010
0001
1000
0100
0001
1000
,
0100
0000
0010
0000
0001
0100
0010
1000
0001
0010
0100
0001
1000
0010
0001
1000
,
0010
0100
1001
0000
0110
0000
0110
0000
,
1001
0000
0000
0000
0001
0000
1000
0000
0001
1000
0100
0010
0001
1000
0010
0001
,
1000
0100
0010
0100
0001
1000
0100
1000
0001
0100
1000
0010
1000
0100
0001
1000
,
0100
0000
0220
0000
,
0000
0000
0000
0000
,
0000
0000
0000
0000
,
0000
0330
0000
0000
,
0000
0000
0000
0000
;
#NOTES:
     dance-double:
     :
     Easy:
     5:
     :
00000000
00000000
00000000
00000000
,
00000000
00000000
00000000
00000000
,
00000000
00000000
00000000
00000000
,
00000000
00000000
00000000
00000000
,
00000000
00000000
00000000
00000000
,
00000001
00000000
00000001
00000000
,
00001000
00000000
00001000
00000000
,
00010000
00000000
00010000
00000000
,
10000000
00000000
10000000
00000000
,
10000000
01000000
10000000
01000000
,
00100000
00001000
00010000
00000000
,
00000010
00001000
00000010
00001000
,
00000100
00010000
00001000
00000000
,
01000000
00010000
01000000
00000000
,
00001000
00010000
00001000
00000000
,
00000010
00000001
00000010
00000000
,
00001000
00010000
00001000
00000000
,
00010000
00010000
00010000
00100000
,
01000000
00000000
00010000
00000000
,
00001000
00001000
00001000
00000010
,
00000100
00000000
00001000
00000000
,
00000001
00000001
00000010
00000001
,
00000010
00000010
00000100
00000010
,
00000100
00000100
00001000
00000100
,
00001000
00001000
00001000
00000000
,
00010000
00010000
00100000
00010000
,
00100000
00100000
01000000
00100000
,
01000000
01000000
10000000
01000000
,
10000000
10000000
10000000
00000000
,
10000000
01000000
00010000
00000000
,
00100000
00010000
01000000
00000000
,
00010000
00001000
00001000
00000000
,
00010000
00001000
00000100
00000000
,
00001000
00000100
00000001
00000000
,
00000010
00001000
00000100
00000000
,
00010000
00010000
00001000
00000000
,
00100000
00010000
01000000
00000000
,
10000000
01000000
00010000
00000000
,
00001000
00001000
00010000
00000000
,
00001000
00010000
00000100
00000000
,
00000001
00001000
00000100
00000000
,
00000020
00000000
00000000
00000030
,
00020000
00000000
00000000
00030000
,
00002000
00000000
00000000
00003000
,
00200000
00000000
00000000
00300000
,
01000000
10000000
00000000
10000000
,
01000000
00010000
00000000
00010000
,
00000100
00001000
00000001
00000000
,
00001001
00000000
00000000
00000000
,
00011000
00000000
00000000
00000000
,
10010000
00000000
00000000
00000000
,
00011000
00011000
00011000
00011000
,
00001000
00000000
00001000
00010000
,
00001000
00000000
00100000
01000000
,
00100000
00000000
00010000
10000000
,
00010000
00000000
01000000
00001000
,
01000000
01000000
00000000
00001000
,
00000000
00010000
00000000
00000100
,
00000000
00000010
00000000
00000001
,
00000000
00000100
00000000
00001000
,
00010000
00010000
01000000
00000000
,
01000000
10000000
01000000
10000000
,
00010000
00010000
00100000
00000000
,
00001000
00010000
00001000
00010000
,
00000100
00000100
00000010
00000000
,
00000001
00001000
00000001
00001000
,
00000100
00000100
00010000
00000000
,
00011000
00000000
00022000
00000000
,
00000000
00000000
00000000
00000000
,
00000000
00000000
00000000
00000000
,
00000000
00033000
00000000
00000000
,
00000000
00000000
00000000
00000000
;
#NOTES:
     dance-double:
     :
     Medium:
     8:
     :
00000000
00000000
00000000
00000000
,
00000000
00000000
00000000
00000000
,
00000000
00000000
00000000
00000000
,
00000000
00000000
00000000
00000000
,
00000000
00000000
00000000
00000000
,
10000000
10000000
10000000
10000000
,
00100000
00100000
00100000
00100000
,
00001000
00001000
00001000
00001000
,
00000010
00000010
00000010
00000010
,
00000001
00000100
00001000
00010000
,
00001000
00000000
00000000
00000000
01000000
10000000
00010000
00000000
,
01000000
10000000
01000000
00010000
,
00001000
00000000
00000000
00000000
00000010
00000001
00000100
00000000
,
00000001
00000010
00001000
00010000
,
00001000
00000000
00000000
00000000
00100000
10000000
00010000
00000000
,
10000000
00100000
00010000
00001000
,
00000010
00000000
00000000
00000000
00000010
00000001
00001000
00000000
,
00000100
00001000
00000100
00001000
00000100
00000000
00010000
00000000
,
00001000
00000000
00010000
00000000
01000000
10000000
00010000
00000000
,
01000000
00010000
01000000
00010000
01000000
00000000
00001000
00000000
,
00010000
00000000
00001000
00000000
00000100
00000001
00001000
00000000
,
00000001
00000000
00000010
00000000
00000100
00001000
00000100
00000000
,
00000010
00000100
00001000
00001000
,
00000100
00000000
00001000
00000000
00010000
00100000
00010000
00000000
,
00001000
00010000
00100000
00000000
,
10000000
00000000
00100000
00000000
01000000
00010000
01000000
00000000
,
00100000
01000000
00010000
00010000
,
01000000
00000000
00010000
00000000
00001000
00000010
00001000
00000000
,
00010000
00001000
00000010
00000000
,
00000001
00000000
00001000
00000000
00000010
00000100
00010000
00000000
,
00000100
00000000
00001000
00000000
00000010
00001000
00010000
00000000
,
00001000
00000000
00010000
00000000
01000000
00100000
10000000
00000000
,
00100000
10000000
00010000
00000000
,
00001000
00000000
00010000
00000000
00001000
00010000
00000100
00000000
,
00000010
00000000
00000001
00000000
00001000
00000001
00000010
00000000
,
00000100
00000000
00010000
00000000
00001000
00010000
00100000
00000000
,
01000000
00000000
00100000
00000000
10000000
00010000
00100000
00000000
,
00001000
00000000
01000000
00000000
00001000
00010000
00000100
00000000
,
00000010
00000000
00000001
00000000
00000100
00000001
00000010
00000000
,
00000001
00000000
00000100
00000000
00001000
00010000
00001000
00000000
,
00010000
00100000
01000000
00000000
,
10010000
00000000
10000000
01000000
00000000
00010000
00001000
00000000
,
00000000
00000100
00000010
00000000
00000000
00001000
00000001
00000000
,
00000000
00000010
00000100
00000000
00001000
00000000
00010000
00000000
,
00001000
00010000
01000000
10000000
,
10000000
01000000
00010000
00001000
,
00000100
00000001
00000100
00001000
,
00010000
01000000
10000000
01000000
,
00010000
01000000
10000000
00000000
01000000
00000000
00010000
00000000
,
00001000
00000100
00000001
00000000
00000100
00000000
00001000
00000000
,
00010000
00010000
00001000
00001000
,
00010000
00001000
00010000
00001000
00010000
00001000
00010000
00000000
,
00000100
00000100
00001000
00010000
,
00001000
00000000
00010000
00000000
01000000
10000000
00010000
00000000
,
01000000
10000000
01000000
00010000
,
00001000
00000000
00000100
00000000
00000010
00000001
00000100
00000000
,
00000000
00000020
00000031
00000200
,
00000310
00002000
00003100
00020000
,
00031000
00200000
00310000
02000000
,
03100000
20000000
31000000
10010000
,
00100000
00001000
00010000
00000000
00001000
00000000
00000100
00000000
,
00000001
00000010
00000100
00001000
,
00000100
00010000
00001000
00000000
00010000
00000000
01000000
00000000
,
10000000
00100000
01000000
00010000
,
00100000
00000000
00001000
00000000
00010000
00001000
00010000
00000000
,
00000100
00000000
00000010
00000000
00000001
00000000
00000100
00001000
,
00010000
01000000
10000000
00010000
,
00001000
00000000
00022000
00000000
,
00000000
00000000
00000000
00000000
,
00000000
00000000
00000000
00000000
,
00000000
00033000
00000000
00000000
,
00000000
00000000
00000000
00000000
;
#NOTES:
     dance-double:
     :
     Hard:
     14:
     :
00000000
00000000
00000000
00000000
,
00000000
00000000
00000000
00000000
,
00000000
00000000
00000000
00000000
,
00000000
00000000
00000000
00000000
,
00000000
00000000
00000000
00000000
,
00010010
00010000
00010000
00011000
,
00101000
00001000
00001000
00011000
,
00010100
00010000
00010000
00011000
,
01001000
00001000
00001000
00011000
,
00010000
01000000
10000000
00100000
10000000
01000000
00010000
00000000
,
00001000
00000100
00000001
00000010
00000001
00000100
00001000
00000000
,
00010000
00001000
00100000
00010000
01000000
10000000
00100000
10000000
,
01000000
00010000
00100000
00001000
00010000
00001000
00000100
00000000
,
00001000
00000010
00000001
00000100
00000001
00000010
00001000
00000000
,
00010000
00100000
10000000
01000000
10000000
00100000
00010000
00000000
,
00001000
00010000
00000100
00001000
00000010
00000001
00000100
00000001
,
00000010
00001000
00000100
00010000
00001000
00010000
01000000
00000000
,
10000000
10000000
00100000
10000000
10000000
00000000
00101000
00000000
,
00010000
00000000
00000010
00000000
00000100
00000001
00000100
00000000
,
00000001
00000001
00000010
00000001
00000001
00000000
00010010
00000000
,
00001000
00000000
00100000
00000000
01000000
10000000
01000000
00000000
,
10000000
01000000
00010000
00001000
00000100
00000001
00000010
00000000
,
00000001
00000100
00001000
00010000
01000000
10000000
00100000
00000000
,
10000000
01000000
00010000
00001000
00000100
00000001
00000010
00000000
,
00000001
00001000
00000010
00010000
00001000
01000000
00010000
00000000
,
10000000
00100000
00010000
00001000
00000010
00000001
00000100
00000000
,
00000001
00000010
00001000
00010000
00100000
10000000
01000000
00000000
,
10000000
00100000
00010000
00001000
00000010
00000001
00000100
00000000
,
00000001
00000100
00010000
01000000
,
10000000
01000000
00100000
00000000
00000000
00010000
00010000
00000000
,
00000010
00000100
00001000
00000000
00000000
00010000
00010000
00000000
,
00100000
10000000
01000000
00000000
00000000
00001000
00001000
00000000
,
00000010
00000001
00000100
00000000
00000000
00010000
00010000
00000000
,
00100000
01000000
10000000
00010000
00000000
00001000
00010000
00000000
,
00000010
00000100
00000001
00001000
00000000
00010000
00011000
00000000
,
00010000
01000000
10000000
00100000
00000000
00010000
10010000
00000000
,
00001000
00000100
00000001
00000010
00000000
00001000
00001001
00000000
,
00000001
00001000
00000010
00010000
00100000
00000000
01100000
00000000
,
10000000
00010000
00100000
00001000
00000010
00000000
00000110
00000000
,
00001000
00010000
00001000
00000100
00000010
00000000
00001100
00000000
,
00010000
00001000
00010000
01000000
00100000
00000000
01010000
00000000
,
00010000
00000000
01000000
20000000
00000000
31000000
00100000
00010000
,
00000000
00001000
00010000
00002000
00000000
00003100
00000010
00000001
,
00000000
00000001
00000100
00000000
00010000
00000000
10000000
00000000
,
00010000
00001000
00000100
00000010
,
00000001
00000100
00000010
00001000
00000100
00010000
00001000
00100000
,
00010000
01000000
00100000
10000000
01000000
00010000
00001000
00000100
,
00000001
00000010
00000100
00001000
00000010
00010000
00011000
00000000
,
00100000
10000000
00100000
00001000
00100000
10000000
00100000
00001000
,
00000010
00000001
00000010
00010000
00000010
00000001
00000010
00010000
,
01000000
10000000
01000000
00001000
00000100
00000001
00000100
00010000
,
00100000
00000000
00001000
00000000
00010000
00000000
00000010
00000000
00001000
00000000
00000100
00000000
00010000
00001000
00010000
00001000
,
00010000
01000000
10000000
00100000
10000000
01000000
00010000
00000000
,
00001000
00000100
00000001
00000010
00000001
00000100
00001000
00000000
,
00001000
00000010
00000001
00000100
00000001
00000010
00001000
00000000
,
00010000
00100000
10000000
01000000
10000000
00100000
00010000
00000000
,
00001000
11000000
00100000
00011000
,
00010000
00000101
00000010
00011000
,
00001000
00110000
01000000
00011000
,
00010000
00000011
00000100
00011000
,
00010000
01000000
10000000
00100000
01000000
00001000
00010000
00010000
,
00001000
00000100
00000001
00000010
00000100
00010000
00001000
00001000
,
00010000
00100000
10000000
01000000
00100000
00001000
00010000
00010000
,
00001000
00000010
00000001
00000100
00000010
00010000
00001000
00001000
,
00010000
00001000
00010100
01001000
,
00011000
00000000
00100000
01000000
10000000
00010000
00001000
00010000
,
10000000
01000000
00010000
00001000
00000100
00000001
00001000
00010000
,
00100000
00000000
22000000
00000000
,
00000000
00000000
00000000
00000000
,
00000000
00000000
00000000
00000000
,
00000000
33000000
00000000
00000000
,
00000000
00000000
00000000
00000000
;
#NOTES:
     dance-double:
     :
     Challenge:
     18:
     :
00000000
00000000
00000000
00000000
,
00000000
00000000
00000000
00000000
,
00000000
00000000
00000000
00000000
,
00000000
00000000
00000000
00000000
,
00000000
00000000
00000000
00000000
,
00021000
00100000
00031000
00010100
,
00012000
00000010
00013000
01001000
,
00021000
00100000
00001000
00030100
,
00000100
00000000
00000010
00000000
00001000
00000000
00010000
00000000
00001000
00010000
00001000
00010000
00001000
00000000
00000000
00000000
,
01000000
00100000
10000000
00000000
00100000
00000000
00010000
00000000
00000100
00010000
00001000
00000000
00000010
00000100
00001000
00000000
,
00000001
00000100
00000010
00000000
00010000
00000000
00001000
00000000
01000000
00001000
00010000
00000000
00100000
01000000
00010000
00000000
,
10000000
00010000
10000000
00010000
00100000
01000000
10000000
00000000
00010000
01000000
00100000
00000000
00010000
00001000
00100000
00000000
,
00001000
00000010
00001000
00010000
00000010
00001000
00010000
00000100
,
00000001
00001000
00000001
00000000
00000010
00000000
00000100
00000000
00010000
00000000
01000000
00000000
10000000
01000000
10000000
01000000
,
00100000
00000000
00001000
00000000
00010000
00000100
00010000
00001000
00000010
00000000
00000001
00000000
00001000
00000000
00000001
00000000
,
00000100
00000000
00001000
00000000
00010000
00001000
00100000
00000000
00010000
00000000
00001000
00000000
01000000
00000000
00010000
00000000
,
10000000
00000000
00100000
00000000
00010000
00000000
01000000
00000000
00001000
00000000
00010000
00001000
00000100
00000000
00000001
00000000
,
00001000
00000010
00010000
01000000
10000000
00000000
10100000
00000000
,
00100000
01000000
00010000
00000000
10000000
00000000
01000000
00000000
00010000
00000000
01000000
00000000
10000000
00000000
00100000
01000000
,
00010000
00100000
00001000
00000100
00000001
00000010
00000110
00000000
,
00010000
00001000
00100000
00000000
00001000
00000000
00010000
00000000
01000000
00000000
10000000
00000000
00100000
00000000
00010000
00000000
,
00001000
00000000
00010000
00000010
00001000
00000000
00000100
00000000
00000001
00000000
00000010
00000000
00000001
00000000
00000100
00000000
,
00010000
00000000
00001000
00100000
00010000
00000000
01000000
00000000
10000000
00000000
00100000
00000000
10000000
00000000
01000000
00000000
,
00001000
00000000
00010000
00000010
00001000
00000000
00000100
00000000
00000001
00000000
00000010
00000000
00000001
00000000
00001000
00000000
,
00000010
00000001
00000100
00001000
00000010
00010000
00001000
00100000
,
10000000
00000000
00010000
10000000
00010000
00000000
00100000
00000000
10000000
00000000
01000000
00000000
10000000
00000000
00100000
00000000
,
00001000
00000000
00010000
00000100
00001000
00000000
00000010
00000000
00000001
00000000
00000100
00000000
00000001
00000000
00000010
00000000
,
00010000
00000000
00001000
01000000
00010000
00000000
00100000
00000000
10000000
00000000
01000000
00000000
10000000
00000000
00010000
00000000
,
01000000
10000000
00100000
00000000
00010000
00000000
00001000
00000000
00000100
00000000
00000010
00001000
00000001
00000000
00000000
00000000
,
00001000
00000100
00010000
00000000
00000100
00000000
00001000
00000100
00010000
00000000
00001000
00000000
00010000
00100000
01000000
00000000
,
00010000
00100000
01000000
00000000
00010000
00000000
00001000
00010000
00000100
00000000
00010000
00000000
00001000
00000010
00000100
00000000
,
00001000
00000010
00000100
00000000
00001000
00000000
00010000
00001000
00100000
00000000
01000000
00000000
00010000
00001000
00010000
00000000
,
00001000
00000010
00000001
00000100
00010000
00001000
00100000
10000000
,
00010000
10000000
01000000
00000000
10000000
01000000
00010000
00000000
01000000
00010000
00001000
00000000
00010000
00001000
00000010
00000000
,
00000001
00000000
00001000
00000000
00000010
00000000
00000100
00000000
00000001
00000010
00000100
00001000
00000001
00001000
00000010
00010000
,
00001000
00000000
01000000
00000000
00010000
00000000
10000000
00000000
00010000
00100000
01000000
10000000
00010000
10000000
00010000
01000000
,
00001000
00000000
00010000
00000000
00000010
00000000
00001000
00000000
00000001
00000010
00000100
00001000
00000001
00001000
00000010
00010000
,
00001000
00000000
00010000
00000000
01000000
00000000
00010000
00001000
01000000
00000000
00100000
00000000
00010000
00001000
00100000
00000000
,
00010000
00000000
00001000
01000000
00001000
00000000
00010000
00000000
00100000
00001000
00010000
00000000
00100000
00000000
01000000
00001000
,
00010000
00000000
01000000
00000000
00010000
00000000
00001000
00000000
00010000
00000000
00000010
00000000
00001000
00000000
00000001
00000010
,
00000100
00000000
00001000
00000010
00010000
00000000
00001000
00000000
00011000
00000000
00000000
00000000
00010000
00001000
00010000
00001000
,
00010000
00001000
00100000
20000000
00000000
31000000
10000000
00100000
,
00001000
00010000
00000010
00000002
00000000
00000103
00000001
00000010
,
00010000
00001000
01000000
10000000
00100000
10000000
01000000
00001000
,
00010000
00000100
00000001
00000010
00000001
00000100
00010000
00001000
,
00100000
00010000
10000000
00000000
01000000
10000000
00010000
00000000
10000000
00000000
01000000
00010000
00000000
00001000
00000000
00000100
,
00000001
00000100
00000010
00000000
00000100
00000010
00001000
00000000
00000001
00000000
00000010
00001000
00000000
00010000
00000000
00100000
,
10000000
00100000
01000000
00000000
00100000
01000000
00010000
00000000
00100000
00000000
00001000
00010000
00000000
00000100
00000000
00010000
,
00001000
00000010
00000001
00000000
00000100
00000000
00001000
00000000
00010000
00100000
10000000
00000000
01000000
00000000
00010000
00000000
,
00001000
00000010
00000001
00000000
00000100
00000000
00001000
00000000
00010000
00100000
10000000
00000000
01000000
00000000
00010000
00000000
,
00001000
00000010
00000001
00000000
00000001
00000100
00001000
00000000
00010000
00100000
10000000
00000000
10000000
01000000
00010000
00000000
,
00001000
00000000
00000010
00000000
00000001
00000000
00000100
00000000
00000010
00000000
00001000
00000000
00000001
00000100
00001000
00010000
,
00100000
00000000
10000000
00000000
00010000
00100000
01000000
00000000
00010000
00000000
00001000
00000000
00010000
00000010
00001000
00000000
,
00000100
00000000
00000010
00000000
00001000
00000010
00000001
00000000
00000100
00000000
00001000
00000000
00010000
00001000
01000000
00000000
,
00100000
00000000
00010000
00000000
00000100
00010000
00001000
00000000
00000010
00000000
00000001
00000000
00000001
00000010
00000100
00000000
,
00001000
00000010
00010000
00000000
00001000
01000000
00010000
00000000
00100000
00001000
00010000
00000000
00100000
01000000
00010000
00000000
,
10000000
01000000
00100000
00010000
00001000
00000000
00000000
00000000
00000001
00000010
00000100
00001000
00010000
00000000
00000000
00000000
,
10000000
01000000
00100000
00010000
00001000
00000000
00000000
00000000
00000001
00000010
00000100
00001000
00010000
00000000
00000000
00000000
,
10000000
00100000
01000000
00010000
00001000
00000000
00000000
00000000
00000001
00000100
00000010
00001000
00010000
00000000
00000000
00000000
,
10000000
00100000
01000000
00010000
00001000
00000000
00000000
00000000
00000001
00000010
00000100
00001000
00010000
00000000
00000000
00000000
,
10000000
01000000
10000000
01000000
10000000
00000000
01000000
00000000
00010000
00001000
00010000
00001000
00000010
00000001
00000010
00000001
,
00001000
00000100
00000010
00000000
00000001
00000000
00000100
00001000
00010000
00000000
00001000
00010000
00100000
00000000
01000000
00000000
,
00010000
00100000
01000000
00010000
00100000
00010000
10000000
00100000
,
00001000
00000000
00000010
00000000
00000001
00000010
00000100
00000000
00001000
00000000
00000010
00000000
00000100
00000000
00001000
00000000
,
00000010
00001000
00000001
00000010
00010000
00000000
01000000
00000000
,
10000000
00000000
00100000
00000000
00010000
00001000
00010000
00000100
00010000
00001000
00000010
00000001
00001000
00000100
00000010
00000001
,
00001000
00000000
00000001
00000000
00000010
00000000
00001000
00010000
00001000
01000000
00001000
00010000
00100000
10000000
00010000
01000000
,
00100000
00000000
20020000
00000000
,
00000000
00000000
00000000
00000000
,
00000000
00000000
00000000
00000000
,
00000000
30030000
00000000
00000000
,
00000000
00000000
00000000
00000000
;
