#TITLE:SP-TRIP MACHINE~JUNGLE MIX~(X-Special);
#ARTIST:DE-SIRE;
#TITLETRANSLIT:SP-TRIP MACHINE~JUNGLE MIX~(X-Special);
#BANNER:SP-TRIP MACHINE~JUNGLE MIX~(X-Special).png;
#BACKGROUND:SP-TRIP MACHINE~JUNGLE MIX~(X-Special)-bg.png;
#CDTITLE:./CDTitles/DDR X.png;
#MUSIC:SP-TRIP MACHINE~JUNGLE MIX~(X-Special).ogg;
#SAMPLESTART:13.203;
#SAMPLELENGTH:15;
#DISPLAYBPM:160;
#BPMS:0=159.5,4=160.193;
#STAGE:3;

//---------------dance-single - ----------------
#NOTES:
     dance-single:
     :
     Challenge:
     11:
     :
0000
0000
0000
0000
,
0000
0000
0000
0000
,
0000
0000
0000
0000
,
0000
0000
0000
0000
,
0000
0000
0000
0000
,
0000
0000
0000
0000
,
0000
0000
0000
0000
,
0000
0000
0000
0000
,
0000
0000
0000
0000
,
0010
0100
0020
0000
0030
0001
1000
0100
,
0000
0011
0000
1010
0010
0100
0010
2000
,
0000
3001
0001
0000
0000
1100
0000
0011
,
0000
1010
0000
0101
0001
0100
0010
1000
,
0001
0010
0200
0000
0300
1000
0001
0100
,
0000
0011
0000
1100
0100
1000
0010
0002
,
0000
1003
1000
0000
0000
0101
0000
1010
,
0000
1100
0000
0011
0001
0100
0010
1000
,
0001
0010
1000
0001
0100
1000
0002
0000
,
1003
0010
0001
1000
0100
0001
1000
0000
,
0001
0010
0100
0010
0000
1000
0200
0000
,
0300
1100
0000
0011
0000
1010
0000
0101
,
2002
0000
0000
0000
0000
0000
0000
3003
,
1001
0000
0000
0010
1000
0001
0100
1000
,
0001
0010
1000
0200
0000
1300
0001
0000
,
0001
1000
0010
0100
0010
0001
0010
0100
,
0010
1000
0000
0001
0010
0000
1000
0100
,
0000
0001
1000
0200
0000
0001
0301
0000
,
2000
0000
0001
0000
0000
0001
3000
0000
,
0000
1000
0100
0001
1000
0010
0001
1000
,
0001
0100
0010
0000
0000
0010
0100
0000
,
0000
1000
0100
0001
0010
2000
0000
0000
,
0000
0000
0001
0000
0000
0001
3000
0000
,
0001
0100
1000
0010
0001
0010
0100
0010
,
1000
0001
0010
1000
0001
0000
1000
0100
,
0000
0001
0100
1000
0010
0000
0110
0000
,
1000
0100
0001
1000
0010
0001
0000
1000
,
0000
1000
0000
1000
0100
0001
0010
0100
,
0010
0001
0100
1000
0001
0000
0010
0100
,
0000
1000
0100
0001
0010
0000
0110
0000
,
1000
0010
0001
0100
1000
0100
0000
0010
,
0100
0001
1000
0010
1000
0001
0100
0010
,
2000
0000
0000
0002
0000
0000
0000
3003
,
1001
0000
0000
0001
0010
1000
0001
0100
,
1000
1000
0100
0001
0000
1000
0010
0000
,
0100
0101
0000
1010
0000
0011
0000
1100
,
2002
0003
3010
1000
0001
0000
0100
0000
,
1001
0000
0000
0010
1000
0001
0110
0000
,
1000
0000
0001
0000
,
1000
0001
0100
0010
,
1000
0100
0000
1000
0010
0100
0001
0000
,
0001
0010
0100
1000
1100
0000
0101
0000
,
1001
0020
0000
0000
0000
0000
0030
0000
,
0010
0011
0000
1100
0000
0101
0000
1010
,
2002
0003
0020
3000
0000
0000
0030
0000
,
1001
0101
0000
1010
0000
1100
0000
0011
,
0000
1100
1001
0000
0010
0000
1100
0000
,
0011
0000
0110
0000
1000
0100
0001
0010
,
0000
0000
0000
0000
0000
0000
0000
0000
0200
0300
0000
0000
0000
0000
0000
0000
0000
0000
0000
0000
0000
0000
0000
0000
0000
0000
0000
0000
0000
0000
0000
0000
0000
0000
0000
0000
0000
0000
0000
0000
0000
0000
0000
0000
0000
0000
0000
0000
0000
0000
0000
0000
0000
0000
0000
0000
0000
0000
0000
0000
0000
0000
0000
0000
,
0000
0000
0000
0000
;

//---------------dance-double - ----------------
#NOTES:
     dance-double:
     :
     Challenge:
     12:
     :
00000000
00000000
00000000
00000000
,
00000000
00000000
00000000
00000000
,
00000000
00000000
00000000
00000000
,
00000000
00000000
00000000
00000000
,
00000000
00000000
00000000
00000000
,
00000000
00000000
00000000
00000000
,
00000000
00000000
00000000
00000000
,
00000000
00000000
00000000
00000000
,
00000000
00000000
00000000
00000000
00000000
00000000
00001000
00010000
,
01000000
00000000
00110000
00000000
10000000
00100000
01000000
00010000
,
00000000
10000000
01000000
00010000
00001000
00000100
00000001
00000001
,
00000000
00000010
00000100
00000000
00000001
00000010
00000100
00001000
,
00000000
00000001
00000100
00001000
00010000
01000000
10000000
01000000
,
00010000
10000000
00010000
00000000
00001000
00010000
01000000
00010000
,
00000000
00001000
00000100
00000001
00000010
00001000
00010000
01000000
,
00000000
00001000
00000100
00000000
00000001
00000010
00000000
00001100
,
00000001
00000010
00001000
00010000
00100000
10000000
10000000
00000000
,
20000000
00000000
31000000
00100000
00000000
00010000
00001000
00000100
,
00000010
00000000
00000000
00000001
00001000
00010000
00010000
00001000
,
00001000
00000100
00000000
00000001
00000010
00000000
00001000
00000100
,
00000000
00001001
00000000
00011000
00000000
10010000
00000000
00110000
,
00022000
00000000
00000000
00033000
,
00011000
00000000
00000000
10000000
01000000
00010000
00001000
00000010
,
00001000
00010000
00200000
00000000
00310000
00001000
00000000
00000000
,
00100000
00010000
00001000
00000010
00001000
00010000
01000000
10000000
,
00010000
01000000
00000000
00000000
00000000
00000000
00010000
00100000
,
00000000
01000000
10000000
00020000
00000000
10000000
10030000
00000000
,
00000000
00000000
00010000
00000000
00000000
00000001
00000000
00000000
,
00000001
00001000
00000100
00000001
00000100
00001000
00000020
00000000
,
00000030
00000002
00000000
00000000
00000000
00000000
00000003
00000000
,
00000000
00010000
01000000
10000000
00100000
01000000
00000000
00000000
,
00000000
00000000
10000000
00000000
00000000
00001000
00000000
00000000
,
00000001
00000100
00000010
00001000
00010000
01000000
10000000
01000000
,
10000000
00100000
00010000
00100000
01000000
00100000
00000000
00000000
,
00000000
00001000
00000100
00000001
00000010
00000000
00001100
00000000
,
00100000
00010000
10000000
01000000
10000000
00100000
00000000
01000000
,
00000000
00010000
00000000
00001000
00000100
00000001
00000100
00010000
,
00100000
01000000
00010000
01000000
10000000
00010000
00000000
00000000
,
00000000
00001000
00000000
00000001
00000101
00000000
00001100
00000000
,
00100000
00010000
01000000
10000000
01000000
00010000
00000000
00001000
,
00000000
00000100
00000001
00000010
00001000
00010000
00100000
00010000
,
00000100
00001000
00000010
00000200
00000000
00000000
00001300
00020000
,
00000000
00000000
10030000
01000000
00100000
00010000
00001000
00010000
,
01000000
10000000
01000000
00000000
00010000
00100000
00000000
00000000
,
10000000
10010000
00000000
00011000
00000000
00001001
00000000
00011000
,
00020000
00000000
00031000
00010000
00100000
00000000
11000000
00000000
,
00110000
00000000
00000000
00001000
00000100
00000001
00000010
00000100
,
00001000
00000000
00010000
00000000
,
00100000
00000010
01000000
00000100
,
00000001
00000010
00000100
00000010
00000001
00000100
00000000
00000100
,
00001000
00000100
00000001
00000100
00000110
00000000
00001100
00000000
,
00010000
00100000
01000000
00100000
00010000
01000000
10000000
01000000
,
00000000
11000000
00000000
01010000
00000000
00011000
00000000
00001001
,
00002002
00000000
00000000
00003003
,
00001001
00011000
00000000
10010000
00000000
00011000
00000000
00001001
,
00000000
00001000
00010000
00000000
00001000
00000000
00000001
00000100
,
00001000
00010000
00100000
10000000
01000000
00010000
00001000
00000100
,
00000000
00000000
00000000
00000000
00000000
00000000
00000000
00000000
00022000
00033000
00000000
00000000
00000000
00000000
00000000
00000000
00000000
00000000
00000000
00000000
00000000
00000000
00000000
00000000
00000000
00000000
00000000
00000000
00000000
00000000
00000000
00000000
00000000
00000000
00000000
00000000
00000000
00000000
00000000
00000000
00000000
00000000
00000000
00000000
00000000
00000000
00000000
00000000
00000000
00000000
00000000
00000000
00000000
00000000
00000000
00000000
00000000
00000000
00000000
00000000
00000000
00000000
00000000
00000000
,
00000000
00000000
00000000
00000000
;
