#TITLE:SABER WING (Akira Ishihara Headshot mix);
#ARTIST:TAG;
#BANNER:SABER WING (Akira Ishihara Headshot mix).png;
#BACKGROUND:SABER WING (Akira Ishihara Headshot mix)-bg.png;
#CDTITLE:./CDTitles/DDR X.png;
#MUSIC:SABER WING (Akira Ishihara Headshot mix).ogg;
#SAMPLESTART:6.074;
#SAMPLELENGTH:15;
#DISPLAYBPM:79:316;
#BPMS:0=158,15=316,79=158,110=316,198=79,200=316,227=158,255=79,257=316,329=158,333=316,341=79,343=316,351=158,355=316;
#STOPS:15=0.38,109=0.38,216=0.57,221=0.19,222=0.19;

//---------------dance-single - ----------------
#NOTES:
     dance-single:
     :
     Beginner:
     6:
     :
0000
0000
0000
0000
,
0000
0000
0000
0000
,
0000
0000
0000
0000
,
0000
0000
0000
0000
,
0000
1000
0000
0100
,
0000
1000
0000
0010
,
0000
1000
0000
0010
,
0000
0001
0000
0010
,
0000
1000
0000
0010
,
0000
0100
0000
2002
,
0000
0000
0000
3003
,
0000
0010
0000
0000
,
0001
0001
0000
0100
,
0000
1000
0000
0010
,
0000
0010
0000
1000
,
0000
0001
0000
0100
,
0000
1000
0000
0100
,
0000
0010
0000
2000
,
0000
3002
0000
2003
,
0000
3002
0000
1003
,
0000
0100
0000
1000
,
1000
1000
0000
0001
,
0000
0100
0000
0001
,
0001
0001
0000
1000
,
0000
0100
0000
0001
,
0000
0100
0000
1000
,
1000
2000
3000
0001
,
0000
1001
0000
0000
,
1000
0000
0010
0000
,
0010
0000
0001
0000
,
0001
0000
0100
0000
,
1000
0000
0100
0000
,
0010
0000
1000
0000
,
0010
0000
1001
0000
,
0000
0000
0100
0000
,
0000
0000
0010
0000
,
0010
0000
0100
0000
,
1000
0000
0010
0000
,
1000
0000
0001
0000
,
0001
0000
0010
0000
,
1000
0000
0010
0000
,
0001
0000
2002
0000
,
0000
0000
0000
0000
,
3003
0000
0010
0000
,
0010
0000
0100
0000
,
0100
0000
0001
0000
,
0001
0000
1000
0000
,
1000
0000
0100
0000
,
0100
0000
0001
0000
,
0001
0000
0010
0000
,
0100
0000
0100
0000
,
1000
0000
1000
0000
,
0010
0000
0010
0000
,
0001
0000
0001
0000
,
0100
0100
0000
0010
,
0000
1000
1000
2000
,
0000
3000
0000
0001
,
0000
0100
0000
1000
,
1000
1000
0000
1000
,
0000
0010
0000
0001
,
0001
0001
0000
0100
,
0000
1000
0000
0010
,
0010
0010
0000
0100
,
0000
0001
0000
0010
,
0010
0010
0000
0100
,
0000
1000
0000
0001
,
0000
0100
0000
1000
,
0000
0001
0000
0100
,
0000
1000
0000
0010
,
0000
0001
0000
0010
,
0000
0100
0000
1000
,
0000
0001
0000
1001
,
0000
0100
0000
1000
,
0000
1000
0000
0100
,
0000
0100
0000
0010
,
0000
0010
0000
1000
,
0000
0002
0003
2000
,
3000
0002
0003
2000
,
3000
0100
0000
0000
,
0000
1000
0000
1001
,
0000
0010
0000
0000
,
0000
0010
0000
0000
,
0000
0100
0100
0100
,
0000
0010
0000
1000
,
0000
0100
0000
0001
,
0000
0100
0100
0100
,
0000
0000
0000
1000
,
0000
0000
0000
0100
,
0000
0010
0000
1000
,
1000
1000
0000
0001
,
0001
0001
0000
0100
,
0000
0000
0000
0001
,
0000
1001
0000
0000
,
0000
0000
0000
0000
;

//---------------dance-single - ----------------
#NOTES:
     dance-single:
     :
     Easy:
     10:
     :
0000
0000
0000
0000
,
0000
0000
0000
0000
,
0000
0000
0000
0000
,
0000
0000
0000
0000
,
0010
0001
1000
0100
,
0010
0001
1000
0010
,
0100
0001
0000
0010
,
0000
1000
0000
0010
,
1000
0001
0010
0001
,
1000
0100
0010
0002
,
0000
0000
0000
0003
,
1000
0010
0000
0000
,
1000
0001
0010
0100
,
1000
0001
0100
0010
,
1000
0010
0000
0001
,
0000
0010
0000
0100
,
1000
0010
0000
0100
,
0001
0020
0030
0002
,
0000
2003
0000
3002
,
0000
2003
0000
3001
,
0100
0000
1000
0000
0100
0000
0001
0010
,
1000
0001
0010
1000
,
0100
0000
0001
0000
0100
0000
1000
0010
,
0001
1000
1001
0002
,
0103
2000
3100
1001
,
0110
1001
0100
0001
,
1000
0000
2002
0000
3003
0100
1000
0001
,
0010
0110
0001
1000
,
0001
0100
0010
1000
,
0010
0000
0001
0010
,
1000
0010
0100
1000
,
0001
0000
0100
1000
,
0010
1000
0001
0100
,
0010
0000
0001
0000
,
1000
0000
2002
0000
,
0000
3003
0100
0001
,
0100
0010
0100
1000
,
0001
0000
0100
1000
,
0001
0100
0001
0010
,
1000
0000
1100
0000
,
0011
0000
0101
0000
,
1010
0000
0002
0000
,
0000
0000
2000
0000
,
0000
3003
0010
0001
,
0010
0000
0100
0010
,
0100
0000
1000
0100
,
0010
0100
0010
1000
,
0010
0000
0100
0010
,
0100
0000
0001
1000
,
0010
0000
0100
0001
,
0100
0010
0100
0000
,
0001
0100
0010
0100
,
0001
0010
0001
0000
,
1000
0001
0010
0000
,
0100
0001
0000
2002
,
3003
0110
1001
0100
,
0100
0010
0010
1000
,
0100
0001
1000
0110
,
0001
1000
0010
0000
0000
0000
0001
0000
,
0100
1000
0001
1001
,
0100
0001
1000
0000
0000
0000
0100
0000
,
0001
0010
0100
0101
,
0010
0100
0001
0000
0000
0000
1000
0000
,
0010
0000
0001
0010
0001
0000
0100
0000
,
1000
0001
0010
0100
,
0010
0001
0100
1000
,
0010
0100
1000
0001
,
0010
0001
1000
0100
,
0010
0001
0100
0010
,
1000
0010
0100
0010
,
0001
0010
0100
0001
,
0010
0001
0000
1001
,
0000
0100
1000
0001
,
0100
0001
0010
0100
,
1000
0100
0010
0100
,
1000
0010
0100
0001
,
0000
2000
3000
0002
,
0003
2000
3000
0002
,
0003
0100
0010
0000
,
1000
0001
0010
1100
,
0000
0010
0001
0100
,
0001
0010
1000
0100
,
0000
0010
0101
0010
,
1100
0010
0100
0001
,
0010
0100
0010
1000
,
0000
0100
1000
1000
,
1000
0100
0010
0001
,
0100
0010
0000
0100
,
0001
0010
1000
0100
,
0001
0010
1000
0010
,
0100
0001
1000
0100
,
0010
0000
0001
1000
,
0100
1001
0000
0000
,
0000
0000
0000
0000
;

//---------------dance-single - ----------------
#NOTES:
     dance-single:
     :
     Medium:
     12:
     :
0000
0000
0000
0000
,
0000
0000
0000
0000
,
0000
0000
0000
0000
,
0000
0000
0000
0000
,
0100
0001
1000
0010
,
0100
0001
1000
0100
,
0010
0001
0000
0100
,
0010
1000
0000
0100
,
1000
0001
0100
0001
,
1000
0010
0100
0002
,
0000
0000
0000
0003
,
1000
1100
0000
0000
,
1000
0001
0100
0010
,
1000
0001
0010
0100
,
1000
0100
0000
0100
,
0001
0100
0000
0100
,
0010
0001
1000
0010
,
0100
0220
0330
0001
,
0000
0001
0000
1000
0000
0000
0000
1000
0000
0001
0000
0000
,
0000
0001
0000
1000
0000
0000
0000
0000
0000
0001
0000
0000
,
0011
0000
1000
0000
1010
0000
0001
0100
,
1000
0001
0010
1000
,
1010
0000
0001
0000
0011
0000
1000
0100
,
0001
1000
0010
0102
,
0013
2100
3010
1001
,
0110
1001
0010
0001
,
1000
0000
2002
0000
3003
0010
1000
0001
,
0100
1100
0010
1000
,
0001
0000
0010
0100
0010
0000
0001
0000
,
0100
0010
0100
0001
,
1000
0000
0100
0010
0100
0000
1000
0000
,
0001
0100
0010
1000
,
0100
0000
1000
0001
1000
0000
0010
0000
,
0100
0001
1001
0000
,
0001
0000
0000
0000
0100
0000
0000
0000
0010
0000
0000
0000
1000
0000
0000
0000
0000
0000
0000
0000
0000
0100
0000
0000
,
0010
0100
0010
0001
,
0010
0000
0100
1000
0100
0000
1000
0000
,
0001
0100
0010
1000
,
0001
0000
0010
0001
0010
0000
0100
0000
,
1000
0000
0010
0000
1000
0000
0000
0001
,
1000
0000
0000
0100
1000
0000
0000
0010
,
1000
0000
0000
0001
2000
0000
0000
0000
,
0000
0000
0020
0000
,
0000
3030
0100
0001
,
0010
0100
1000
0010
,
0100
0001
0010
0100
,
1000
0010
0100
1000
,
0100
0001
0010
1000
,
0010
0100
1000
0001
,
0100
0000
0000
0000
0010
0000
0000
0000
0100
0000
0000
0000
0001
0001
0001
0000
,
0010
0100
1000
0010
,
0001
0010
1000
0001
,
0010
0001
1000
0010
,
0100
0001
1000
0100
,
0010
0001
1000
2002
,
3003
1100
0011
1000
,
0010
0001
0010
1000
,
0010
0000
0001
0100
1000
0000
0110
0000
,
0001
1000
0100
0000
0000
0000
0001
0000
,
0010
0000
1000
0100
0001
0000
1001
0000
,
0010
0001
1000
0000
0000
0000
0010
0000
,
0001
0000
0100
1000
0010
0000
0001
0010
,
0100
0010
0001
0000
0000
0000
1000
0100
,
0001
0000
0100
1000
0010
0100
0001
0000
,
1000
0001
0100
0010
,
0100
0001
0100
0000
0010
0000
1000
0000
,
0100
0010
0100
0000
1000
0000
0001
0000
,
0100
0001
1000
0010
,
0100
0001
0010
0100
,
1000
0100
1000
0000
0010
0000
0100
0000
,
0001
0100
0001
0000
0010
0000
0001
0000
,
0100
0001
1000
1001
,
0000
0000
0010
0000
1000
0000
0001
0010
,
0001
0010
0001
0000
0100
0000
0010
1000
,
0010
1000
0010
0000
0100
0000
0010
0000
,
1000
0100
0010
0001
,
0000
2000
3000
0002
,
0003
1000
0100
0001
,
0100
0010
0100
0000
,
1000
0001
0100
1010
,
0000
0100
0001
0010
,
0001
0100
0001
0000
1000
0000
0010
0000
,
1000
0100
0011
0100
,
1010
0100
0010
0001
,
0100
0000
0010
0100
0010
0000
1000
0000
,
0100
0000
0010
0001
1000
0010
1000
0000
,
1000
0010
0100
0001
,
0010
0100
1000
0010
,
0001
0100
1000
0010
,
0001
0100
1000
0100
,
0010
0001
1000
0010
,
0100
0000
0001
1000
,
0010
1001
0000
0000
,
0000
0000
0000
0000
;

//---------------dance-single - ----------------
#NOTES:
     dance-single:
     :
     Hard:
     15:
     :
0000
0000
0000
0000
,
0000
0000
0000
0000
,
0000
0000
0000
0000
,
0000
0000
0000
0000
,
0010
1000
0001
0100
,
0010
1000
0001
0010
,
1000
0001
0100
1000
,
0010
0100
0001
0010
,
0100
1000
0010
1000
,
0001
0010
0100
2200
,
0000
0000
0000
3300
,
0001
0100
0001
0010
0000
0000
0000
0000
,
1001
1001
0010
0100
,
0001
1000
0100
0001
,
1000
0010
0001
0100
,
0010
1000
0001
0010
,
0100
1000
0001
0100
,
0010
2002
3003
1000
,
0000
0010
0000
0100
0000
0000
0000
0100
0000
0001
0000
0000
,
0000
0001
0000
1000
0000
0000
0000
0000
0000
1000
0000
0000
,
1100
0000
0001
0000
0101
0000
1000
0100
,
0001
0100
1000
0000
0100
0000
0001
0000
,
0101
0000
1000
0000
1100
0000
0001
0100
,
1000
0100
0001
0000
0100
0000
2010
0000
,
3100
0012
0103
1001
,
0110
1001
0100
1000
,
0001
0000
0000
0000
0000
0000
2002
0000
0000
0000
0000
0000
3003
0000
0000
0100
0000
0000
0010
0000
1000
0000
0100
0000
,
0010
0001
0100
0010
0000
0000
0100
0000
0000
0001
0000
0000
,
1000
0100
0010
0100
1000
0000
0001
0000
,
0100
0010
0000
0010
1000
0000
0100
0000
,
0010
0001
1000
0001
0010
0000
0100
0000
,
1000
0010
0000
0010
1000
0000
0001
0000
,
0100
0010
1000
0010
0100
0000
1000
0000
,
0100
0001
0000
0001
1000
0000
0100
0000
,
1000
0000
0000
0000
0010
0000
0000
0000
0100
0000
0000
0000
0001
0000
0000
0000
0000
0000
0000
0000
0000
0010
0000
0000
,
0100
1000
0010
1000
,
0001
0010
0100
0010
0001
0000
1000
0000
,
0010
0100
0000
0100
0001
0000
0010
0000
,
0100
1000
0001
1000
0100
0000
0010
0000
,
0001
0100
0000
0100
0001
0000
0000
1000
,
0001
0000
0000
0010
0001
0000
0000
0100
,
0001
0000
0000
1000
0002
0000
0000
0000
,
0000
0000
0200
0000
,
0000
0000
0303
0000
0020
1000
0030
0200
,
0010
0300
0001
0000
0200
0010
0300
2000
,
0100
3000
0010
0000
0002
0100
0003
0020
,
1000
0030
0100
0000
0020
0001
0030
0200
,
0010
0300
1000
0000
0200
0010
0300
0002
,
0100
0003
0010
0000
2000
0100
3000
0020
,
0001
0000
0030
0000
0100
0000
0000
0000
0010
0000
0000
0000
1000
1000
1000
0000
,
0200
0010
0300
0002
0100
0003
0010
0000
,
2000
0100
3000
0020
0001
0030
0100
0000
,
0020
1000
0030
0200
0010
0300
0001
0000
,
0200
0010
0300
2000
0100
3000
0010
0000
,
0100
0000
1000
0000
0001
2000
0200
0000
,
3300
1010
0101
0001
,
0100
1000
0100
0001
,
0100
0000
1000
0010
0001
0000
0110
0000
,
1000
0001
0000
0100
0010
0000
0000
0000
0000
0000
0000
0000
1000
0000
0000
0000
,
0100
0000
0001
0010
1000
0000
1001
0000
,
0010
0100
0000
1000
0001
0000
0000
0001
0000
0000
0001
0000
0100
0000
0000
0000
,
1000
0000
0000
0000
0010
0000
0001
0000
0100
0000
0000
0000
1000
0100
0000
0010
,
0000
0001
0100
0010
1000
0000
0000
0000
0000
0000
0000
0000
1000
0100
0010
0001
,
1000
0000
0100
0000
0010
0000
0001
0000
0000
0100
0000
0000
0010
0000
0000
0000
0000
0000
1000
0000
0000
0000
0000
0000
,
0001
0000
0010
0000
1000
0000
0001
0010
,
0100
1000
0010
0000
1000
0000
0001
0010
,
0100
1000
0010
0000
1000
0000
0001
0010
,
0100
1000
0001
0100
0001
0100
1000
0100
,
1000
0100
0001
0000
0010
0000
0100
1000
,
0001
0100
0001
0000
0010
0000
0100
1000
,
0001
0100
1000
0100
1000
0100
0001
0010
,
0001
0010
0001
0000
0000
0000
1100
0000
,
0000
0000
0010
0000
0100
0000
1000
0010
,
0100
0001
0010
0000
0100
0000
1000
0010
,
0100
0001
0010
0100
0010
0100
1000
0001
,
1000
0001
0010
0001
0100
0010
1000
0100
,
0010
0000
0000
0001
0000
0000
1000
0000
0000
0000
0100
0000
0000
0000
1000
0000
0000
0000
0001
0000
0000
0000
0100
0000
,
0000
0001
0000
1000
0000
0010
0000
0100
0000
0001
0000
0010
,
0000
0100
0000
1001
0000
0000
0110
0000
0000
0000
0000
0000
,
0001
1000
0010
0101
,
0000
0000
0010
1000
0000
0100
0000
0010
,
0001
0100
0010
0000
0100
0001
0100
0000
,
0001
0010
1100
0010
,
0101
0000
0010
0000
0100
1000
0100
0000
,
1000
0001
0010
0001
1000
0000
0010
0000
,
0100
0000
0000
0000
0000
0000
0000
0000
0001
0000
0000
0010
0001
0000
0000
1000
0010
0000
0000
0000
0110
0000
0000
0000
0001
0000
0000
0000
0000
0000
0000
0000
,
0001
0000
0100
0000
0010
1000
0100
0010
,
0001
0100
0010
0100
,
1000
0010
0001
0100
,
1000
0000
0010
0000
0001
0000
0010
0001
,
0100
0010
1000
0100
0010
0001
1000
0000
,
0010
0000
1000
0001
,
0110
1001
0000
0000
,
0000
0000
0000
0000
;

//---------------dance-single - ----------------
#NOTES:
     dance-single:
     :
     Challenge:
     17:
     :
0000
0000
0000
0000
,
0000
0000
0000
0000
,
0000
0000
0000
0000
,
0000
0000
0000
0000
,
0010
0001
1000
0100
,
0010
0000
0001
0000
1000
0010
0100
0000
,
0001
0000
1000
0000
0100
0000
0010
0001
,
0010
0001
1000
0010
1000
0010
0100
0000
,
0001
1000
0100
0001
,
0100
1000
0010
0202
,
0000
0000
0000
0303
,
1000
0100
1000
0010
0000
0000
0000
0000
,
1001
1001
0010
0100
,
1000
0000
0001
0000
0100
0001
1000
0000
,
0001
0000
0010
0000
0100
0000
1000
0010
,
1000
0010
0100
0010
0100
0010
1000
0000
,
0001
0010
1000
0100
,
0010
2002
3003
0001
,
0000
0010
0000
0100
0000
0000
0000
0100
0000
1000
0000
0000
,
0000
0000
1000
0000
0000
0000
0001
0000
0000
0000
0000
0000
0000
0000
0000
0000
0000
0000
0001
0000
0000
0100
0000
0000
,
0101
0000
1000
0100
1100
0000
0001
0100
,
1000
0100
0001
0100
0110
0000
1000
0100
,
1100
0000
0001
0100
0101
0000
1000
0100
,
0001
0100
1000
0010
0100
0001
0012
0000
,
0103
2010
3100
1001
,
0110
0000
1001
0000
0100
0000
0001
1000
,
0001
0000
0000
0000
0000
0000
2002
0000
0000
0000
0000
0000
3003
0000
0000
0100
0000
0000
0010
0000
0001
0000
0100
0000
,
0010
1000
0100
0010
0000
0000
0100
0000
0000
1000
0000
0000
,
0001
0100
0010
0100
0001
0000
1000
0000
,
0100
0010
0000
0010
0001
0000
0100
0000
,
0010
1000
0001
1000
0010
0000
0100
0000
,
0001
0010
0000
0010
0001
0000
1000
0000
,
0100
0010
0001
0010
0100
0000
0001
0000
,
0100
1000
0000
1000
0001
0000
0100
0000
,
0001
0000
0000
0000
0010
0000
0000
0000
0100
0000
0000
0000
1000
0000
0000
0000
0000
0000
0000
0000
0000
0010
0000
0000
,
0100
0001
0010
0001
,
1000
0010
0100
0010
1000
0000
0001
0000
,
0010
0100
0000
0100
1000
0000
0010
0000
,
0100
0001
1000
0001
0100
0000
0010
0000
,
1000
0100
0000
0100
1000
0000
0000
0001
,
1001
0000
0000
0010
0110
0000
0000
1000
,
1001
0000
0000
0010
2000
0000
0000
0000
,
0000
0000
0200
0000
,
0000
0000
3300
0000
0020
0001
0030
0200
,
0000
0310
1000
0100
0020
0001
0030
0200
,
0000
0310
1000
0100
0020
0001
0030
0200
,
0000
0310
1000
0100
0020
0001
0030
0200
,
0000
0310
1000
0100
0020
0001
0030
0200
,
0000
0310
1000
0100
0020
0001
0030
0200
,
0000
0000
0000
0000
0310
0000
0000
0000
1000
0000
0000
0000
0100
0000
0000
0000
0020
0000
0000
0000
0000
0000
0000
0000
0031
0000
0001
0000
0001
0000
0000
0100
,
0020
1000
0030
0200
0000
0310
0001
0100
,
0020
1000
0030
0200
0000
0310
0001
0100
,
0020
1000
0030
0200
0000
0310
0001
0100
,
0020
1000
0030
0200
0000
0310
0001
0100
,
0020
0000
1030
0000
0001
2000
0200
0000
,
3300
1010
0101
1000
,
0100
0001
0100
1000
,
0100
0000
0001
0010
1000
0000
0110
0000
,
0001
1000
0000
0100
0010
0000
0000
0000
0000
0000
0000
0000
0001
0000
0000
0000
,
0100
0000
1000
0010
0001
0000
1001
0000
,
0010
0100
0000
0001
1000
0000
0000
1000
0000
0000
1000
0000
0100
0000
0000
0000
,
0001
0000
0000
0000
0010
0000
1000
0000
0100
0000
0000
0000
0001
0100
0000
0010
,
0000
1000
0100
0010
0001
0000
0000
0000
0000
0000
0000
0000
0001
0100
0010
1000
,
0001
0000
0000
0000
0100
0000
0000
0000
0010
0000
0000
0000
1000
0000
0000
0000
0000
0000
0100
0000
0000
0000
0000
0000
0010
0000
0000
0000
0000
0000
0100
0000
0000
0000
0000
0000
0001
0000
0000
0100
0000
0000
0000
0000
0000
1000
0000
0000
,
0010
0100
1000
0000
0001
0000
0100
0000
0010
0000
1000
0000
0001
0000
0100
0000
,
0010
1000
0100
0010
0100
0001
0100
1000
,
0010
0100
0001
0010
0001
1000
0100
0010
,
0001
1000
0010
1000
0001
0010
0100
1000
,
0010
1000
0100
1000
0010
0100
0001
1000
,
0100
0010
1000
0001
0100
1000
0001
0100
,
1000
0001
0010
0100
0001
1000
0100
0010
,
0100
1000
0001
0000
0010
0000
1001
0000
,
0000
0000
0100
1000
0001
0100
1000
0100
,
0010
1000
0100
0001
1000
0010
0001
1000
,
0010
0100
0001
0010
0100
0010
0100
1000
,
0010
0100
0001
0010
0001
0100
0010
1000
,
0100
0000
0000
0010
0000
0000
0001
0000
0000
0000
0100
0000
0000
0000
0001
0000
0000
0000
1000
0000
0000
0000
0100
0000
,
0000
1000
0000
0001
0000
0010
0000
0100
0000
1000
0000
0010
,
0000
0100
0000
1001
0000
0000
0110
0000
0000
0000
0000
0000
,
1000
0001
0010
1100
,
0000
0000
0010
0001
0000
0100
0000
0010
,
1000
0100
0010
0000
0100
1000
0100
0000
,
1000
0010
0101
0010
,
1100
0000
0010
0000
0100
0001
0100
0000
,
0001
1000
0010
1000
0001
0000
0010
0000
,
0100
0000
0000
0000
0000
0000
0000
0000
1000
0000
0000
0010
1000
0000
0000
0001
0010
0000
0000
0000
0110
0000
0000
0000
1000
0000
0000
0000
0000
0000
0000
0000
,
1000
0000
0100
0000
0010
0001
0100
0010
,
1000
0100
0010
0100
,
0001
0000
0010
0000
1000
0000
0100
0010
,
0001
1000
0010
0001
1000
0100
0010
1000
,
0100
0010
0001
0100
0010
1000
0001
0000
,
0010
0000
0001
1000
,
0110
1001
0000
0000
,
0000
0000
0000
0000
;

//---------------dance-double - ----------------
#NOTES:
     dance-double:
     :
     Easy:
     10:
     :
00000000
00000000
00000000
00000000
,
00000000
00000000
00000000
00000000
,
00000000
00000000
00000000
00000000
,
00000000
00000000
00000000
00000000
,
01000000
10000000
00010000
01000000
,
00001000
00010000
00000000
00000010
,
00001000
00000100
00000000
00000010
,
00000000
00000001
00000000
00000100
,
00000001
00001000
00000100
00010000
,
00001000
00100000
00000000
02000000
,
00000000
00000000
00000000
03000000
,
00100000
01000000
00000000
00000000
,
10000000
10000000
00010000
01000000
,
00001000
00010000
00000000
00000100
,
00000010
00000001
00000000
00001000
,
00000000
00000010
00000000
00000100
,
00001000
00010000
00000000
00001000
,
00010000
02000000
03000000
20000000
,
00000000
30200000
00000000
20300000
,
00000000
32000000
00000000
13000000
,
00100000
00010000
00001000
00000110
,
00001001
00000110
00000000
00000001
,
00000100
00001000
00010000
01100000
,
10010000
01100000
00000000
10010000
,
00000000
00011000
00000000
00000110
,
00011000
01100000
00001000
00010000
,
00001000
00000000
00022000
00000000
00033000
00000100
00000001
00001000
,
00000100
00000010
00000001
00001000
,
00000100
00010000
00001000
01000000
,
00100000
00000000
10000000
00010000
,
01000000
00001000
00010000
00000010
,
00000100
00000000
00000001
00001000
,
00000010
00010000
00001000
00100000
,
01000000
00000000
10000000
00000000
,
00010000
00000000
20020000
00000000
,
00000000
30030000
00100000
10000000
,
00100000
00000000
01000000
00010000
,
01000000
00000000
00001000
00010000
,
00001000
00000000
00000010
00000100
,
00000010
00000000
00000011
00000000
,
00001100
00000000
00001010
00000000
,
00000101
00000000
00002000
00000000
,
00000000
00000000
00020000
00000000
,
00000000
00033000
01000000
10000000
,
01000000
00000000
10000000
00100000
,
10000000
00000000
00010000
00001000
,
00010000
00000000
00000010
00000100
,
00000010
00000000
00000001
00000100
,
00000001
00000000
00001000
00000100
,
00001000
00000000
00010000
00001000
,
00100000
01000000
00100000
00000000
,
10000000
00100000
10000000
00000000
,
00010000
01000000
00010000
00000000
,
00001000
00010000
00001000
00000000
,
00000010
00000001
00000000
00002002
,
00003003
00001010
00000101
00001000
,
00001000
00010000
00010000
01000000
,
00000000
01000000
10000000
00000000
00000000
10000000
00010000
00000000
,
01000000
00001000
00100000
00000000
00000000
00000000
00010000
00000000
,
00000000
00010000
00001000
00000000
00000000
00001000
00000010
00000000
,
00000001
00000100
00001000
00000000
00000000
00000000
00010000
00000000
,
00000000
00010000
00001000
00000000
00000000
00001000
00100000
00000000
,
00010000
10000000
00100000
00000000
00000000
00000000
00010000
00000000
,
00000000
00010000
01000000
00000000
00000000
01000000
00100000
00000000
,
00010000
00000010
00001000
00000100
,
00000000
00000010
00000001
00000100
,
00000000
00000010
00001000
00010000
,
01000000
00100000
01000000
00010000
,
00000000
00100000
01000000
10000000
,
00000000
00010000
10000000
01000000
,
00000000
00100000
01000000
00001000
,
00010000
00000100
00000000
00001001
,
00000000
00000010
00000001
00000010
,
00000001
00000100
00000001
00000100
,
00000001
00001000
00000100
00010000
,
00001000
00100000
00010000
10000000
,
00000000
00020000
00030000
20000000
,
30000000
00020000
00030000
20000000
,
30000000
00100000
01000000
00000000
,
00010000
00001000
00010000
00011000
,
00000000
00000010
00000001
00000100
,
00000000
00000010
00001000
00000100
,
00000000
00010000
00011000
00100000
,
01100000
10000000
00100000
10000000
,
01000000
00010000
00001000
00000100
,
00000000
00000001
00001000
00000010
,
00010000
00000100
00000000
00001000
,
00000010
00010000
00000000
00100000
,
10000000
01000000
00010000
00100000
,
00001000
00010000
00000010
00000100
,
00000001
00001000
00000100
00010000
,
00001000
00000000
00100000
00010000
,
10000000
10010000
00000000
00000000
,
00000000
00000000
00000000
00000000
;

//---------------dance-double - ----------------
#NOTES:
     dance-double:
     :
     Medium:
     12:
     :
00000000
00000000
00000000
00000000
,
00000000
00000000
00000000
00000000
,
00000000
00000000
00000000
00000000
,
00000000
00000000
00000000
00000000
,
00000010
00001000
00000001
00000100
,
00001000
00010000
01000000
00100000
,
01000000
10000000
00000000
00100000
,
01000000
00001000
00000000
00100000
,
00010000
10000000
00100000
00010000
,
00001000
00000100
00000010
00002000
,
00000000
00000000
00000000
00003000
,
00000001
00000011
00000000
00000000
,
00000001
00001000
00000100
00010000
,
00001000
00100000
00010000
10000000
,
00100000
01000000
00000000
00010000
,
00100000
01000000
00000000
00100000
,
00001000
00010000
00000010
00000100
,
00000001
00000220
00000330
00001000
,
00000000
00001000
00000000
00000001
00000000
00000000
00000000
00000001
00000000
00001000
00000000
00000000
,
00000000
00001000
00000000
00000001
00000000
00000000
00000000
00000000
00000000
00001000
00000000
00000000
,
00011000
00000000
00100000
00000000
11000000
00000000
00001000
00010000
,
01000000
00100000
00001000
00000100
,
00000101
00000000
00010000
00000000
00001100
00000000
00000001
00000010
,
00001000
00010000
00100000
11000000
,
00100000
01010000
00100000
00011000
,
00001100
00000110
00000011
00001000
,
00000001
00000000
00002002
00000000
00003003
00000100
00000010
00010000
,
00001000
00011000
01000000
10000000
,
00010000
01000000
00100000
10000000
,
01000000
00010000
00000010
00001000
,
00000001
00000010
00000100
00010000
,
00001000
00000100
00000001
00001000
,
00000010
00010000
00001000
00100000
,
00010000
10000000
10010000
00000000
,
01000000
00000000
00000000
00000000
00100000
00000000
00000000
00000000
01000000
00000000
00000000
00000000
00100000
00000000
00000000
00000000
00000000
00000000
00000000
00000000
00000000
00010000
00000000
00000000
,
00001000
00010000
00000100
00000010
,
00000001
00000100
00000010
00000100
,
00001000
00010000
00100000
10000000
,
00010000
00100000
01000000
10000000
,
00010000
00000000
01000000
00000000
00001000
00000000
00000000
00010000
,
00000100
00000000
00000000
00000010
00000001
00000000
00000000
00001000
,
00000010
00000000
00000000
00000100
00000002
00000000
00000000
00000000
,
00000000
00000000
00002000
00000000
,
00000000
00000000
00003003
00000000
00000010
00000000
00000000
00010000
,
00000000
00000000
00001000
00000000
01000000
00000000
00000000
00100000
,
00000000
00000000
10000000
01000000
10000000
00000000
00000000
01000000
,
00000000
00000000
00010000
00000000
00001000
00000000
00000000
00000100
,
00000000
00000000
00000001
00001000
00000001
00000000
00000000
00000010
,
00000000
00000000
00000100
00000000
00010000
00000000
00000000
00001000
,
00000000
00000000
00000000
00000000
00100000
00000000
00010000
00000000
00100000
00000000
00000000
00000000
01000000
01000000
01000000
00000000
,
10000000
00000000
00000000
00100000
00000000
00000000
00010000
00001000
,
00010000
00000000
00000000
00000100
00000000
00000000
00001000
00000000
,
00000001
00000000
00000000
00000100
00000000
00000000
00000010
00000100
,
00000010
00000000
00000000
00001000
00000000
00000000
00000100
00000000
,
00010000
00001000
00010000
00022000
,
00033000
00110000
11000000
00010000
,
01000000
10000000
01000000
00010000
,
00100000
00001000
00010000
00000000
00000100
00001000
00000010
00000000
,
00001000
00000001
00000000
00000100
,
00000001
00000010
00001000
00000000
00010000
00100000
10000000
00000000
,
00010000
10010000
00000000
01000000
,
10000000
00010000
00100000
00000000
00001000
00010000
00000010
00000000
,
00000100
00000000
00000001
00000000
00000000
00000000
00000001
00000010
,
00001000
00000000
00000010
00000001
00000100
00000010
00001000
00000000
,
00010000
00100000
00010000
10000000
,
00100000
01000000
00100000
00000000
00010000
00000000
00001000
00000000
,
00000010
00000001
00000010
00000000
00001000
00000000
00000010
00000000
,
00000100
00001000
00010000
01000000
,
10000000
00100000
01000000
00001000
,
00010000
00000010
00010000
00000000
00000100
00000000
00000010
00000000
,
00000001
00000100
00000001
00000000
00000010
00000000
00000100
00000000
,
00010000
00001000
00100000
10010000
,
00000000
01000000
00010000
00001000
,
00000100
00000010
00000100
00000000
00000001
00000000
00001000
00000000
,
00000100
00010000
00000100
00000000
00001000
00000000
00010000
00000000
,
01000000
00100000
10000000
00010000
,
00100000
02000000
00000000
00200000
,
03300000
00020000
00030000
00002000
,
00003000
00000100
00000010
00000000
,
00000001
00001000
00000010
00000101
,
00000000
00000010
00001000
00010000
,
00100000
00010000
00100000
00000000
01000000
00000000
00001000
00000000
,
00100000
01000000
10010000
00100000
,
01010000
00100000
00001000
00010000
,
00000010
00000000
00000100
00000010
00000100
00000000
00000001
00000000
,
00000010
00000100
00001000
00000001
,
00000100
00001000
00010000
00100000
,
10000000
00100000
00010000
00001000
,
00010000
01000000
10000000
00100000
,
01000000
00001000
00010000
00000100
,
00000010
00000001
00001000
00000010
,
00000100
00000000
00001000
00010000
,
01000000
10010000
00000000
00000000
,
00000000
00000000
00000000
00000000
;

//---------------dance-double - ----------------
#NOTES:
     dance-double:
     :
     Hard:
     15:
     :
00000000
00000000
00000000
00000000
,
00000000
00000000
00000000
00000000
,
00000000
00000000
00000000
00000000
,
00000000
00000000
00000000
00000000
,
00100000
00010000
10000000
01000000
,
00010000
00001000
00000100
00000001
,
00001000
00000100
00000010
00001000
,
00010000
00100000
10000000
00010000
,
00100000
00001000
00010000
00000100
,
00000010
00000001
00001000
00000220
,
00000000
00000000
00000000
00000330
,
00001000
00010000
00001000
00100000
00000000
00000000
00000000
00000000
,
10010000
10010000
00100000
01000000
,
10000000
00010000
01000000
00100000
,
00010000
00001000
00000010
00000100
,
00010000
00000010
00000100
00000001
,
00000010
00000100
00010000
00001000
,
00100000
20020000
30030000
00010000
,
00000000
00100000
00000000
01000000
00000000
00000000
00000000
01000000
00000000
10000000
00000000
00000000
,
00000000
00000000
10000000
00000000
00000000
00000000
00010000
00000000
00000000
00000000
00000000
00000000
00000000
00000000
00000000
00000000
00000000
00000000
00001000
00000000
00000000
00010000
00000000
00000000
,
00000000
00000100
00000000
00000010
00000000
00000001
00001000
00000010
,
00000100
00000001
00000000
00000000
00001100
00000000
00010000
00100000
,
00000000
10000000
00000000
01000000
00000000
00100000
01000000
00010000
,
00001000
00011000
00000010
00000101
,
00000010
00001100
00000010
00011000
,
01100000
10010000
01000000
00010000
,
10000000
00000000
00000000
00000000
00000000
00000000
20020000
00000000
00000000
00000000
00000000
00000000
30030000
00000000
00000000
01000000
00000000
00000000
10000000
00000000
00010000
00000000
01000000
00000000
,
00001000
00010000
00000100
00000010
00000000
00000000
00000001
00000000
00000000
00001000
00000000
00000000
,
00000010
00000000
00000100
00000001
00000100
00000000
00000010
00000000
,
00010000
00001000
00010000
00001000
00010000
00000000
00000100
00000000
,
00000010
00000000
00001000
00010000
00001000
00000000
01000000
00000000
,
00100000
10000000
00100000
10000000
00100000
00000000
01000000
00000000
,
00001000
00000000
00100000
01000000
00100000
00000000
00001000
00000000
,
00000100
00000001
00000100
00000001
00000100
00000000
00000001
00000000
,
00000010
00000000
00000000
00000000
00001000
00000000
00000000
00000000
00010000
00000000
00000000
00000000
00100000
00000000
00000000
00000000
00000000
00000000
00000000
00000000
00000000
10000000
00000000
00000000
,
00100000
01000000
00001000
00010000
,
00000100
00000000
00000010
00000001
00000010
00000000
00000100
00000000
,
00010000
00000010
00001000
00000010
00010000
00000000
00001000
00000000
,
01000000
00000000
00100000
01000000
00100000
00000000
10000000
00000000
,
00010000
01000000
00100000
01000000
00010000
00000000
00000000
00100000
,
00001000
00000000
00000000
00010000
00000010
00000000
00000000
00000100
,
00000001
00000000
00000000
00001000
00000200
00000000
00000000
00000000
,
00000000
00000000
00000020
00000000
,
00000330
00000000
00000000
00000000
00010000
00200000
00000000
10300000
,
02000000
00000000
03010000
00000000
00001000
00000020
00000000
00000031
,
00000200
00000000
00001300
00000000
00010000
00200000
00000000
10300000
,
02000000
00000000
03010000
00000000
00001000
00000020
00000000
00000031
,
00000200
00000000
00001300
00000000
00010000
00200000
00000000
10300000
,
02000000
00000000
03010000
00000000
00001000
00000020
00000000
00000031
,
00000200
00000000
00000000
00000000
00001300
00000000
00000000
00000000
00010000
00000000
00000000
00000000
00001000
00001000
00001000
00000000
,
00100000
02000000
00000000
13000000
00200000
00000000
00310000
00000000
,
00000010
00000200
00000000
00000301
00000020
00000000
00001030
00000000
,
00100000
02000000
00000000
13000000
00200000
00000000
00310000
00000000
,
00000010
00000200
00000000
00000301
00000020
00000000
00001030
00000000
,
00010000
00000000
00100000
00000000
10000000
00020000
02000000
00000000
,
03030000
00101000
00010100
00000010
,
00000001
00001000
00000010
00000100
,
00000001
00000100
00001000
00000000
00010000
01000000
10000000
00000000
,
00010000
10000000
10010000
00000000
00000000
00000000
00100000
00000000
,
10000000
00100000
00010000
00000000
00001000
00000010
00000001
00000000
,
00000100
00000010
00000110
00000000
00000000
00000000
00000010
00000000
,
00000001
00001000
00000010
00000000
00010000
00001000
00100000
00010000
,
10000000
00100000
01000000
00000000
00000000
00000000
00100000
10000000
,
01000000
00010000
00001000
00000100
00000001
00000010
00000200
00000000
,
00000020
00000330
00000001
00000000
00001000
00000000
00000010
00000000
,
00010000
00001000
00100000
00000000
01000000
00000000
10000000
00000000
,
00100000
01000000
00010000
00000000
10000000
00000000
01000000
00000000
,
00010000
00000000
00000010
00001000
00000010
00001000
00000001
00000010
,
00000001
00000010
00000100
00000000
00010000
00000000
00001000
00000000
,
00000100
00000001
00000010
00000000
00000100
00000000
00010000
00000000
,
00001000
00100000
01000000
00100000
01000000
00100000
00010000
00100000
,
00010000
00100000
00001000
00000000
00010000
00000000
01010000
00000000
,
00000000
00100000
10000000
01000000
,
00100000
00001000
01000000
00000000
00100000
00000000
00010000
00000000
,
00001000
00000010
00000100
00000000
00001000
00000000
00000001
00000000
,
00000100
00000000
00000010
00010000
00001000
00100000
00010000
01000000
,
00100000
00000000
00000000
10000000
00000000
00000000
00010000
00000000
00000000
00000000
01000000
00000000
00000000
00000000
00010000
00000000
00000000
00000000
00100000
00000000
00000000
00000000
01000000
00000000
,
00000000
00100000
00000000
00001000
00000000
00010000
00000000
00001000
00000000
00000100
00000000
00000001
,
00000000
00000100
00000000
00001001
00000000
00000000
00000110
00000000
00000000
00000000
00000000
00000000
,
00001000
00010000
00010100
00101000
,
00000000
00000000
01000000
00000000
00100000
00010000
00000000
00010000
,
01000000
00000000
00100000
00000000
10000000
01000000
10000000
00000000
,
00010000
00100000
10010000
00001000
,
00001001
00000100
00000010
00000100
,
00001000
00010000
00100000
00010000
00001000
00000000
00000010
00000000
,
00000100
00000000
00000000
00000000
00000000
00000000
00000000
00000000
00010000
00000000
00000000
00010000
00100000
00000000
00000000
00100000
01000000
00000000
00000000
00000000
10010000
00000000
00000000
00000000
10000000
00000000
00000000
00000000
00000000
00000000
00000000
00000000
,
01000000
00000000
00010000
00000000
00001000
00000010
00000001
00000010
,
00000100
00010000
00000010
00000100
,
00000001
00000010
00001000
00010000
,
00100000
00000000
10000000
00000000
01000000
00000000
10000000
00010000
,
01000000
00001000
00010000
00000010
00001000
00000001
00000010
00000000
,
00000100
00000000
00001000
00010000
,
01100000
10010000
00000000
00000000
,
00000000
00000000
00000000
00000000
;

//---------------dance-double - ----------------
#NOTES:
     dance-double:
     :
     Challenge:
     17:
     :
00000000
00000000
00000000
00000000
,
00000000
00000000
00000000
00000000
,
00000000
00000000
00000000
00000000
,
00000000
00000000
00000000
00000000
,
00000100
00001000
00000001
00000010
,
00001000
00000000
00010000
00000000
00100000
10000000
01000000
00000000
,
00010000
00000000
01000000
00000000
10000000
00000000
00100000
01000000
,
00001000
00010000
00000100
00000010
00000001
00000100
00001000
00000000
,
00010000
00001000
00000010
00000100
,
00010000
00100000
10000000
02200000
,
00000000
00000000
00000000
03300000
,
00010000
00001000
00010000
00001000
00000000
00000000
00000000
00000000
,
01001000
00010010
00000100
00000010
,
00000001
00000000
00001000
00000000
00000010
00000100
00001000
00000000
,
00010000
00000000
01000000
00000000
00100000
00000000
00010000
10000000
,
01000000
00100000
00010000
00001000
00000100
00000010
00000001
00000000
,
00000100
00000010
00010000
00001000
,
01000000
20020000
30030000
10000000
,
00000000
10000000
00000000
00010000
00000000
00000000
00000000
00010000
00000000
00001000
00000000
00000000
,
00000000
00000000
00001000
00000000
00000000
00000000
00000001
00000000
00000000
00000000
00000000
00000000
00000000
00000000
00000000
00000000
00000000
00000000
00000100
00000000
00000000
00000010
00000000
00000000
,
00010000
00000100
00000000
00000010
00001000
00010000
00001000
00000100
,
00000010
00000001
00001000
00000000
00000110
00000000
00001000
00010000
,
00100000
10000000
00000000
01000000
00010000
00001000
00100000
00010000
,
00001000
00011000
00000100
00000011
,
00000100
00001010
00000100
00010010
,
01001000
10010000
00100000
10010000
,
00011000
00000000
00000000
00000000
00000000
00000000
00002002
00000000
00000000
00000000
00000000
00000000
00003003
00000000
00000000
00000010
00000000
00000000
00000001
00000000
00001000
00000000
00000010
00000000
,
00010000
00001000
00100000
01000000
00000000
00000000
10000000
00000000
00000000
00010000
00000000
00000000
,
01000000
00100000
10000000
00100000
01000000
00000000
00010000
00000000
,
10000000
01000000
00000000
01000000
00010000
00000000
00001000
00000000
,
00000010
00000001
00001000
00000001
00000010
00000000
00000100
00000000
,
00010000
00000010
00000000
00000010
00000100
00000000
00000001
00000000
,
00001000
00000100
00000010
00000100
00001000
00000000
00010000
00000000
,
01000000
00100000
00000000
00100000
01000000
00000000
00010000
00000000
,
10000000
00000000
00000000
00000000
01000000
00000000
00000000
00000000
00010000
00000000
00000000
00000000
00001000
00000000
00000000
00000000
00000000
00000000
00000000
00000000
00000000
00000010
00000000
00000000
,
00000001
00000100
00000010
00000100
,
00000001
00001000
00000100
00010000
00001000
00000000
00100000
00000000
,
01000000
10000000
00000000
10000000
00100000
00000000
01000000
00000000
,
00010000
00100000
00001000
00010000
00000100
00000000
00000010
00000000
,
00000001
00000100
00000000
00000100
00001100
00000000
00000000
00010000
,
00011000
00000000
00000000
01000000
01001000
00000000
00000000
10000000
,
10100000
00000000
00000000
00010000
00110000
00000000
00000000
00000000
,
00000000
00000000
00000000
00000000
,
00000000
00000000
00000000
00000000
00000010
00020000
00000000
00030200
,
00000000
00000310
00001000
00010000
00100000
20000000
00000000
32000000
,
00000000
03010000
00001000
00000100
00000010
00020000
00000000
00030200
,
00000000
00000310
00001000
00010000
00100000
20000000
00000000
32000000
,
00000000
03010000
00001000
00000100
00000010
00020000
00000000
00030200
,
00000000
00000310
00001000
00010000
00100000
20000000
00000000
32000000
,
00000000
00000000
00000000
00000000
03010000
00000000
00000000
00000000
00001000
00000000
00000000
00000000
00000100
00000000
00000000
00000000
00000001
00000000
00000000
00000000
00000000
00000000
00000000
00000000
00001000
00000000
00001000
00000000
00001000
00000000
00000000
00000100
,
00000010
00000002
00000000
00002003
00000000
00003100
00010000
00001000
,
00100000
02000000
00000000
23000000
00000000
30100000
01000000
00001000
,
00010000
00000020
00000000
00000230
00000000
00000301
00000010
00000100
,
00010000
00002000
00000000
02003000
00000000
03100000
10000000
01000000
,
00010000
00000000
00000100
00000000
00001000
00000002
00000020
00000000
,
00000033
00010100
00101000
01000000
,
10000000
00010000
01000000
00100000
,
10000000
00100000
00010000
00000000
00001000
00000010
00001001
00000000
,
00000001
00001000
00000000
00000100
00000010
00000000
00000000
00000000
00000000
00000000
00000000
00000000
00000100
00000000
00000000
00000000
,
00000001
00000100
00001000
00000000
00010000
01000000
10010000
00000000
,
00100000
01000000
00000000
00010000
10000000
00000000
00000000
10000000
00000000
00000000
10000000
00000000
01000000
00000000
00000000
00000000
,
10000000
00000000
00010000
00000000
01000000
00000000
00000000
00000000
00001000
00000000
00010000
00000000
00001000
00000100
00000000
00000010
,
00000000
00001000
00000100
00000010
00000001
00000000
00000000
00000000
00000000
00000000
00000000
00000000
00000001
00000100
00000010
00001000
,
00010000
00000000
00000000
00000000
01000000
00000000
00000000
00000000
00100000
00000000
00000000
00000000
10000000
00000000
00000000
00000000
00000000
00000000
01000000
00000000
00000000
00000000
00000000
00000000
00100000
00000000
00000000
00000000
00000000
00000000
01000000
00000000
00000000
00000000
00000000
00000000
00010000
00000000
00000000
00001000
00000000
00000000
00000000
00000000
00000000
00000100
00000000
00000000
,
00000010
00001000
00000100
00000000
00000010
00000000
00000000
00000000
00001000
00000000
00010000
00000000
01000000
00000000
00000000
00000000
,
00100000
00010000
01000000
00000000
00100000
10000000
00010000
00100000
,
00001000
00010000
00000010
00000000
00001000
00000100
00000010
00000000
,
00000001
00000100
00000010
00001000
00010000
01000000
00100000
10000000
,
01000000
00100000
01000000
00000000
00010000
00001000
00010000
00000000
,
00000100
00000010
00000001
00000000
00001000
00000010
00010000
00001000
,
00000100
00000010
00000100
00000001
00000100
00001000
00010000
00100000
,
10000000
01000000
00010000
00000000
00001000
00000000
00011000
00000000
,
00000000
00000000
00000010
00000001
00000010
00000001
00001000
00000100
,
00001000
00000100
00010000
00001000
00010000
00001000
01000000
00100000
,
01000000
00100000
10000000
00010000
01000000
00001000
00010000
00000010
,
00000100
00000001
00001000
00000100
00010000
00000100
00001000
00000010
,
00000100
00000000
00000000
00001000
00000000
00000000
00010000
00000000
00000000
00000000
00010000
00000000
00000000
00000000
00010000
00000000
00000000
00000000
00001000
00000000
00000000
00000000
00001000
00000000
,
00000000
00001000
00000000
00010000
00000000
00001000
00000000
00010000
00000000
00100000
00000000
10000000
,
00000000
01000000
00000000
10010000
00000000
00000000
01100000
00000000
00000000
00000000
00000000
00000000
,
00010000
00001000
00101000
00010100
,
00000000
00000000
00000010
00000100
00000000
00001000
00000000
00000010
,
00000100
00000001
00001000
00000000
00000001
00000010
00000001
00000000
,
00001000
00000100
00001001
00010000
,
10010000
00000000
00100000
00000000
01000000
10000000
00100000
00000000
,
00010000
00001000
00000100
00001000
00010000
00000000
01000000
00000000
,
00100000
00000000
00000000
00000000
00000000
00000000
00000000
00000000
00001000
00000000
00000000
00001000
00000100
00000000
00000000
00000100
00000010
00000000
00000000
00000000
00001001
00000000
00000000
00000000
00000001
00000000
00000000
00000000
00000000
00000000
00000000
00000000
,
00000010
00000100
00001000
00000000
00010000
01000000
10000000
01000000
,
00100000
00001000
01000000
00100000
,
10000000
01000000
00010000
00001000
,
00000100
00000000
00000001
00000000
00000010
00000000
00000001
00001000
,
00000010
00010000
00001000
01000000
00010000
10000000
01000000
00000000
,
00100000
00000000
00010000
00001000
,
00000110
00001001
00000000
00000000
,
00000000
00000000
00000000
00000000
;
