#TITLE:Healing Vision(X-Special);
#ARTIST:DE-SIRE;
#BANNER:Healing Vision(X-Special).png;
#BACKGROUND:Healing Vision(X-Special)-bg.png;
#CDTITLE:./CDTitles/DDR X.png;
#MUSIC:Healing Vision(X-Special).ogg;
#SAMPLESTART:79.61;
#SAMPLELENGTH:15;
#BPMS:0=97.4,4=98,36=196,204=49,209=196,275=96;
#STAGE:3;

//---------------dance-single - ----------------
#NOTES:
     dance-single:
     :
     Challenge:
     14:
     :
0000
0000
0000
0000
,
0000
0000
0000
0000
,
0001
0000
0000
0000
0001
0000
0000
0000
0001
0000
0000
0010
0001
0000
1001
0000
,
0001
0000
1000
0000
0100
0010
0001
0000
1000
0000
0001
0010
0100
0000
1000
0000
,
0002
0010
0000
0000
2003
0010
0000
0000
3002
0200
0003
0000
0301
0010
0100
0000
,
1001
0000
0100
0000
0010
0001
0100
0000
1000
0000
0001
0000
1000
0100
1000
0000
,
0002
0000
0013
0100
2000
0000
3002
0000
0203
0000
0300
0010
1000
0001
0100
0000
,
1001
0000
0010
0000
0001
0010
1000
0000
0110
0000
1000
0000
0100
0010
0001
0010
,
1000
0010
0001
0100
0010
1000
0100
0010
0001
0010
1000
0010
0001
0100
0010
1000
,
0001
0010
0100
1000
0000
0101
0000
1010
,
0000
1000
0100
0010
0001
2000
0000
3001
,
0200
0000
0301
0100
0000
0010
1000
0000
,
1000
0100
0020
0000
0031
0200
0010
0000
,
0310
1000
0001
0100
1000
0001
1000
0000
,
0100
0010
1000
0100
0010
1000
0001
0000
,
1000
0001
0100
0010
0001
1000
0100
0000
,
0010
0001
1000
0100
0001
0010
1000
0000
,
0002
0000
0013
0200
0000
1300
0000
0010
,
0001
0100
1000
0001
0010
0001
1000
0000
,
2000
0000
3100
0020
0000
0031
0000
0100
,
1000
0100
0001
0100
1000
0001
0010
0001
,
1000
0100
0010
0001
0000
0100
1000
0001
,
0010
0001
1000
0100
1000
0001
1000
0010
,
0100
0001
0100
0010
1000
0100
0010
0001
,
0200
1000
0000
0001
0000
1000
0300
0010
,
0012
0000
0013
0100
0000
0100
0010
0100
,
2010
0000
3100
0010
0000
0010
0100
0001
,
0120
0000
1030
0001
0000
0001
1000
0001
,
0210
0000
0301
1000
0000
1000
0001
1000
,
0110
0000
1000
1000
0000
0001
0010
0100
,
1100
0000
0001
0001
0000
0001
0100
0010
,
1010
0000
1000
1000
0000
1000
0100
0010
,
0011
0000
0001
0001
0000
1000
0010
0100
,
0011
0000
1001
0000
0010
0100
1000
0000
,
1100
0000
1001
0000
0010
0100
0001
0000
,
1000
0001
0100
1000
0100
0001
1000
0000
,
0001
1000
0100
0001
0100
1000
0001
0000
,
0001
0010
0100
0200
0000
0010
0310
0000
,
1000
0010
0100
0200
0000
0010
0310
0000
,
1000
0100
0001
0100
0010
1000
0010
0001
,
0100
1000
0100
0010
0001
0010
0100
1000
,
0210
0000
0000
0000
,
0000
0000
0300
0000
0001
1000
0001
1000
0001
0000
1000
0001
1000
0001
0000
0000
,
1001
0000
0001
0010
0100
0010
0001
0000
,
1001
0000
1000
0010
0100
0010
1000
0000
,
1001
0000
0010
0100
0010
1000
0001
0000
,
2000
3000
2000
3000
2000
3000
2000
3000
,
1000
0010
0100
0010
1000
0001
0010
0000
,
0001
0100
0010
0100
0001
1000
0100
0000
,
1000
0100
1000
0010
0100
0100
0100
0000
,
0110
0000
1001
0000
0220
0000
0000
0000
0000
0330
0000
0000
,
1010
1100
0001
0010
0100
1000
1100
1010
0001
1100
0101
0010
0100
0011
1001
0100
,
0110
2002
0000
3003
1000
0000
0100
0000
0010
0000
0002
0000
0000
0000
1003
0000
,
0200
0000
0301
0010
0100
2000
0000
3001
,
0020
0000
1030
0010
0001
2000
0000
3100
,
0002
0000
1003
0100
0001
2000
0000
3010
,
0001
0000
0100
1000
0001
0010
0000
1000
,
0001
0000
0010
0001
1000
0100
0000
0001
,
1000
0000
0001
0100
0001
1000
0000
1000
,
0001
0000
0010
0100
0001
0100
1000
0000
,
1200
0000
0301
0001
0100
1000
0100
0001
,
0010
0100
0010
0001
1000
0100
0010
0100
,
1000
0001
0010
0010
1000
0001
0100
1000
,
1000
0001
0100
0010
0100
0100
0100
0010
,
0001
1000
0001
0010
1000
0100
0010
0001
,
0100
1000
0001
1000
0010
0001
1000
0010
,
0100
0010
1000
0100
0001
1000
0100
0010
,
0001
1000
0010
0100
0001
1000
0100
0100
,
0200
0000
0300
2002
,
0000
0000
0000
3003
,
0000
0000
0000
0000
;

//---------------dance-double - ----------------
#NOTES:
     dance-double:
     :
     Challenge:
     15:
     :
00000000
00000000
00000000
00000000
,
00000000
00000000
00000000
00000000
,
00001000
00000000
00000000
00000000
00001000
00000000
00000000
00000000
00001000
00000000
00000000
00010000
00001000
00000000
00011000
00000000
,
00001000
00000000
00000100
00000000
00000001
00001000
00000100
00000000
00011000
00000000
00010000
00000000
10000000
00010000
01000000
00000000
,
00100000
00020000
00000000
00000000
00030100
00020000
00000000
00000000
00030010
00002000
00000000
00003000
00000010
00001000
00000100
00000000
,
00011000
00000000
00010000
00000000
01000000
10000000
01000000
00000000
11000000
00000000
00100000
01000000
00010000
00100000
01000000
00000000
,
00010000
00000000
00001000
00000000
00000100
00000001
00000100
00000000
00000101
00000000
00000100
00001000
00010000
00100000
00010000
00000000
,
00001000
00000000
00010000
00000000
00110000
00000000
01000000
00000000
11000000
00000000
00100000
00000000
00100000
00010000
00001000
00000100
,
00001000
00010000
00001000
00100000
00001000
01000000
00001000
00100000
00010000
00100000
01000000
10000000
02000000
00000000
00000000
00000000
,
03010000
01000000
10000000
00000000
10000000
00000000
01010000
00000000
,
00100000
00010000
00001000
00000000
00000100
00000000
00000101
00000000
,
00001000
00000001
00000100
00000000
00000001
00000000
00001100
00000000
,
00000001
00000010
00001000
00000000
00010000
01000000
10000000
00000000
,
10000000
00010000
01000000
00000000
00010000
10000000
00100000
00000000
,
00100000
01000000
00001000
00000000
00010000
00001000
00010000
00000000
,
00010000
00001000
00000010
00000000
00000010
00000001
00000010
00000100
,
00000001
00001100
00010000
00110000
,
00010000
10000000
01000000
00000000
10000000
10000000
01000000
00000000
,
01000000
00100000
00010000
00000000
00020000
00000000
00230000
00000000
,
00302000
00000000
00003000
00020000
00000000
00030010
00000200
00000000
,
00000300
00000002
00000100
00000000
00000103
00001000
00000000
00100000
,
01000000
00000000
00020000
00000000
00000000
00000000
00031000
00010000
,
00000000
01000000
10000000
00010000
00000000
00010000
00100000
00001000
,
00000000
00001000
00010000
00000010
00000000
00000001
00000100
00001000
,
00000000
00010000
00100000
10000000
00000000
01000000
00010000
00001000
,
00000100
00000010
00000001
00000100
00000001
00000010
00000100
00000000
,
00000100
00001000
00010000
00001000
00000100
00010000
00001000
00000000
,
00100000
00001000
00010000
00001000
00100000
00010000
01000000
00000000
,
00010000
00100000
10000000
00000000
10000000
00100000
00010000
00000000
,
00001000
00000100
00000001
00000010
00000100
00001000
00000100
00000000
,
00001000
00000010
00000001
00001000
00000100
00000001
00001000
00000000
,
00000100
00001000
00010000
00100000
00010000
00001000
00000010
00000000
,
00000010
00001000
00010000
01000000
10000000
01000000
00010000
00000000
,
00001000
00000010
00000100
00000010
00000001
00001000
00000100
00000000
,
00001000
00010000
00001000
00100000
00010000
00001000
00000100
00000000
,
00010000
00100000
00010000
01000000
00100000
10000000
01000000
00000000
,
01000000
00010000
00100000
01000000
00100000
00010000
01000000
00000000
,
01000000
00100000
00001000
00000100
00010000
00001000
00000100
00000000
,
00010000
00001000
00010000
00000100
00000001
00000010
00000100
00000000
,
00000100
00000010
00000001
00000100
00001000
00010000
01000000
10000000
,
00100000
00010000
00001000
00010000
00100000
00010000
00001000
00010000
,
00022000
00000000
00000000
00000000
,
00000000
00000000
00003000
00000000
00031000
00010000
00001000
00010000
00001000
00000000
00001000
00010000
00001000
00010000
00000000
00000000
,
00001000
00000100
00000020
00000100
00000030
00000100
00000010
00001000
,
00000100
00010000
00002000
00010000
00003000
00010000
00100000
01000000
,
00100000
00010000
02000000
00100000
00000000
00010000
03000000
00001000
,
00020000
00030000
00020000
00030000
00020000
00030000
00020000
00030000
,
00001000
01000000
00100000
00000000
01000000
00100000
00001000
00000000
,
00001000
00000100
00000010
00000000
00000010
00000100
00010000
00000000
,
00010000
00000100
00000001
00000100
00001000
00010000
01000000
00000000
,
00100000
00000000
10010000
00000000
02200000
00000000
00000000
00000000
00000000
03300000
00000000
00000000
,
10100000
00110000
00010000
00001000
00000100
00000001
00000011
00000101
00000010
00001100
00011000
00100000
01000000
11000000
01010000
01000000
,
00101000
00022000
00000000
00033000
00010000
00000000
00001000
00000000
00000100
00000000
00000001
00000000
00000100
00000000
00001000
00000000
,
00000010
00000000
00000010
00001000
00010000
00100000
01000000
00100000
,
00010000
00000000
00010000
00001000
00000100
00000000
00001000
00010000
,
01000000
00000000
00020000
10000000
10030000
00000000
20000000
00010000
,
30010000
00000000
10000000
01000000
00100000
00010000
01000000
00100000
,
00010000
00000000
00001000
00000100
00000010
00001000
00000100
00000010
,
00000001
00000000
00000001
00000010
00000100
00001000
00010000
00100000
,
01000000
00000000
00100000
00010000
00001000
00000100
00001000
01000000
,
10000000
00000000
10000000
00100000
01000000
00010000
00100000
00001000
,
02000000
00000000
03100000
10000000
01000000
00010000
00001000
00000100
,
00000002
00000000
00000103
00001000
00010000
00100000
00010000
00001000
,
00000100
00000000
00000010
00010000
00000100
00000000
00001000
00010000
,
00100000
00000000
01000000
00100000
10000000
00100000
00010000
01000000
,
10000000
01000000
00010000
00001000
00000010
00000001
00001000
00000001
,
00000010
00000100
00000001
00000100
00001000
00010000
01000000
10000000
,
01000000
00010000
00100000
01000000
00010000
00001000
00000100
00000010
,
00000001
00000000
00000000
00002002
,
00000000
00000000
00000000
00003003
,
00000000
00000000
00000000
00000000
;
